  0
SECTION
  2
HEADER
  9
$ACADVER
  1
AC1009
  9
$INSBASE
 10
0.0
 20
0.0
 30
0.0
  9
$EXTMIN
 10
-111.240882
 20
-34.075051
 30
0.0
  9
$EXTMAX
 10
151.223443
 20
188.698208
 30
0.0
  9
$LIMMIN
 10
-150.0
 20
-212.142857
  9
$LIMMAX
 10
150.0
 20
212.142857
  9
$ORTHOMODE
 70
     1
  9
$REGENMODE
 70
     1
  9
$FILLMODE
 70
     1
  9
$QTEXTMODE
 70
     0
  9
$MIRRTEXT
 70
     1
  9
$DRAGMODE
 70
     2
  9
$LTSCALE
 40
0.2
  9
$OSMODE
 70
   545
  9
$ATTMODE
 70
     1
  9
$TEXTSIZE
 40
2.0
  9
$TRACEWID
 40
0.05
  9
$TEXTSTYLE
  7
FSTD2
  9
$CLAYER
  8
0
  9
$CELTYPE
  6
BYLAYER
  9
$CECOLOR
 62
   256
  9
$DIMSCALE
 40
0.0
  9
$DIMASZ
 40
3.0
  9
$DIMEXO
 40
1.0
  9
$DIMDLI
 40
0.38
  9
$DIMRND
 40
0.0
  9
$DIMDLE
 40
0.0
  9
$DIMEXE
 40
1.0
  9
$DIMTP
 40
0.2
  9
$DIMTM
 40
0.0
  9
$DIMTXT
 40
3.0
  9
$DIMCEN
 40
0.09
  9
$DIMTSZ
 40
0.0
  9
$DIMTOL
 70
     0
  9
$DIMLIM
 70
     0
  9
$DIMTIH
 70
     0
  9
$DIMTOH
 70
     0
  9
$DIMSE1
 70
     0
  9
$DIMSE2
 70
     0
  9
$DIMTAD
 70
     1
  9
$DIMZIN
 70
     8
  9
$DIMBLK
  1

  9
$DIMASO
 70
     1
  9
$DIMSHO
 70
     1
  9
$DIMPOST
  1

  9
$DIMAPOST
  1

  9
$DIMALT
 70
     0
  9
$DIMALTD
 70
     4
  9
$DIMALTF
 40
0.0394
  9
$DIMLFAC
 40
1.0
  9
$DIMTOFL
 70
     1
  9
$DIMTVP
 40
0.0
  9
$DIMTIX
 70
     0
  9
$DIMSOXD
 70
     0
  9
$DIMSAH
 70
     1
  9
$DIMBLK1
  1
_DOTSMALL
  9
$DIMBLK2
  1
_DOTSMALL
  9
$DIMSTYLE
  2
FSTD4
  9
$DIMCLRD
 70
     0
  9
$DIMCLRE
 70
     0
  9
$DIMCLRT
 70
     0
  9
$DIMTFAC
 40
0.7
  9
$DIMGAP
 40
1.0
  9
$LUNITS
 70
     2
  9
$LUPREC
 70
     4
  9
$SKETCHINC
 40
0.1
  9
$FILLETRAD
 40
0.0
  9
$AUNITS
 70
     0
  9
$AUPREC
 70
     0
  9
$MENU
  1
acad
  9
$ELEVATION
 40
0.0
  9
$PELEVATION
 40
0.0
  9
$THICKNESS
 40
0.0
  9
$LIMCHECK
 70
     0
  9
$BLIPMODE
 70
     0
  9
$CHAMFERA
 40
0.0
  9
$CHAMFERB
 40
0.0
  9
$SKPOLY
 70
     0
  9
$TDCREATE
 40
2455839.736255787
  9
$TDUPDATE
 40
2455843.647163622
  9
$TDINDWG
 40
0.1178298611
  9
$TDUSRTIMER
 40
0.1178298611
  9
$USRTIMER
 70
     1
  9
$ANGBASE
 50
0.0
  9
$ANGDIR
 70
     0
  9
$PDMODE
 70
     0
  9
$PDSIZE
 40
0.0
  9
$PLINEWID
 40
0.0
  9
$COORDS
 70
     1
  9
$SPLFRAME
 70
     0
  9
$SPLINETYPE
 70
     6
  9
$SPLINESEGS
 70
     8
  9
$ATTDIA
 70
     0
  9
$ATTREQ
 70
     1
  9
$HANDLING
 70
     1
  9
$HANDSEED
  5
1989
  9
$SURFTAB1
 70
     6
  9
$SURFTAB2
 70
     6
  9
$SURFTYPE
 70
     6
  9
$SURFU
 70
     6
  9
$SURFV
 70
     6
  9
$UCSNAME
  2

  9
$UCSORG
 10
0.0
 20
0.0
 30
0.0
  9
$UCSXDIR
 10
1.0
 20
0.0
 30
0.0
  9
$UCSYDIR
 10
0.0
 20
1.0
 30
0.0
  9
$PUCSNAME
  2

  9
$PUCSORG
 10
0.0
 20
0.0
 30
0.0
  9
$PUCSXDIR
 10
1.0
 20
0.0
 30
0.0
  9
$PUCSYDIR
 10
0.0
 20
1.0
 30
0.0
  9
$USERI1
 70
     0
  9
$USERI2
 70
     0
  9
$USERI3
 70
     0
  9
$USERI4
 70
     0
  9
$USERI5
 70
     0
  9
$USERR1
 40
0.0
  9
$USERR2
 40
0.0
  9
$USERR3
 40
0.0
  9
$USERR4
 40
0.0
  9
$USERR5
 40
0.0
  9
$WORLDVIEW
 70
     1
  9
$SHADEDGE
 70
     3
  9
$SHADEDIF
 70
    70
  9
$TILEMODE
 70
     1
  9
$MAXACTVP
 70
    16
  9
$PINSBASE
 10
0.0
 20
0.0
 30
0.0
  9
$PLIMCHECK
 70
     0
  9
$PEXTMIN
 10
1.000000E+20
 20
1.000000E+20
 30
1.000000E+20
  9
$PEXTMAX
 10
-1.000000E+20
 20
-1.000000E+20
 30
-1.000000E+20
  9
$PLIMMIN
 10
0.0
 20
0.0
  9
$PLIMMAX
 10
12.0
 20
9.0
  9
$UNITMODE
 70
     0
  9
$VISRETAIN
 70
     0
  9
$PLINEGEN
 70
     1
  9
$PSLTSCALE
 70
     0
  9
$TREEDEPTH
 70
  3020
  9
$DWGCODEPAGE
  3
dos932
  0
ENDSEC
  0
SECTION
  2
TABLES
  0
TABLE
  2
VPORT
 70
     2
  0
VPORT
  2
*ACTIVE
 70
     0
 10
0.0
 20
0.0
 11
1.0
 21
1.0
 12
50.465818
 22
84.517239
 13
0.0
 23
0.0
 14
1.0
 24
1.0
 15
0.0
 25
0.0
 16
0.0
 26
0.0
 36
1.0
 17
0.0
 27
0.0
 37
0.0
 40
238.883936
 41
1.492415
 42
50.0
 43
0.0
 44
0.0
 50
0.0
 51
0.0
 71
     0
 72
   100
 73
     1
 74
     1
 75
     0
 76
     0
 77
     0
 78
     0
  0
ENDTAB
  0
TABLE
  2
LTYPE
 70
     4
  0
LTYPE
  2
CONTINUOUS
 70
    64
  3
Solid line
 72
    65
 73
     0
 40
0.0
  0
LTYPE
  2
PHANTOM
 70
    64
  3
Phantom ______  __  __  ______  __  __  ______
 72
    65
 73
     6
 40
63.5
 49
31.75
 49
-6.35
 49
6.35
 49
-6.35
 49
6.35
 49
-6.35
  0
LTYPE
  2
CENTER
 70
    64
  3
Center ____ _ ____ _ ____ _ ____ _ ____ _ ____
 72
    65
 73
     4
 40
50.8
 49
31.75
 49
-6.35
 49
6.35
 49
-6.35
  0
LTYPE
  2
DASHED
 70
    64
  3
Dashed __ __ __ __ __ __ __ __ __ __ __ __ __ _
 72
    65
 73
     2
 40
19.05
 49
12.7
 49
-6.35
  0
ENDTAB
  0
TABLE
  2
LAYER
 70
    11
  0
LAYER
  2
0
 70
    64
 62
     7
  6
CONTINUOUS
  0
LAYER
  2
DEFPOINTS
 70
    64
 62
     7
  6
CONTINUOUS
  0
LAYER
  2
F03_CNT
 70
    64
 62
     1
  6
CENTER
  0
LAYER
  2
F02_DIM
 70
    64
 62
     4
  6
CONTINUOUS
  0
LAYER
  2
F05_PRO
 70
    64
 62
     4
  6
CONTINUOUS
  0
LAYER
  2
F01_OUT
 70
    64
 62
     6
  6
CONTINUOUS
  0
LAYER
  2
F06_CUT
 70
    64
 62
     6
  6
CONTINUOUS
  0
LAYER
  2
F04_HID
 70
    64
 62
     3
  6
DASHED
  0
LAYER
  2
F07_COO
 70
    64
 62
     3
  6
PHANTOM
  0
LAYER
  2
F08_IMG
 70
    64
 62
     2
  6
PHANTOM
  0
LAYER
  2
F09_IMG2
 70
    64
 62
     2
  6
PHANTOM
  0
ENDTAB
  0
TABLE
  2
STYLE
 70
     4
  0
STYLE
  2
MX_NOTE_STANDARD
 70
     0
 40
0.0
 41
1.0
 50
0.0
 71
     0
 42
5.950857
  3
txt.shx
  4
extfont.shx
  0
STYLE
  2
STANDARD
 70
     0
 40
0.0
 41
1.0
 50
0.0
 71
     0
 42
0.2
  3

  4

  0
STYLE
  2
FSTD1
 70
    64
 40
0.0
 41
1.0
 50
0.0
 71
     0
 42
4.0
  3
txt.shx
  4
bigfont.shx
  0
STYLE
  2
FSTD2
 70
    64
 40
0.0
 41
0.7
 50
0.0
 71
     0
 42
2.0
  3
txt.shx
  4
bigfont.shx
  0
ENDTAB
  0
TABLE
  2
VIEW
 70
     0
  0
ENDTAB
  0
TABLE
  2
UCS
 70
     0
  0
ENDTAB
  0
TABLE
  2
APPID
 70
     3
  0
APPID
  2
ACAD
 70
    64
  0
ENDTAB
  0
TABLE
  2
DIMSTYLE
 70
     5
  0
DIMSTYLE
  2
MXDIMSTYLE
 70
     0
  3

  4

  5

  6
OPEN30
  7
OPEN30
 40
1.428571
 41
2.5
 42
0.5
 43
3.75
 44
1.0
 45
0.0
 46
0.0
 47
0.0
 48
0.0
140
4.1656
141
2.5
142
0.0
143
0.03937
144
1.0
145
0.0
146
1.0
147
1.0
 71
     0
 72
     0
 73
     0
 74
     0
 75
     0
 76
     0
 77
     1
 78
     8
170
     0
171
     4
172
     1
173
     1
174
     0
175
     0
176
     0
177
     0
178
     0
  0
DIMSTYLE
  2
FSTD1
 70
    64
  3

  4

  5

  6
_OPEN30
  7
_OPEN30
 40
0.0
 41
3.0
 42
1.0
 43
0.38
 44
1.0
 45
0.0
 46
0.0
 47
0.2
 48
0.0
140
3.0
141
0.09
142
0.0
143
0.0394
144
1.0
145
0.0
146
0.7
147
1.0
 71
     0
 72
     0
 73
     0
 74
     0
 75
     0
 76
     0
 77
     1
 78
     8
170
     0
171
     4
172
     1
173
     1
174
     0
175
     0
176
     0
177
     0
178
     0
  0
DIMSTYLE
  2
FSTD2
 70
    64
  3

  4

  5

  6
_OPEN30
  7
_OPEN30
 40
0.0
 41
3.0
 42
1.0
 43
0.38
 44
1.0
 45
0.0
 46
0.0
 47
0.2
 48
0.0
140
3.0
141
0.09
142
0.0
143
0.0394
144
1.0
145
0.0
146
0.7
147
-1.0
 71
     0
 72
     0
 73
     0
 74
     0
 75
     0
 76
     0
 77
     1
 78
     8
170
     0
171
     4
172
     1
173
     1
174
     0
175
     0
176
     0
177
     0
178
     0
  0
DIMSTYLE
  2
FSTD3
 70
    64
  3

  4

  5

  6
_OPEN30
  7
_OPEN30
 40
0.0
 41
3.0
 42
1.0
 43
0.38
 44
1.0
 45
0.0
 46
0.0
 47
0.2
 48
0.0
140
3.0
141
0.09
142
0.0
143
0.0394
144
1.0
145
0.0
146
0.7
147
1.0
 71
     0
 72
     0
 73
     0
 74
     0
 75
     0
 76
     0
 77
     1
 78
     8
170
     0
171
     4
172
     1
173
     1
174
     0
175
     0
176
     0
177
     0
178
     0
  0
DIMSTYLE
  2
FSTD4
 70
     0
  3

  4

  5

  6
_DOTSMALL
  7
_DOTSMALL
 40
0.0
 41
3.0
 42
1.0
 43
0.38
 44
1.0
 45
0.0
 46
0.0
 47
0.2
 48
0.0
140
3.0
141
0.09
142
0.0
143
0.0394
144
1.0
145
0.0
146
0.7
147
1.0
 71
     0
 72
     0
 73
     0
 74
     0
 75
     0
 76
     0
 77
     1
 78
     8
170
     0
171
     4
172
     1
173
     1
174
     0
175
     0
176
     0
177
     0
178
     0
  0
ENDTAB
  0
ENDSEC
  0
SECTION
  2
BLOCKS
  0
BLOCK
  8
0
  5
125
  2
_OPEN30
 70
    66
 10
0.0
 20
0.0
 30
0.0
  3
_OPEN30
1001
ACAD
1000
RTLwPs
1070
   158
1000
RTMaterial
1005
0
  0
LINE
  8
0
  6
BYBLOCK
 62
     0
  5
126
 10
-1.0
 20
0.267949
 30
0.0
 11
0.0
 21
0.0
 31
0.0
1001
ACAD
1000
RTLwPs
1070
   158
1000
RTMaterial
1005
0
  0
LINE
  8
0
  6
BYBLOCK
 62
     0
  5
127
 10
0.0
 20
0.0
 30
0.0
 11
-1.0
 21
-0.267949
 31
0.0
1001
ACAD
1000
RTLwPs
1070
   158
1000
RTMaterial
1005
0
  0
LINE
  8
0
  6
BYBLOCK
 62
     0
  5
128
 10
0.0
 20
0.0
 30
0.0
 11
-1.0
 21
0.0
 31
0.0
1001
ACAD
1000
RTLwPs
1070
   158
1000
RTMaterial
1005
0
  0
ENDBLK
  8
0
  5
129
1001
ACAD
1000
RTLwPs
1070
   158
1000
RTMaterial
1005
0
  0
BLOCK
  8
0
  5
170F
  2
*D1
 70
    65
 10
0.0
 20
0.0
 30
0.0
  3
*D1
  0
LINE
  8
0
  6
BYBLOCK
 62
     0
  5
1710
 10
-92.379386
 20
151.423609
 30
0.0
 11
-92.379386
 21
158.427655
 31
0.0
  0
LINE
  8
0
  6
BYBLOCK
 62
     0
  5
1711
 10
-86.379386
 20
150.923609
 30
0.0
 11
-86.379386
 21
158.427655
 31
0.0
  0
LINE
  8
0
  6
BYBLOCK
 62
     0
  5
1712
 10
-95.379386
 20
157.427655
 30
0.0
 11
-98.379386
 21
157.427655
 31
0.0
  0
LINE
  8
0
  6
BYBLOCK
 62
     0
  5
1713
 10
-83.379386
 20
157.427655
 30
0.0
 11
-80.379386
 21
157.427655
 31
0.0
  0
LINE
  8
0
  6
BYBLOCK
 62
     0
  5
1714
 10
-92.379386
 20
157.427655
 30
0.0
 11
-86.379386
 21
157.427655
 31
0.0
  0
INSERT
  8
0
  6
BYBLOCK
 62
     0
  5
1715
  2
_OPEN30
 10
-92.379386
 20
157.427655
 30
0.0
 41
3.0
 42
3.0
 43
3.0
  0
INSERT
  8
0
  6
BYBLOCK
 62
     0
  5
1716
  2
_OPEN30
 10
-86.379386
 20
157.427655
 30
0.0
 41
3.0
 42
3.0
 50
180.0
 43
3.0
  0
TEXT
  8
0
  6
BYBLOCK
 62
     0
  5
1717
 10
-90.379386
 20
158.427655
 30
0.0
 40
3.0
  1
6
  7
FSTD1
  0
POINT
  8
DEFPOINTS
  6
BYBLOCK
 62
     0
  5
1718
 10
-92.379386
 20
150.423609
 30
0.0
  0
POINT
  8
DEFPOINTS
  6
BYBLOCK
 62
     0
  5
1719
 10
-86.379386
 20
149.923609
 30
0.0
  0
POINT
  8
DEFPOINTS
  6
BYBLOCK
 62
     0
  5
171A
 10
-86.379386
 20
157.427655
 30
0.0
  0
ENDBLK
  8
0
  5
171B
  0
BLOCK
  8
0
  5
171E
  2
*D2
 70
    65
 10
0.0
 20
0.0
 30
0.0
  3
*D2
  0
LINE
  8
0
  6
BYBLOCK
 62
     0
  5
171F
 10
-92.379386
 20
151.423609
 30
0.0
 11
-92.379386
 21
165.795493
 31
0.0
  0
LINE
  8
0
  6
BYBLOCK
 62
     0
  5
1720
 10
-56.379386
 20
146.623609
 30
0.0
 11
-56.379386
 21
165.795493
 31
0.0
  0
LINE
  8
0
  6
BYBLOCK
 62
     0
  5
1721
 10
-89.379386
 20
164.795493
 30
0.0
 11
-59.379386
 21
164.795493
 31
0.0
  0
INSERT
  8
0
  6
BYBLOCK
 62
     0
  5
1722
  2
_OPEN30
 10
-92.379386
 20
164.795493
 30
0.0
 41
3.0
 42
3.0
 50
180.0
 43
3.0
  0
INSERT
  8
0
  6
BYBLOCK
 62
     0
  5
1723
  2
_OPEN30
 10
-56.379386
 20
164.795493
 30
0.0
 41
3.0
 42
3.0
 43
3.0
  0
TEXT
  8
0
  6
BYBLOCK
 62
     0
  5
1724
 10
-76.879386
 20
165.795493
 30
0.0
 40
3.0
  1
36
  7
FSTD1
  0
POINT
  8
DEFPOINTS
  6
BYBLOCK
 62
     0
  5
1725
 10
-92.379386
 20
150.423609
 30
0.0
  0
POINT
  8
DEFPOINTS
  6
BYBLOCK
 62
     0
  5
1726
 10
-56.379386
 20
145.623609
 30
0.0
  0
POINT
  8
DEFPOINTS
  6
BYBLOCK
 62
     0
  5
1727
 10
-56.379386
 20
164.795493
 30
0.0
  0
ENDBLK
  8
0
  5
1728
  0
BLOCK
  8
0
  5
172B
  2
*D3
 70
    65
 10
0.0
 20
0.0
 30
0.0
  3
*D3
  0
LINE
  8
0
  6
BYBLOCK
 62
     0
  5
172C
 10
-92.379386
 20
151.423609
 30
0.0
 11
-92.379386
 21
173.543849
 31
0.0
  0
LINE
  8
0
  6
BYBLOCK
 62
     0
  5
172D
 10
-36.379386
 20
137.923609
 30
0.0
 11
-36.379386
 21
173.543849
 31
0.0
  0
LINE
  8
0
  6
BYBLOCK
 62
     0
  5
172E
 10
-89.379386
 20
172.543849
 30
0.0
 11
-39.379386
 21
172.543849
 31
0.0
  0
INSERT
  8
0
  6
BYBLOCK
 62
     0
  5
172F
  2
_OPEN30
 10
-92.379386
 20
172.543849
 30
0.0
 41
3.0
 42
3.0
 50
180.0
 43
3.0
  0
INSERT
  8
0
  6
BYBLOCK
 62
     0
  5
1730
  2
_OPEN30
 10
-36.379386
 20
172.543849
 30
0.0
 41
3.0
 42
3.0
 43
3.0
  0
TEXT
  8
0
  6
BYBLOCK
 62
     0
  5
1731
 10
-66.879386
 20
173.543849
 30
0.0
 40
3.0
  1
56
  7
FSTD1
  0
POINT
  8
DEFPOINTS
  6
BYBLOCK
 62
     0
  5
1732
 10
-92.379386
 20
150.423609
 30
0.0
  0
POINT
  8
DEFPOINTS
  6
BYBLOCK
 62
     0
  5
1733
 10
-36.379386
 20
136.923609
 30
0.0
  0
POINT
  8
DEFPOINTS
  6
BYBLOCK
 62
     0
  5
1734
 10
-36.379386
 20
172.543849
 30
0.0
  0
ENDBLK
  8
0
  5
1735
  0
BLOCK
  8
0
  5
1738
  2
*D4
 70
    65
 10
0.0
 20
0.0
 30
0.0
  3
*D4
  0
LINE
  8
0
  6
BYBLOCK
 62
     0
  5
1739
 10
-104.379386
 20
141.223609
 30
0.0
 11
-104.379386
 21
180.176754
 31
0.0
  0
LINE
  8
0
  6
BYBLOCK
 62
     0
  5
173A
 10
-36.379386
 20
137.923609
 30
0.0
 11
-36.379386
 21
180.176754
 31
0.0
  0
LINE
  8
0
  6
BYBLOCK
 62
     0
  5
173B
 10
-101.379386
 20
179.176754
 30
0.0
 11
-39.379386
 21
179.176754
 31
0.0
  0
INSERT
  8
0
  6
BYBLOCK
 62
     0
  5
173C
  2
_OPEN30
 10
-104.379386
 20
179.176754
 30
0.0
 41
3.0
 42
3.0
 50
180.0
 43
3.0
  0
INSERT
  8
0
  6
BYBLOCK
 62
     0
  5
173D
  2
_OPEN30
 10
-36.379386
 20
179.176754
 30
0.0
 41
3.0
 42
3.0
 43
3.0
  0
TEXT
  8
0
  6
BYBLOCK
 62
     0
  5
173E
 10
-72.879386
 20
180.176754
 30
0.0
 40
3.0
  1
68
  7
FSTD1
  0
POINT
  8
DEFPOINTS
  6
BYBLOCK
 62
     0
  5
173F
 10
-104.379386
 20
140.223609
 30
0.0
  0
POINT
  8
DEFPOINTS
  6
BYBLOCK
 62
     0
  5
1740
 10
-36.379386
 20
136.923609
 30
0.0
  0
POINT
  8
DEFPOINTS
  6
BYBLOCK
 62
     0
  5
1741
 10
-36.379386
 20
179.176754
 30
0.0
  0
ENDBLK
  8
0
  5
1742
  0
BLOCK
  8
0
  5
1751
  2
*D5
 70
    65
 10
0.0
 20
0.0
 30
0.0
  3
*D5
  0
LINE
  8
0
  6
BYBLOCK
 62
     0
  5
1752
 10
-36.379386
 20
137.923609
 30
0.0
 11
-36.379386
 21
173.543849
 31
0.0
  0
LINE
  8
0
  6
BYBLOCK
 62
     0
  5
1753
 10
-2.579386
 20
128.223609
 30
0.0
 11
-2.579386
 21
173.543849
 31
0.0
  0
LINE
  8
0
  6
BYBLOCK
 62
     0
  5
1754
 10
-33.379386
 20
172.543849
 30
0.0
 11
-5.579386
 21
172.543849
 31
0.0
  0
INSERT
  8
0
  6
BYBLOCK
 62
     0
  5
1755
  2
_OPEN30
 10
-36.379386
 20
172.543849
 30
0.0
 41
3.0
 42
3.0
 50
180.0
 43
3.0
  0
INSERT
  8
0
  6
BYBLOCK
 62
     0
  5
1756
  2
_OPEN30
 10
-2.579386
 20
172.543849
 30
0.0
 41
3.0
 42
3.0
 43
3.0
  0
TEXT
  8
0
  6
BYBLOCK
 62
     0
  5
1757
 10
-23.979386
 20
173.543849
 30
0.0
 40
3.0
  1
(34)
  7
FSTD1
  0
POINT
  8
DEFPOINTS
  6
BYBLOCK
 62
     0
  5
1758
 10
-36.379386
 20
136.923609
 30
0.0
  0
POINT
  8
DEFPOINTS
  6
BYBLOCK
 62
     0
  5
1759
 10
-2.579386
 20
127.223609
 30
0.0
  0
POINT
  8
DEFPOINTS
  6
BYBLOCK
 62
     0
  5
175A
 10
-2.579386
 20
172.543849
 30
0.0
  0
ENDBLK
  8
0
  5
175B
  0
BLOCK
  8
0
  5
175F
  2
*D6
 70
    65
 10
0.0
 20
0.0
 30
0.0
  3
*D6
  0
LINE
  8
0
  6
BYBLOCK
 62
     0
  5
1760
 10
28.56315
 20
104.673609
 30
0.0
 11
28.56315
 21
88.099857
 31
0.0
  0
LINE
  8
0
  6
BYBLOCK
 62
     0
  5
1761
 10
37.26315
 20
104.673609
 30
0.0
 11
37.26315
 21
88.099857
 31
0.0
  0
LINE
  8
0
  6
BYBLOCK
 62
     0
  5
1762
 10
31.56315
 20
89.099857
 30
0.0
 11
34.26315
 21
89.099857
 31
0.0
  0
INSERT
  8
0
  6
BYBLOCK
 62
     0
  5
1763
  2
_OPEN30
 10
28.56315
 20
89.099857
 30
0.0
 41
3.0
 42
3.0
 50
180.0
 43
3.0
  0
INSERT
  8
0
  6
BYBLOCK
 62
     0
  5
1764
  2
_OPEN30
 10
37.26315
 20
89.099857
 30
0.0
 41
3.0
 42
3.0
 43
3.0
  0
TEXT
  8
0
  6
BYBLOCK
 62
     0
  5
1765
 10
29.91315
 20
90.099857
 30
0.0
 40
3.0
  1
8.7
  7
FSTD1
  0
POINT
  8
DEFPOINTS
  6
BYBLOCK
 62
     0
  5
1766
 10
28.56315
 20
105.673609
 30
0.0
  0
POINT
  8
DEFPOINTS
  6
BYBLOCK
 62
     0
  5
1767
 10
37.26315
 20
105.673609
 30
0.0
  0
POINT
  8
DEFPOINTS
  6
BYBLOCK
 62
     0
  5
1768
 10
37.26315
 20
89.099857
 30
0.0
  0
ENDBLK
  8
0
  5
1769
  0
BLOCK
  8
0
  5
1787
  2
*D7
 70
    65
 10
0.0
 20
0.0
 30
0.0
  3
*D7
  0
LINE
  8
0
  6
BYBLOCK
 62
     0
  5
1788
 10
42.08815
 20
101.723609
 30
0.0
 11
42.08815
 21
81.748729
 31
0.0
  0
LINE
  8
0
  6
BYBLOCK
 62
     0
  5
1789
 10
49.83815
 20
101.723609
 30
0.0
 11
49.83815
 21
81.748729
 31
0.0
  0
LINE
  8
0
  6
BYBLOCK
 62
     0
  5
178A
 10
39.08815
 20
82.748729
 30
0.0
 11
36.08815
 21
82.748729
 31
0.0
  0
LINE
  8
0
  6
BYBLOCK
 62
     0
  5
178B
 10
52.83815
 20
82.748729
 30
0.0
 11
55.83815
 21
82.748729
 31
0.0
  0
LINE
  8
0
  6
BYBLOCK
 62
     0
  5
178C
 10
42.08815
 20
82.748729
 30
0.0
 11
49.83815
 21
82.748729
 31
0.0
  0
INSERT
  8
0
  6
BYBLOCK
 62
     0
  5
178D
  2
_OPEN30
 10
42.08815
 20
82.748729
 30
0.0
 41
3.0
 42
3.0
 43
3.0
  0
INSERT
  8
0
  6
BYBLOCK
 62
     0
  5
178E
  2
_OPEN30
 10
49.83815
 20
82.748729
 30
0.0
 41
3.0
 42
3.0
 50
180.0
 43
3.0
  0
TEXT
  8
0
  6
BYBLOCK
 62
     0
  5
178F
 10
42.96315
 20
83.748729
 30
0.0
 40
3.0
  1
7.7
  7
FSTD1
  0
POINT
  8
DEFPOINTS
  6
BYBLOCK
 62
     0
  5
1790
 10
42.08815
 20
102.723609
 30
0.0
  0
POINT
  8
DEFPOINTS
  6
BYBLOCK
 62
     0
  5
1791
 10
49.83815
 20
102.723609
 30
0.0
  0
POINT
  8
DEFPOINTS
  6
BYBLOCK
 62
     0
  5
1792
 10
49.83815
 20
82.748729
 30
0.0
  0
ENDBLK
  8
0
  5
1793
  0
BLOCK
  8
0
  5
1795
  2
*D8
 70
    65
 10
0.0
 20
0.0
 30
0.0
  3
*D8
  0
LINE
  8
0
  6
BYBLOCK
 62
     0
  5
1796
 10
63.36315
 20
104.673609
 30
0.0
 11
63.36315
 21
88.099857
 31
0.0
  0
LINE
  8
0
  6
BYBLOCK
 62
     0
  5
1797
 10
74.06315
 20
104.673609
 30
0.0
 11
74.06315
 21
88.099857
 31
0.0
  0
LINE
  8
0
  6
BYBLOCK
 62
     0
  5
1798
 10
66.36315
 20
89.099857
 30
0.0
 11
71.06315
 21
89.099857
 31
0.0
  0
INSERT
  8
0
  6
BYBLOCK
 62
     0
  5
1799
  2
_OPEN30
 10
63.36315
 20
89.099857
 30
0.0
 41
3.0
 42
3.0
 50
180.0
 43
3.0
  0
INSERT
  8
0
  6
BYBLOCK
 62
     0
  5
179A
  2
_OPEN30
 10
74.06315
 20
89.099857
 30
0.0
 41
3.0
 42
3.0
 43
3.0
  0
TEXT
  8
0
  6
BYBLOCK
 62
     0
  5
179B
 10
64.96315
 20
90.099857
 30
0.0
 40
3.0
  1
10.7
  7
FSTD1
  0
POINT
  8
DEFPOINTS
  6
BYBLOCK
 62
     0
  5
179C
 10
63.36315
 20
105.673609
 30
0.0
  0
POINT
  8
DEFPOINTS
  6
BYBLOCK
 62
     0
  5
179D
 10
74.06315
 20
105.673609
 30
0.0
  0
POINT
  8
DEFPOINTS
  6
BYBLOCK
 62
     0
  5
179E
 10
74.06315
 20
89.099857
 30
0.0
  0
ENDBLK
  8
0
  5
179F
  0
BLOCK
  8
0
  5
17A2
  2
*D9
 70
    65
 10
0.0
 20
0.0
 30
0.0
  3
*D9
  0
LINE
  8
0
  6
BYBLOCK
 62
     0
  5
17A3
 10
22.31315
 20
141.923609
 30
0.0
 11
15.801171
 21
141.923609
 31
0.0
  0
LINE
  8
0
  6
BYBLOCK
 62
     0
  5
17A4
 10
22.31315
 20
110.923609
 30
0.0
 11
15.801171
 21
110.923609
 31
0.0
  0
LINE
  8
0
  6
BYBLOCK
 62
     0
  5
17A5
 10
16.801171
 20
138.923609
 30
0.0
 11
16.801171
 21
113.923609
 31
0.0
  0
INSERT
  8
0
  6
BYBLOCK
 62
     0
  5
17A6
  2
_OPEN30
 10
16.801171
 20
141.923609
 30
0.0
 41
3.0
 42
3.0
 50
90.0
 43
3.0
  0
INSERT
  8
0
  6
BYBLOCK
 62
     0
  5
17A7
  2
_OPEN30
 10
16.801171
 20
110.923609
 30
0.0
 41
3.0
 42
3.0
 50
270.0
 43
3.0
  0
TEXT
  8
0
  6
BYBLOCK
 62
     0
  5
17A8
 10
15.801171
 20
124.423609
 30
0.0
 40
3.0
  1
31
 50
90.0
  7
FSTD1
  0
POINT
  8
DEFPOINTS
  6
BYBLOCK
 62
     0
  5
17A9
 10
23.31315
 20
141.923609
 30
0.0
  0
POINT
  8
DEFPOINTS
  6
BYBLOCK
 62
     0
  5
17AA
 10
23.31315
 20
110.923609
 30
0.0
  0
POINT
  8
DEFPOINTS
  6
BYBLOCK
 62
     0
  5
17AB
 10
16.801171
 20
110.923609
 30
0.0
  0
ENDBLK
  8
0
  5
17AC
  0
BLOCK
  8
0
  5
18B6
  2
*D10
 70
    65
 10
0.0
 20
0.0
 30
0.0
  3
*D10
  0
LINE
  8
0
  6
BYBLOCK
 62
     0
  5
18B7
 10
131.066769
 20
102.423609
 30
0.0
 11
149.89968
 21
102.423609
 31
0.0
  0
LINE
  8
0
  6
BYBLOCK
 62
     0
  5
18B8
 10
131.066769
 20
150.423609
 30
0.0
 11
149.89968
 21
150.423609
 31
0.0
  0
LINE
  8
0
  6
BYBLOCK
 62
     0
  5
18B9
 10
148.89968
 20
105.423609
 30
0.0
 11
148.89968
 21
147.423609
 31
0.0
  0
INSERT
  8
0
  6
BYBLOCK
 62
     0
  5
18BA
  2
_OPEN30
 10
148.89968
 20
102.423609
 30
0.0
 41
3.0
 42
3.0
 50
270.0
 43
3.0
  0
INSERT
  8
0
  6
BYBLOCK
 62
     0
  5
18BB
  2
_OPEN30
 10
148.89968
 20
150.423609
 30
0.0
 41
3.0
 42
3.0
 50
90.0
 43
3.0
  0
TEXT
  8
0
  6
BYBLOCK
 62
     0
  5
18BC
 10
147.89968
 20
123.818474
 30
0.0
 40
3.0
  1
48
 50
90.0
  7
FSTD1
  0
POINT
  8
DEFPOINTS
  6
BYBLOCK
 62
     0
  5
18BD
 10
130.066769
 20
102.423609
 30
0.0
  0
POINT
  8
DEFPOINTS
  6
BYBLOCK
 62
     0
  5
18BE
 10
130.066769
 20
150.423609
 30
0.0
  0
POINT
  8
DEFPOINTS
  6
BYBLOCK
 62
     0
  5
18BF
 10
148.89968
 20
150.423609
 30
0.0
  0
ENDBLK
  8
0
  5
18C0
  0
BLOCK
  8
0
  5
18DB
  2
*D11
 70
    65
 10
0.0
 20
0.0
 30
0.0
  3
*D11
  0
LINE
  8
0
  6
BYBLOCK
 62
     0
  5
18DC
 10
131.066769
 20
102.423609
 30
0.0
 11
149.89968
 21
102.423609
 31
0.0
  0
LINE
  8
0
  6
BYBLOCK
 62
     0
  5
18DD
 10
86.088781
 20
97.616285
 30
0.0
 11
149.89968
 21
97.616285
 31
0.0
  0
LINE
  8
0
  6
BYBLOCK
 62
     0
  5
18DE
 10
148.89968
 20
105.423609
 30
0.0
 11
148.89968
 21
108.423609
 31
0.0
  0
LINE
  8
0
  6
BYBLOCK
 62
     0
  5
18DF
 10
148.89968
 20
94.616285
 30
0.0
 11
148.89968
 21
77.716285
 31
0.0
  0
LINE
  8
0
  6
BYBLOCK
 62
     0
  5
18E0
 10
148.89968
 20
102.423609
 30
0.0
 11
148.89968
 21
97.616285
 31
0.0
  0
INSERT
  8
0
  6
BYBLOCK
 62
     0
  5
18E1
  2
_OPEN30
 10
148.89968
 20
102.423609
 30
0.0
 41
3.0
 42
3.0
 50
270.0
 43
3.0
  0
INSERT
  8
0
  6
BYBLOCK
 62
     0
  5
18E2
  2
_OPEN30
 10
148.89968
 20
97.616285
 30
0.0
 41
3.0
 42
3.0
 50
90.0
 43
3.0
  0
TEXT
  8
0
  6
BYBLOCK
 62
     0
  5
18E3
 10
147.89968
 20
78.716285
 30
0.0
 40
3.0
  1
about5
 50
90.0
 41
0.7
  7
FSTD2
  0
POINT
  8
DEFPOINTS
  6
BYBLOCK
 62
     0
  5
18E4
 10
130.066769
 20
102.423609
 30
0.0
  0
POINT
  8
DEFPOINTS
  6
BYBLOCK
 62
     0
  5
18E5
 10
85.088781
 20
97.616285
 30
0.0
  0
POINT
  8
DEFPOINTS
  6
BYBLOCK
 62
     0
  5
18E6
 10
148.89968
 20
97.616285
 30
0.0
  0
ENDBLK
  8
0
  5
18E7
  0
BLOCK
  8
0
  5
18E8
  2
*D12
 70
    65
 10
0.0
 20
0.0
 30
0.0
  3
*D12
  0
LINE
  8
0
  6
BYBLOCK
 62
     0
  5
18E9
 10
131.066769
 20
150.423609
 30
0.0
 11
149.89968
 21
150.423609
 31
0.0
  0
LINE
  8
0
  6
BYBLOCK
 62
     0
  5
18EA
 10
86.088781
 20
155.230933
 30
0.0
 11
149.89968
 21
155.230933
 31
0.0
  0
LINE
  8
0
  6
BYBLOCK
 62
     0
  5
18EB
 10
148.89968
 20
147.423609
 30
0.0
 11
148.89968
 21
144.423609
 31
0.0
  0
LINE
  8
0
  6
BYBLOCK
 62
     0
  5
18EC
 10
148.89968
 20
158.230933
 30
0.0
 11
148.89968
 21
175.130933
 31
0.0
  0
LINE
  8
0
  6
BYBLOCK
 62
     0
  5
18ED
 10
148.89968
 20
150.423609
 30
0.0
 11
148.89968
 21
155.230933
 31
0.0
  0
INSERT
  8
0
  6
BYBLOCK
 62
     0
  5
18EE
  2
_OPEN30
 10
148.89968
 20
150.423609
 30
0.0
 41
3.0
 42
3.0
 50
90.0
 43
3.0
  0
INSERT
  8
0
  6
BYBLOCK
 62
     0
  5
18EF
  2
_OPEN30
 10
148.89968
 20
155.230933
 30
0.0
 41
3.0
 42
3.0
 50
270.0
 43
3.0
  0
TEXT
  8
0
  6
BYBLOCK
 62
     0
  5
18F0
 10
147.89968
 20
162.230933
 30
0.0
 40
3.0
  1
about5
 50
90.0
 41
0.7
  7
FSTD2
  0
POINT
  8
DEFPOINTS
  6
BYBLOCK
 62
     0
  5
18F1
 10
130.066769
 20
150.423609
 30
0.0
  0
POINT
  8
DEFPOINTS
  6
BYBLOCK
 62
     0
  5
18F2
 10
85.088781
 20
155.230933
 30
0.0
  0
POINT
  8
DEFPOINTS
  6
BYBLOCK
 62
     0
  5
18F3
 10
148.89968
 20
155.230933
 30
0.0
  0
ENDBLK
  8
0
  5
18F4
  0
BLOCK
  8
0
  5
17F4
  2
*D13
 70
    65
 10
0.0
 20
0.0
 30
0.0
  3
*D13
  0
LINE
  8
0
  6
BYBLOCK
 62
     0
  5
17F5
 10
37.26315
 20
147.923609
 30
0.0
 11
37.26315
 21
161.32351
 31
0.0
  0
LINE
  8
0
  6
BYBLOCK
 62
     0
  5
17F6
 10
82.76315
 20
147.923609
 30
0.0
 11
82.76315
 21
161.32351
 31
0.0
  0
LINE
  8
0
  6
BYBLOCK
 62
     0
  5
17F7
 10
40.26315
 20
160.32351
 30
0.0
 11
79.76315
 21
160.32351
 31
0.0
  0
INSERT
  8
0
  6
BYBLOCK
 62
     0
  5
17F8
  2
_OPEN30
 10
37.26315
 20
160.32351
 30
0.0
 41
3.0
 42
3.0
 50
180.0
 43
3.0
  0
INSERT
  8
0
  6
BYBLOCK
 62
     0
  5
17F9
  2
_OPEN30
 10
82.76315
 20
160.32351
 30
0.0
 41
3.0
 42
3.0
 43
3.0
  0
TEXT
  8
0
  6
BYBLOCK
 62
     0
  5
17FA
 10
55.51315
 20
161.32351
 30
0.0
 40
3.0
  1
45.5
  7
FSTD1
  0
POINT
  8
DEFPOINTS
  6
BYBLOCK
 62
     0
  5
17FB
 10
37.26315
 20
146.923609
 30
0.0
  0
POINT
  8
DEFPOINTS
  6
BYBLOCK
 62
     0
  5
17FC
 10
82.76315
 20
146.923609
 30
0.0
  0
POINT
  8
DEFPOINTS
  6
BYBLOCK
 62
     0
  5
17FD
 10
82.76315
 20
160.32351
 30
0.0
  0
ENDBLK
  8
0
  5
17FE
  0
BLOCK
  8
0
  5
1801
  2
*D14
 70
    65
 10
0.0
 20
0.0
 30
0.0
  3
*D14
  0
LINE
  8
0
  6
BYBLOCK
 62
     0
  5
1802
 10
23.46315
 20
151.123609
 30
0.0
 11
23.46315
 21
169.391834
 31
0.0
  0
LINE
  8
0
  6
BYBLOCK
 62
     0
  5
1803
 10
113.96315
 20
151.123609
 30
0.0
 11
113.96315
 21
169.391834
 31
0.0
  0
LINE
  8
0
  6
BYBLOCK
 62
     0
  5
1804
 10
26.46315
 20
168.391834
 30
0.0
 11
110.96315
 21
168.391834
 31
0.0
  0
INSERT
  8
0
  6
BYBLOCK
 62
     0
  5
1805
  2
_OPEN30
 10
23.46315
 20
168.391834
 30
0.0
 41
3.0
 42
3.0
 50
180.0
 43
3.0
  0
INSERT
  8
0
  6
BYBLOCK
 62
     0
  5
1806
  2
_OPEN30
 10
113.96315
 20
168.391834
 30
0.0
 41
3.0
 42
3.0
 43
3.0
  0
TEXT
  8
0
  6
BYBLOCK
 62
     0
  5
1807
 10
64.46315
 20
169.391834
 30
0.0
 40
3.0
  1
90.5
  7
FSTD1
  0
POINT
  8
DEFPOINTS
  6
BYBLOCK
 62
     0
  5
1808
 10
23.46315
 20
150.123609
 30
0.0
  0
POINT
  8
DEFPOINTS
  6
BYBLOCK
 62
     0
  5
1809
 10
113.96315
 20
150.123609
 30
0.0
  0
POINT
  8
DEFPOINTS
  6
BYBLOCK
 62
     0
  5
180A
 10
113.96315
 20
168.391834
 30
0.0
  0
ENDBLK
  8
0
  5
180B
  0
BLOCK
  8
0
  5
182B
  2
*D15
 70
    65
 10
0.0
 20
0.0
 30
0.0
  3
*D15
  0
LINE
  8
0
  6
BYBLOCK
 62
     0
  5
182C
 10
28.46315
 20
29.207165
 30
0.0
 11
28.46315
 21
40.025574
 31
0.0
  0
LINE
  8
0
  6
BYBLOCK
 62
     0
  5
182D
 10
108.96315
 20
29.207165
 30
0.0
 11
108.96315
 21
40.025574
 31
0.0
  0
LINE
  8
0
  6
BYBLOCK
 62
     0
  5
182E
 10
31.46315
 20
39.025574
 30
0.0
 11
105.96315
 21
39.025574
 31
0.0
  0
INSERT
  8
0
  6
BYBLOCK
 62
     0
  5
182F
  2
_OPEN30
 10
28.46315
 20
39.025574
 30
0.0
 41
3.0
 42
3.0
 50
180.0
 43
3.0
  0
INSERT
  8
0
  6
BYBLOCK
 62
     0
  5
1830
  2
_OPEN30
 10
108.96315
 20
39.025574
 30
0.0
 41
3.0
 42
3.0
 43
3.0
  0
TEXT
  8
0
  6
BYBLOCK
 62
     0
  5
1831
 10
64.46315
 20
41.025574
 30
0.0
 40
3.0
  1
80.5
  7
FSTD1
  0
LINE
  8
0
  6
BYBLOCK
 62
     0
  5
1832
 10
63.46315
 20
40.025574
 30
0.0
 11
73.96315
 21
40.025574
 31
0.0
  0
LINE
  8
0
  6
BYBLOCK
 62
     0
  5
1833
 10
73.96315
 20
40.025574
 30
0.0
 11
73.96315
 21
45.025574
 31
0.0
  0
LINE
  8
0
  6
BYBLOCK
 62
     0
  5
1834
 10
73.96315
 20
45.025574
 30
0.0
 11
63.46315
 21
45.025574
 31
0.0
  0
LINE
  8
0
  6
BYBLOCK
 62
     0
  5
1835
 10
63.46315
 20
45.025574
 30
0.0
 11
63.46315
 21
40.025574
 31
0.0
  0
POINT
  8
DEFPOINTS
  6
BYBLOCK
 62
     0
  5
1836
 10
28.46315
 20
28.207165
 30
0.0
  0
POINT
  8
DEFPOINTS
  6
BYBLOCK
 62
     0
  5
1837
 10
108.96315
 20
28.207165
 30
0.0
  0
POINT
  8
DEFPOINTS
  6
BYBLOCK
 62
     0
  5
1838
 10
108.96315
 20
39.025574
 30
0.0
  0
ENDBLK
  8
0
  5
1839
  0
BLOCK
  8
0
  5
183C
  2
*D16
 70
    65
 10
0.0
 20
0.0
 30
0.0
  3
*D16
  0
LINE
  8
0
  6
BYBLOCK
 62
     0
  5
183D
 10
115.21315
 20
-17.042835
 30
0.0
 11
126.36425
 21
-17.042835
 31
0.0
  0
LINE
  8
0
  6
BYBLOCK
 62
     0
  5
183E
 10
115.21315
 20
22.957165
 30
0.0
 11
126.36425
 21
22.957165
 31
0.0
  0
LINE
  8
0
  6
BYBLOCK
 62
     0
  5
183F
 10
125.36425
 20
-14.042835
 30
0.0
 11
125.36425
 21
19.957165
 31
0.0
  0
INSERT
  8
0
  6
BYBLOCK
 62
     0
  5
1840
  2
_OPEN30
 10
125.36425
 20
-17.042835
 30
0.0
 41
3.0
 42
3.0
 50
270.0
 43
3.0
  0
INSERT
  8
0
  6
BYBLOCK
 62
     0
  5
1841
  2
_OPEN30
 10
125.36425
 20
22.957165
 30
0.0
 41
3.0
 42
3.0
 50
90.0
 43
3.0
  0
TEXT
  8
0
  6
BYBLOCK
 62
     0
  5
1842
 10
123.36425
 20
0.707165
 30
0.0
 40
3.0
  1
40
 50
90.0
  7
FSTD1
  0
LINE
  8
0
  6
BYBLOCK
 62
     0
  5
1843
 10
124.36425
 20
-0.292835
 30
0.0
 11
124.36425
 21
6.207165
 31
0.0
  0
LINE
  8
0
  6
BYBLOCK
 62
     0
  5
1844
 10
124.36425
 20
6.207165
 30
0.0
 11
119.36425
 21
6.207165
 31
0.0
  0
LINE
  8
0
  6
BYBLOCK
 62
     0
  5
1845
 10
119.36425
 20
6.207165
 30
0.0
 11
119.36425
 21
-0.292835
 31
0.0
  0
LINE
  8
0
  6
BYBLOCK
 62
     0
  5
1846
 10
119.36425
 20
-0.292835
 30
0.0
 11
124.36425
 21
-0.292835
 31
0.0
  0
POINT
  8
DEFPOINTS
  6
BYBLOCK
 62
     0
  5
1847
 10
114.21315
 20
-17.042835
 30
0.0
  0
POINT
  8
DEFPOINTS
  6
BYBLOCK
 62
     0
  5
1848
 10
114.21315
 20
22.957165
 30
0.0
  0
POINT
  8
DEFPOINTS
  6
BYBLOCK
 62
     0
  5
1849
 10
125.36425
 20
22.957165
 30
0.0
  0
ENDBLK
  8
0
  5
184A
  0
BLOCK
  8
0
  5
1923
  2
_DOTSMALL
 70
    64
 10
0.0
 20
0.0
 30
0.0
  3
_DOTSMALL
  0
POLYLINE
  8
0
  6
BYBLOCK
 62
     0
  5
1924
 66
     1
 10
0.0
 20
0.0
 30
0.0
 70
     1
 40
0.5
 41
0.5
  0
VERTEX
  8
0
  6
BYBLOCK
 62
     0
  5
1925
 10
-0.0625
 20
0.0
 30
0.0
 42
1.0
  0
VERTEX
  8
0
  6
BYBLOCK
 62
     0
  5
1926
 10
0.0625
 20
0.0
 30
0.0
 42
1.0
  0
SEQEND
  8
0
  6
BYBLOCK
 62
     0
  5
1927
  0
ENDBLK
  8
0
  5
1928
  0
ENDSEC
  0
SECTION
  2
ENTITIES
  0
ARC
  8
F01_OUT
  5
12A
 10
125.366769
 20
106.423609
 30
0.0
 40
2.25
 50
300.737869
 51
347.160412
1001
ACAD
1000
RTMaterial
1005
0
  0
ARC
  8
F01_OUT
  5
12B
 10
128.866769
 20
103.423609
 30
0.0
 40
1.0
 50
270.0
 51
292.188163
1001
ACAD
1000
RTMaterial
1005
0
  0
ARC
  8
F01_OUT
  5
12C
 10
125.366769
 20
106.423609
 30
0.0
 40
2.25
 50
192.839588
 51
300.737869
1001
ACAD
1000
RTMaterial
1005
0
  0
LINE
  8
F01_OUT
  5
12D
 10
128.866769
 20
102.423609
 30
0.0
 11
121.091769
 21
102.423609
 31
0.0
1001
ACAD
1000
RTMaterial
1005
0
  0
LINE
  8
F01_OUT
  5
12E
 10
120.366769
 20
105.923609
 30
0.0
 11
120.366769
 21
103.923609
 31
0.0
1001
ACAD
1000
RTMaterial
1005
0
  0
LINE
  8
F01_OUT
  5
12F
 10
115.316769
 20
103.923609
 30
0.0
 11
115.316769
 21
105.923609
 31
0.0
1001
ACAD
1000
RTMaterial
1005
0
  0
LINE
  8
F01_OUT
  5
130
 10
120.366769
 20
103.923609
 30
0.0
 11
115.316769
 21
103.923609
 31
0.0
1001
ACAD
1000
RTMaterial
1005
0
  0
LINE
  8
F01_OUT
  5
131
 10
114.816769
 20
102.423609
 30
0.0
 11
112.391769
 21
102.423609
 31
0.0
1001
ACAD
1000
RTMaterial
1005
0
  0
LINE
  8
F01_OUT
  5
132
 10
114.816769
 20
102.423609
 30
0.0
 11
120.741769
 21
102.423609
 31
0.0
1001
ACAD
1000
RTMaterial
1005
0
  0
LINE
  8
F01_OUT
  5
133
 10
-57.379386
 20
102.423609
 30
0.0
 11
-46.384535
 21
102.423609
 31
0.0
1001
ACAD
1000
RTMaterial
1005
0
  0
LINE
  8
F01_OUT
  5
134
 10
-68.041839
 20
146.923609
 30
0.0
 11
-66.379386
 21
146.923609
 31
0.0
1001
ACAD
1000
RTMaterial
1005
0
  0
LINE
  8
F01_OUT
  5
135
 10
-84.039485
 20
105.923609
 30
0.0
 11
-86.379386
 21
105.923609
 31
0.0
1001
ACAD
1000
RTMaterial
1005
0
  0
LINE
  8
F01_OUT
  5
136
 10
-89.379386
 20
109.373609
 30
0.0
 11
-89.379386
 21
108.773609
 31
0.0
1001
ACAD
1000
RTMaterial
1005
0
  0
LINE
  8
F01_OUT
  5
137
 10
-89.379386
 20
142.123609
 30
0.0
 11
-89.379386
 21
109.373609
 31
0.0
1001
ACAD
1000
RTMaterial
1005
0
  0
LINE
  8
F01_OUT
  5
138
 10
-90.579386
 20
108.773609
 30
0.0
 11
-89.379386
 21
108.773609
 31
0.0
1001
ACAD
1000
RTMaterial
1005
0
  0
LINE
  8
F01_OUT
  5
139
 10
-90.679386
 20
109.373609
 30
0.0
 11
-89.379386
 21
109.373609
 31
0.0
1001
ACAD
1000
RTMaterial
1005
0
  0
LINE
  8
F01_OUT
  5
13A
 10
-92.379386
 20
105.923609
 30
0.0
 11
-92.379386
 21
102.423609
 31
0.0
1001
ACAD
1000
RTMaterial
1005
0
  0
LINE
  8
F01_OUT
  5
13B
 10
-92.379386
 20
106.423609
 30
0.0
 11
-92.379386
 21
105.923609
 31
0.0
1001
ACAD
1000
RTMaterial
1005
0
  0
LINE
  8
F01_OUT
  5
13C
 10
-92.379386
 20
108.773609
 30
0.0
 11
-92.379386
 21
106.423609
 31
0.0
1001
ACAD
1000
RTMaterial
1005
0
  0
LINE
  8
F01_OUT
  5
13D
 10
-91.579386
 20
109.973609
 30
0.0
 11
-90.779386
 21
109.973609
 31
0.0
1001
ACAD
1000
RTMaterial
1005
0
  0
LINE
  8
F01_OUT
  5
13E
 10
-92.379386
 20
108.773609
 30
0.0
 11
-91.579386
 21
109.973609
 31
0.0
1001
ACAD
1000
RTMaterial
1005
0
  0
LINE
  8
F01_OUT
  5
13F
 10
-90.679386
 20
109.373609
 30
0.0
 11
-90.779386
 21
109.973609
 31
0.0
1001
ACAD
1000
RTMaterial
1005
0
  0
LINE
  8
F01_OUT
  5
140
 10
-90.579386
 20
108.773609
 30
0.0
 11
-90.679386
 21
109.373609
 31
0.0
1001
ACAD
1000
RTMaterial
1005
0
  0
LINE
  8
F01_OUT
  5
141
 10
-92.379386
 20
102.423609
 30
0.0
 11
-86.879386
 21
102.423609
 31
0.0
1001
ACAD
1000
RTMaterial
1005
0
  0
LINE
  8
F01_OUT
  5
142
 10
-86.379386
 20
103.423609
 30
0.0
 11
-86.379386
 21
102.923609
 31
0.0
1001
ACAD
1000
RTMaterial
1005
0
  0
LINE
  8
F01_OUT
  5
143
 10
-86.379386
 20
105.923609
 30
0.0
 11
-86.379386
 21
103.423609
 31
0.0
1001
ACAD
1000
RTMaterial
1005
0
  0
LINE
  8
F01_OUT
  5
144
 10
-71.879386
 20
110.423609
 30
0.0
 11
-71.575538
 21
110.423609
 31
0.0
1001
ACAD
1000
RTMaterial
1005
0
  0
LINE
  8
F01_OUT
  5
145
 10
-72.879386
 20
109.423609
 30
0.0
 11
-72.879386
 21
108.923609
 31
0.0
1001
ACAD
1000
RTMaterial
1005
0
  0
LINE
  8
F01_OUT
  5
146
 10
-72.879386
 20
110.423609
 30
0.0
 11
-72.879386
 21
109.423609
 31
0.0
1001
ACAD
1000
RTMaterial
1005
0
  0
LINE
  8
F01_OUT
  5
147
 10
-72.879386
 20
110.423609
 30
0.0
 11
-71.879386
 21
110.423609
 31
0.0
1001
ACAD
1000
RTMaterial
1005
0
  0
LINE
  8
F01_OUT
  5
148
 10
-86.379386
 20
110.423609
 30
0.0
 11
-72.879386
 21
110.423609
 31
0.0
1001
ACAD
1000
RTMaterial
1005
0
  0
LINE
  8
F01_OUT
  5
149
 10
-71.136308
 20
110.170019
 30
0.0
 11
-71.575538
 21
110.423609
 31
0.0
1001
ACAD
1000
RTMaterial
1005
0
  0
LINE
  8
F01_OUT
  5
14A
 10
-86.379386
 20
106.837823
 30
0.0
 11
-86.379386
 21
105.923609
 31
0.0
1001
ACAD
1000
RTMaterial
1005
0
  0
LINE
  8
F01_OUT
  5
14B
 10
-86.379386
 20
107.337823
 30
0.0
 11
-86.379386
 21
106.837823
 31
0.0
1001
ACAD
1000
RTMaterial
1005
0
  0
LINE
  8
F01_OUT
  5
14C
 10
-86.379386
 20
107.337823
 30
0.0
 11
-86.379386
 21
110.423609
 31
0.0
1001
ACAD
1000
RTMaterial
1005
0
  0
LINE
  8
F01_OUT
  5
14D
 10
-66.379386
 20
105.923609
 30
0.0
 11
-66.379386
 21
107.423609
 31
0.0
1001
ACAD
1000
RTMaterial
1005
0
  0
LINE
  8
F01_OUT
  5
14E
 10
-65.379386
 20
105.923609
 30
0.0
 11
-65.379386
 21
146.923609
 31
0.0
1001
ACAD
1000
RTMaterial
1005
0
  0
LINE
  8
F01_OUT
  5
14F
 10
-66.379386
 20
105.923609
 30
0.0
 11
-74.293068
 21
105.923609
 31
0.0
1001
ACAD
1000
RTMaterial
1005
0
  0
LINE
  8
F01_OUT
  5
150
 10
-64.379386
 20
105.923609
 30
0.0
 11
-65.379386
 21
105.923609
 31
0.0
1001
ACAD
1000
RTMaterial
1005
0
  0
LINE
  8
F01_OUT
  5
151
 10
-65.379386
 20
105.923609
 30
0.0
 11
-66.379386
 21
105.923609
 31
0.0
1001
ACAD
1000
RTMaterial
1005
0
  0
LINE
  8
F01_OUT
  5
152
 10
-62.879386
 20
105.923609
 30
0.0
 11
-64.379386
 21
105.923609
 31
0.0
1001
ACAD
1000
RTMaterial
1005
0
  0
LINE
  8
F01_OUT
  5
153
 10
-72.379386
 20
108.423609
 30
0.0
 11
-68.111436
 21
108.423609
 31
0.0
1001
ACAD
1000
RTMaterial
1005
0
  0
LINE
  8
F01_OUT
  5
154
 10
-65.379386
 20
107.423609
 30
0.0
 11
-66.379386
 21
107.423609
 31
0.0
1001
ACAD
1000
RTMaterial
1005
0
  0
LINE
  8
F01_OUT
  5
155
 10
-72.379386
 20
108.423609
 30
0.0
 11
-72.879386
 21
108.923609
 31
0.0
1001
ACAD
1000
RTMaterial
1005
0
  0
LINE
  8
F01_OUT
  5
156
 10
-71.336308
 20
109.423609
 30
0.0
 11
-71.879386
 21
109.423609
 31
0.0
1001
ACAD
1000
RTMaterial
1005
0
  0
LINE
  8
F01_OUT
  5
157
 10
-71.879386
 20
109.423609
 30
0.0
 11
-72.879386
 21
109.423609
 31
0.0
1001
ACAD
1000
RTMaterial
1005
0
  0
LINE
  8
F01_OUT
  5
158
 10
-68.111436
 20
108.423609
 30
0.0
 11
-66.379386
 21
107.423609
 31
0.0
1001
ACAD
1000
RTMaterial
1005
0
  0
LINE
  8
F01_OUT
  5
159
 10
-86.879386
 20
150.423609
 30
0.0
 11
-92.379386
 21
150.423609
 31
0.0
1001
ACAD
1000
RTMaterial
1005
0
  0
LINE
  8
F01_OUT
  5
15B
 10
-86.379386
 20
149.423609
 30
0.0
 11
-86.379386
 21
149.923609
 31
0.0
1001
ACAD
1000
RTMaterial
1005
0
  0
LINE
  8
F01_OUT
  5
15C
 10
-86.379386
 20
146.923609
 30
0.0
 11
-86.379386
 21
149.423609
 31
0.0
1001
ACAD
1000
RTMaterial
1005
0
  0
LINE
  8
F01_OUT
  5
15D
 10
-89.179386
 20
145.423609
 30
0.0
 11
-89.229386
 21
145.423609
 31
0.0
1001
ACAD
1000
RTMaterial
1005
0
  0
LINE
  8
F01_OUT
  5
15E
 10
-89.229386
 20
145.423609
 30
0.0
 11
-90.279386
 21
145.423609
 31
0.0
1001
ACAD
1000
RTMaterial
1005
0
  0
LINE
  8
F01_OUT
  5
15F
 10
-88.979386
 20
143.616429
 30
0.0
 11
-88.979386
 21
145.223609
 31
0.0
1001
ACAD
1000
RTMaterial
1005
0
  0
LINE
  8
F01_OUT
  5
160
 10
-88.979386
 20
145.223609
 30
0.0
 11
-88.979386
 21
145.423609
 31
0.0
1001
ACAD
1000
RTMaterial
1005
0
  0
LINE
  8
F01_OUT
  5
161
 10
-90.479386
 20
145.423609
 30
0.0
 11
-90.479386
 21
145.223609
 31
0.0
1001
ACAD
1000
RTMaterial
1005
0
  0
LINE
  8
F01_OUT
  5
162
 10
-90.479386
 20
145.223609
 30
0.0
 11
-90.479386
 21
143.523609
 31
0.0
1001
ACAD
1000
RTMaterial
1005
0
  0
LINE
  8
F01_OUT
  5
163
 10
-92.379386
 20
142.123609
 30
0.0
 11
-92.379386
 21
150.423609
 31
0.0
1001
ACAD
1000
RTMaterial
1005
0
  0
LINE
  8
F01_OUT
  5
166
 10
-89.379386
 20
142.123609
 30
0.0
 11
-88.979386
 21
143.616429
 31
0.0
1001
ACAD
1000
RTMaterial
1005
0
  0
LINE
  8
F01_OUT
  5
167
 10
-92.379386
 20
142.123609
 30
0.0
 11
-91.459676
 21
142.123609
 31
0.0
1001
ACAD
1000
RTMaterial
1005
0
  0
LINE
  8
F01_OUT
  5
168
 10
-90.479386
 20
143.523609
 30
0.0
 11
-91.459676
 21
142.123609
 31
0.0
1001
ACAD
1000
RTMaterial
1005
0
  0
LINE
  8
F01_OUT
  5
169
 10
-64.379386
 20
146.923609
 30
0.0
 11
-65.379386
 21
146.923609
 31
0.0
1001
ACAD
1000
RTMaterial
1005
0
  0
LINE
  8
F01_OUT
  5
16A
 10
-64.379386
 20
146.923609
 30
0.0
 11
-62.879386
 21
146.923609
 31
0.0
1001
ACAD
1000
RTMaterial
1005
0
  0
LINE
  8
F01_OUT
  5
16B
 10
-72.879386
 20
143.923609
 30
0.0
 11
-72.879386
 21
143.423609
 31
0.0
1001
ACAD
1000
RTMaterial
1005
0
  0
LINE
  8
F01_OUT
  5
16C
 10
-72.879386
 20
143.923609
 30
0.0
 11
-72.379386
 21
144.423609
 31
0.0
1001
ACAD
1000
RTMaterial
1005
0
  0
LINE
  8
F01_OUT
  5
16D
 10
-71.575538
 20
142.423609
 30
0.0
 11
-71.136308
 21
142.677199
 31
0.0
1001
ACAD
1000
RTMaterial
1005
0
  0
LINE
  8
F01_OUT
  5
16E
 10
-72.879386
 20
143.423609
 30
0.0
 11
-72.879386
 21
142.423609
 31
0.0
1001
ACAD
1000
RTMaterial
1005
0
  0
LINE
  8
F01_OUT
  5
16F
 10
-86.379386
 20
142.423609
 30
0.0
 11
-72.879386
 21
142.423609
 31
0.0
1001
ACAD
1000
RTMaterial
1005
0
  0
LINE
  8
F01_OUT
  5
170
 10
-86.379386
 20
142.423609
 30
0.0
 11
-86.379386
 21
145.509395
 31
0.0
1001
ACAD
1000
RTMaterial
1005
0
  0
LINE
  8
F01_OUT
  5
171
 10
-86.379386
 20
146.923609
 30
0.0
 11
-70.8192
 21
146.923609
 31
0.0
1001
ACAD
1000
RTMaterial
1005
0
  0
LINE
  8
F01_OUT
  5
172
 10
-66.379386
 20
146.923609
 30
0.0
 11
-65.379386
 21
146.923609
 31
0.0
1001
ACAD
1000
RTMaterial
1005
0
  0
LINE
  8
F01_OUT
  5
173
 10
-66.379386
 20
146.923609
 30
0.0
 11
-66.379386
 21
145.423609
 31
0.0
1001
ACAD
1000
RTMaterial
1005
0
  0
LINE
  8
F01_OUT
  5
174
 10
-86.379386
 20
146.923609
 30
0.0
 11
-86.379386
 21
146.009395
 31
0.0
1001
ACAD
1000
RTMaterial
1005
0
  0
LINE
  8
F01_OUT
  5
175
 10
-86.379386
 20
146.009395
 30
0.0
 11
-86.379386
 21
145.509395
 31
0.0
1001
ACAD
1000
RTMaterial
1005
0
  0
LINE
  8
F01_OUT
  5
176
 10
-71.879386
 20
143.423609
 30
0.0
 11
-71.336308
 21
143.423609
 31
0.0
1001
ACAD
1000
RTMaterial
1005
0
  0
LINE
  8
F01_OUT
  5
177
 10
-72.879386
 20
143.423609
 30
0.0
 11
-71.879386
 21
143.423609
 31
0.0
1001
ACAD
1000
RTMaterial
1005
0
  0
LINE
  8
F01_OUT
  5
178
 10
-72.379386
 20
144.423609
 30
0.0
 11
-68.111436
 21
144.423609
 31
0.0
1001
ACAD
1000
RTMaterial
1005
0
  0
LINE
  8
F01_OUT
  5
179
 10
-71.879386
 20
142.423609
 30
0.0
 11
-71.575538
 21
142.423609
 31
0.0
1001
ACAD
1000
RTMaterial
1005
0
  0
LINE
  8
F01_OUT
  5
17A
 10
-72.879386
 20
142.423609
 30
0.0
 11
-71.879386
 21
142.423609
 31
0.0
1001
ACAD
1000
RTMaterial
1005
0
  0
LINE
  8
F01_OUT
  5
17B
 10
-65.379386
 20
145.423609
 30
0.0
 11
-66.379386
 21
145.423609
 31
0.0
1001
ACAD
1000
RTMaterial
1005
0
  0
LINE
  8
F01_OUT
  5
17C
 10
-66.379386
 20
145.423609
 30
0.0
 11
-68.111436
 21
144.423609
 31
0.0
1001
ACAD
1000
RTMaterial
1005
0
  0
ARC
  8
F01_OUT
  5
17D
 10
-86.879386
 20
102.923609
 30
0.0
 40
0.5
 50
270.0
 51
0.0
1001
ACAD
1000
RTMaterial
1005
0
  0
ARC
  8
F01_OUT
  5
17E
 10
-71.336308
 20
109.823609
 30
0.0
 40
0.4
 50
270.0
 51
60.0
1001
ACAD
1000
RTMaterial
1005
0
  0
ARC
  8
F01_OUT
  5
17F
 10
-86.879386
 20
149.923609
 30
0.0
 40
0.5
 50
0.0
 51
90.0
1001
ACAD
1000
RTMaterial
1005
0
  0
ARC
  8
F01_OUT
  5
180
 10
-89.179386
 20
145.223609
 30
0.0
 40
0.2
 50
0.0
 51
90.0
1001
ACAD
1000
RTMaterial
1005
0
  0
ARC
  8
F01_OUT
  5
181
 10
-90.279386
 20
145.223609
 30
0.0
 40
0.2
 50
90.0
 51
180.0
1001
ACAD
1000
RTMaterial
1005
0
  0
ARC
  8
F01_OUT
  5
182
 10
-89.729386
 20
145.423609
 30
0.0
 40
0.75
 50
0.0
 51
180.0
1001
ACAD
1000
RTMaterial
1005
0
  0
ARC
  8
F01_OUT
  5
183
 10
-71.336308
 20
143.023609
 30
0.0
 40
0.4
 50
300.0
 51
90.0
1001
ACAD
1000
RTMaterial
1005
0
  0
LINE
  8
F01_OUT
  5
184
 10
-89.229386
 20
143.223609
 30
0.0
 11
-89.229386
 21
143.333963
 31
0.0
1001
ACAD
1000
RTMaterial
1005
0
  0
LINE
  8
F01_OUT
  5
185
 10
-90.429386
 20
143.223609
 30
0.0
 11
-90.429386
 21
143.333963
 31
0.0
1001
ACAD
1000
RTMaterial
1005
0
  0
LINE
  8
F01_OUT
  5
186
 10
-90.429386
 20
143.333963
 30
0.0
 11
-90.429386
 21
145.355897
 31
0.0
1001
ACAD
1000
RTMaterial
1005
0
  0
LINE
  8
F01_OUT
  5
187
 10
-89.229386
 20
143.333963
 30
0.0
 11
-89.229386
 21
145.423609
 31
0.0
1001
ACAD
1000
RTMaterial
1005
0
  0
ARC
  8
F01_OUT
  5
188
 10
-89.829386
 20
143.223609
 30
0.0
 40
0.6
 50
90.0
 51
180.0
1001
ACAD
1000
RTMaterial
1005
0
  0
ARC
  8
F01_OUT
  5
189
 10
-89.829386
 20
143.223609
 30
0.0
 40
0.6
 50
0.0
 51
90.0
1001
ACAD
1000
RTMaterial
1005
0
  0
ARC
  8
F01_OUT
  5
18A
 10
-89.829386
 20
143.223609
 30
0.0
 40
0.6
 50
180.0
 51
0.0
1001
ACAD
1000
RTMaterial
1005
0
  0
ARC
  8
F01_OUT
  5
18B
 10
-45.179386
 20
116.923609
 30
0.0
 40
0.5
 50
0.0
 51
90.0
1001
ACAD
1000
RTMaterial
1005
0
  0
ARC
  8
F01_OUT
  5
18C
 10
-45.179386
 20
135.923609
 30
0.0
 40
0.5
 50
270.0
 51
0.0
1001
ACAD
1000
RTMaterial
1005
0
  0
ARC
  8
F01_OUT
  5
18D
 10
-61.174236
 20
149.423609
 30
0.0
 40
1.0
 50
90.0
 51
135.572996
1001
ACAD
1000
RTMaterial
1005
0
  0
ARC
  8
F01_OUT
  5
18E
 10
-46.384535
 20
149.423609
 30
0.0
 40
1.0
 50
44.427004
 51
90.0
1001
ACAD
1000
RTMaterial
1005
0
  0
ARC
  8
F01_OUT
  5
18F
 10
-61.174236
 20
149.423609
 30
0.0
 40
1.0
 50
135.572996
 51
165.0
1001
ACAD
1000
RTMaterial
1005
0
  0
ARC
  8
F01_OUT
  5
190
 10
-46.384535
 20
149.423609
 30
0.0
 40
1.0
 50
15.0
 51
44.427004
1001
ACAD
1000
RTMaterial
1005
0
  0
ARC
  8
F01_OUT
  5
191
 10
-45.679386
 20
146.791956
 30
0.0
 40
1.0
 50
0.0
 51
7.565094
1001
ACAD
1000
RTMaterial
1005
0
  0
ARC
  8
F01_OUT
  5
192
 10
-45.679386
 20
146.791956
 30
0.0
 40
1.0
 50
7.565094
 51
15.0
1001
ACAD
1000
RTMaterial
1005
0
  0
ARC
  8
F01_OUT
  5
193
 10
-45.679386
 20
106.055261
 30
0.0
 40
1.0
 50
345.0
 51
0.0
1001
ACAD
1000
RTMaterial
1005
0
  0
ARC
  8
F01_OUT
  5
194
 10
-46.384535
 20
103.423609
 30
0.0
 40
1.0
 50
270.0
 51
315.572996
1001
ACAD
1000
RTMaterial
1005
0
  0
ARC
  8
F01_OUT
  5
195
 10
-61.174236
 20
103.423609
 30
0.0
 40
1.0
 50
224.427004
 51
270.0
1001
ACAD
1000
RTMaterial
1005
0
  0
ARC
  8
F01_OUT
  5
196
 10
-46.384535
 20
103.423609
 30
0.0
 40
1.0
 50
315.572996
 51
345.0
1001
ACAD
1000
RTMaterial
1005
0
  0
ARC
  8
F01_OUT
  5
197
 10
-61.174236
 20
103.423609
 30
0.0
 40
1.0
 50
195.0
 51
224.427004
1001
ACAD
1000
RTMaterial
1005
0
  0
LINE
  8
F01_OUT
  5
198
 10
-44.679386
 20
143.732614
 30
0.0
 11
-44.679386
 21
141.389634
 31
0.0
1001
ACAD
1000
RTMaterial
1005
0
  0
LINE
  8
F01_OUT
  5
199
 10
-44.679386
 20
139.832557
 30
0.0
 11
-44.679386
 21
137.923609
 31
0.0
1001
ACAD
1000
RTMaterial
1005
0
  0
LINE
  8
F01_OUT
  5
19A
 10
-44.679386
 20
140.023609
 30
0.0
 11
-44.679386
 21
139.832557
 31
0.0
1001
ACAD
1000
RTMaterial
1005
0
  0
LINE
  8
F01_OUT
  5
19B
 10
-44.679386
 20
141.389634
 30
0.0
 11
-44.679386
 21
140.023609
 31
0.0
1001
ACAD
1000
RTMaterial
1005
0
  0
LINE
  8
F01_OUT
  5
19C
 10
-44.679386
 20
115.623609
 30
0.0
 11
-44.679386
 21
114.923609
 31
0.0
1001
ACAD
1000
RTMaterial
1005
0
  0
LINE
  8
F01_OUT
  5
19D
 10
-44.679386
 20
109.114604
 30
0.0
 11
-44.679386
 21
107.673609
 31
0.0
1001
ACAD
1000
RTMaterial
1005
0
  0
LINE
  8
F01_OUT
  5
19E
 10
-44.679386
 20
137.023609
 30
0.0
 11
-44.679386
 21
137.923609
 31
0.0
1001
ACAD
1000
RTMaterial
1005
0
  0
LINE
  8
F01_OUT
  5
19F
 10
-44.679386
 20
112.823609
 30
0.0
 11
-44.679386
 21
111.457584
 31
0.0
1001
ACAD
1000
RTMaterial
1005
0
  0
LINE
  8
F01_OUT
  5
1A0
 10
-44.679386
 20
113.014661
 30
0.0
 11
-44.679386
 21
112.823609
 31
0.0
1001
ACAD
1000
RTMaterial
1005
0
  0
LINE
  8
F01_OUT
  5
1A1
 10
-44.679386
 20
115.623609
 30
0.0
 11
-44.679386
 21
115.823609
 31
0.0
1001
ACAD
1000
RTMaterial
1005
0
  0
LINE
  8
F01_OUT
  5
1A2
 10
-44.679386
 20
114.673609
 30
0.0
 11
-44.679386
 21
113.014661
 31
0.0
1001
ACAD
1000
RTMaterial
1005
0
  0
LINE
  8
F01_OUT
  5
1A3
 10
-44.679386
 20
114.923609
 30
0.0
 11
-44.679386
 21
114.673609
 31
0.0
1001
ACAD
1000
RTMaterial
1005
0
  0
LINE
  8
F01_OUT
  5
1A4
 10
-44.679386
 20
115.823609
 30
0.0
 11
-44.679386
 21
116.923609
 31
0.0
1001
ACAD
1000
RTMaterial
1005
0
  0
LINE
  8
F01_OUT
  5
1A5
 10
-44.679386
 20
111.457584
 30
0.0
 11
-44.679386
 21
109.114604
 31
0.0
1001
ACAD
1000
RTMaterial
1005
0
  0
LINE
  8
F01_OUT
  5
1A6
 10
-44.679386
 20
135.923609
 30
0.0
 11
-44.679386
 21
137.023609
 31
0.0
1001
ACAD
1000
RTMaterial
1005
0
  0
LINE
  8
F01_OUT
  5
1A7
 10
-44.679386
 20
145.823609
 30
0.0
 11
-44.679386
 21
145.173609
 31
0.0
1001
ACAD
1000
RTMaterial
1005
0
  0
LINE
  8
F01_OUT
  5
1A8
 10
-44.679386
 20
145.173609
 30
0.0
 11
-44.679386
 21
143.732614
 31
0.0
1001
ACAD
1000
RTMaterial
1005
0
  0
LINE
  8
F01_OUT
  5
1A9
 10
-48.379386
 20
135.323609
 30
0.0
 11
-48.379386
 21
135.423609
 31
0.0
1001
ACAD
1000
RTMaterial
1005
0
  0
LINE
  8
F01_OUT
  5
1AA
 10
-48.179386
 20
135.423609
 30
0.0
 11
-45.179386
 21
135.423609
 31
0.0
1001
ACAD
1000
RTMaterial
1005
0
  0
LINE
  8
F01_OUT
  5
1AB
 10
-48.379386
 20
135.423609
 30
0.0
 11
-48.179386
 21
135.423609
 31
0.0
1001
ACAD
1000
RTMaterial
1005
0
  0
LINE
  8
F01_OUT
  5
1AC
 10
-48.379386
 20
134.923609
 30
0.0
 11
-48.379386
 21
135.323609
 31
0.0
1001
ACAD
1000
RTMaterial
1005
0
  0
LINE
  8
F01_OUT
  5
1AD
 10
-48.379386
 20
129.423609
 30
0.0
 11
-48.379386
 21
133.823609
 31
0.0
1001
ACAD
1000
RTMaterial
1005
0
  0
LINE
  8
F01_OUT
  5
1AE
 10
-48.379386
 20
133.923608
 30
0.0
 11
-48.379386
 21
134.923609
 31
0.0
1001
ACAD
1000
RTMaterial
1005
0
  0
LINE
  8
F01_OUT
  5
1AF
 10
-48.379386
 20
133.823609
 30
0.0
 11
-48.379386
 21
133.923608
 31
0.0
1001
ACAD
1000
RTMaterial
1005
0
  0
LINE
  8
F01_OUT
  5
1B0
 10
-48.379386
 20
129.173609
 30
0.0
 11
-48.379386
 21
129.423609
 31
0.0
1001
ACAD
1000
RTMaterial
1005
0
  0
LINE
  8
F01_OUT
  5
1B1
 10
-48.379386
 20
128.023609
 30
0.0
 11
-48.379386
 21
129.173609
 31
0.0
1001
ACAD
1000
RTMaterial
1005
0
  0
LINE
  8
F01_OUT
  5
1B2
 10
-48.379386
 20
127.973609
 30
0.0
 11
-48.379386
 21
128.023609
 31
0.0
1001
ACAD
1000
RTMaterial
1005
0
  0
LINE
  8
F01_OUT
  5
1B3
 10
-64.379386
 20
146.923609
 30
0.0
 11
-62.879386
 21
146.923609
 31
0.0
1001
ACAD
1000
RTMaterial
1005
0
  0
LINE
  8
F01_OUT
  5
1B4
 10
-64.379386
 20
146.923609
 30
0.0
 11
-65.379386
 21
146.923609
 31
0.0
1001
ACAD
1000
RTMaterial
1005
0
  0
LINE
  8
F01_OUT
  5
1B5
 10
-44.679386
 20
145.823609
 30
0.0
 11
-44.679386
 21
146.791956
 31
0.0
1001
ACAD
1000
RTMaterial
1005
0
  0
LINE
  8
F01_OUT
  5
1B6
 10
-61.174236
 20
150.423609
 30
0.0
 11
-46.384535
 21
150.423609
 31
0.0
1001
ACAD
1000
RTMaterial
1005
0
  0
LINE
  8
F01_OUT
  5
1B7
 10
-62.140162
 20
149.682428
 30
0.0
 11
-62.879386
 21
146.923609
 31
0.0
1001
ACAD
1000
RTMaterial
1005
0
  0
LINE
  8
F01_OUT
  5
1B8
 10
-45.418609
 20
149.682428
 30
0.0
 11
-44.71346
 21
147.050776
 31
0.0
1001
ACAD
1000
RTMaterial
1005
0
  0
LINE
  8
F01_OUT
  5
1B9
 10
-48.379386
 20
124.873609
 30
0.0
 11
-48.379386
 21
127.973609
 31
0.0
1001
ACAD
1000
RTMaterial
1005
0
  0
LINE
  8
F01_OUT
  5
1BA
 10
-48.379386
 20
119.023609
 30
0.0
 11
-48.379386
 21
123.673609
 31
0.0
1001
ACAD
1000
RTMaterial
1005
0
  0
LINE
  8
F01_OUT
  5
1BB
 10
-48.379386
 20
123.673609
 30
0.0
 11
-48.379386
 21
124.823609
 31
0.0
1001
ACAD
1000
RTMaterial
1005
0
  0
LINE
  8
F01_OUT
  5
1BC
 10
-48.379386
 20
117.523609
 30
0.0
 11
-48.379386
 21
118.923609
 31
0.0
1001
ACAD
1000
RTMaterial
1005
0
  0
LINE
  8
F01_OUT
  5
1BD
 10
-48.379386
 20
124.823609
 30
0.0
 11
-48.379386
 21
124.873609
 31
0.0
1001
ACAD
1000
RTMaterial
1005
0
  0
LINE
  8
F01_OUT
  5
1BE
 10
-48.379386
 20
118.923609
 30
0.0
 11
-48.379386
 21
119.023609
 31
0.0
1001
ACAD
1000
RTMaterial
1005
0
  0
LINE
  8
F01_OUT
  5
1BF
 10
-48.379386
 20
117.523609
 30
0.0
 11
-48.379386
 21
117.423609
 31
0.0
1001
ACAD
1000
RTMaterial
1005
0
  0
LINE
  8
F01_OUT
  5
1C0
 10
-48.179386
 20
117.423609
 30
0.0
 11
-45.179386
 21
117.423609
 31
0.0
1001
ACAD
1000
RTMaterial
1005
0
  0
LINE
  8
F01_OUT
  5
1C1
 10
-48.379386
 20
117.423609
 30
0.0
 11
-48.179386
 21
117.423609
 31
0.0
1001
ACAD
1000
RTMaterial
1005
0
  0
LINE
  8
F01_OUT
  5
1C2
 10
-44.679386
 20
107.673609
 30
0.0
 11
-44.679386
 21
107.023609
 31
0.0
1001
ACAD
1000
RTMaterial
1005
0
  0
LINE
  8
F01_OUT
  5
1C3
 10
-44.679386
 20
106.055261
 30
0.0
 11
-44.679386
 21
107.023609
 31
0.0
1001
ACAD
1000
RTMaterial
1005
0
  0
LINE
  8
F01_OUT
  5
1C4
 10
-62.879386
 20
105.923609
 30
0.0
 11
-64.379386
 21
105.923609
 31
0.0
1001
ACAD
1000
RTMaterial
1005
0
  0
LINE
  8
F01_OUT
  5
1C5
 10
-64.379386
 20
105.923609
 30
0.0
 11
-65.379386
 21
105.923609
 31
0.0
1001
ACAD
1000
RTMaterial
1005
0
  0
LINE
  8
F01_OUT
  5
1C6
 10
-44.71346
 20
105.796442
 30
0.0
 11
-45.418609
 21
103.16479
 31
0.0
1001
ACAD
1000
RTMaterial
1005
0
  0
LINE
  8
F01_OUT
  5
1C7
 10
-61.174236
 20
102.423609
 30
0.0
 11
-57.379386
 21
102.423609
 31
0.0
1001
ACAD
1000
RTMaterial
1005
0
  0
LINE
  8
F01_OUT
  5
1C8
 10
-62.879386
 20
105.923609
 30
0.0
 11
-62.140162
 21
103.16479
 31
0.0
1001
ACAD
1000
RTMaterial
1005
0
  0
LINE
  8
F01_OUT
  5
1C9
 10
-48.379386
 20
135.423609
 30
0.0
 11
-48.179386
 21
135.423609
 31
0.0
1001
ACAD
1000
RTMaterial
1005
0
  0
LINE
  8
F01_OUT
  5
1CA
 10
-48.379386
 20
117.423609
 30
0.0
 11
-48.179386
 21
117.423609
 31
0.0
1001
ACAD
1000
RTMaterial
1005
0
  0
LINE
  8
F01_OUT
  5
1CB
 10
-44.679386
 20
137.923609
 30
0.0
 11
-44.579386
 21
137.923609
 31
0.0
1001
ACAD
1000
RTMaterial
1005
0
  0
LINE
  8
F01_OUT
  5
1CC
 10
-44.579386
 20
137.023609
 30
0.0
 11
-44.679386
 21
137.023609
 31
0.0
1001
ACAD
1000
RTMaterial
1005
0
  0
LINE
  8
F01_OUT
  5
1CD
 10
-44.579386
 20
137.923609
 30
0.0
 11
-44.579386
 21
137.023609
 31
0.0
1001
ACAD
1000
RTMaterial
1005
0
  0
LINE
  8
F01_OUT
  5
1CE
 10
-44.579386
 20
137.023609
 30
0.0
 11
-44.579386
 21
136.823609
 31
0.0
1001
ACAD
1000
RTMaterial
1005
0
  0
LINE
  8
F01_OUT
  5
1CF
 10
-44.679386
 20
116.023609
 30
0.0
 11
-44.579386
 21
116.023609
 31
0.0
1001
ACAD
1000
RTMaterial
1005
0
  0
LINE
  8
F01_OUT
  5
1D0
 10
-44.579386
 20
115.823609
 30
0.0
 11
-44.679386
 21
115.823609
 31
0.0
1001
ACAD
1000
RTMaterial
1005
0
  0
LINE
  8
F01_OUT
  5
1D1
 10
-44.579386
 20
136.823609
 30
0.0
 11
-44.679386
 21
136.823609
 31
0.0
1001
ACAD
1000
RTMaterial
1005
0
  0
LINE
  8
F01_OUT
  5
1D2
 10
-43.867194
 20
137.923609
 30
0.0
 11
-44.071998
 21
137.923609
 31
0.0
1001
ACAD
1000
RTMaterial
1005
0
  0
LINE
  8
F01_OUT
  5
1D3
 10
-44.579386
 20
137.923609
 30
0.0
 11
-44.071998
 21
137.923609
 31
0.0
1001
ACAD
1000
RTMaterial
1005
0
  0
LINE
  8
F01_OUT
  5
1D4
 10
-43.379386
 20
137.923609
 30
0.0
 11
-43.867194
 21
137.923609
 31
0.0
1001
ACAD
1000
RTMaterial
1005
0
  0
LINE
  8
F01_OUT
  5
1D5
 10
-48.379386
 20
135.323609
 30
0.0
 11
-48.379386
 21
135.423609
 31
0.0
1001
ACAD
1000
RTMaterial
1005
0
  0
LINE
  8
F01_OUT
  5
1D6
 10
-43.379386
 20
135.323609
 30
0.0
 11
-43.379386
 21
137.923609
 31
0.0
1001
ACAD
1000
RTMaterial
1005
0
  0
LINE
  8
F01_OUT
  5
1D7
 10
-48.379386
 20
135.323609
 30
0.0
 11
-43.379386
 21
135.323609
 31
0.0
1001
ACAD
1000
RTMaterial
1005
0
  0
LINE
  8
F01_OUT
  5
1D8
 10
-48.379386
 20
134.923609
 30
0.0
 11
-48.379386
 21
135.323609
 31
0.0
1001
ACAD
1000
RTMaterial
1005
0
  0
LINE
  8
F01_OUT
  5
1D9
 10
-48.379386
 20
129.423609
 30
0.0
 11
-48.379386
 21
133.823609
 31
0.0
1001
ACAD
1000
RTMaterial
1005
0
  0
LINE
  8
F01_OUT
  5
1DA
 10
-48.379386
 20
133.923608
 30
0.0
 11
-48.379386
 21
134.923609
 31
0.0
1001
ACAD
1000
RTMaterial
1005
0
  0
LINE
  8
F01_OUT
  5
1DB
 10
-48.379386
 20
133.823609
 30
0.0
 11
-48.379386
 21
133.923608
 31
0.0
1001
ACAD
1000
RTMaterial
1005
0
  0
LINE
  8
F01_OUT
  5
1DC
 10
-48.379386
 20
129.173609
 30
0.0
 11
-48.379386
 21
129.423609
 31
0.0
1001
ACAD
1000
RTMaterial
1005
0
  0
LINE
  8
F01_OUT
  5
1DD
 10
-48.379386
 20
128.023609
 30
0.0
 11
-48.379386
 21
129.173609
 31
0.0
1001
ACAD
1000
RTMaterial
1005
0
  0
LINE
  8
F01_OUT
  5
1DE
 10
-48.379386
 20
127.973609
 30
0.0
 11
-48.379386
 21
128.023609
 31
0.0
1001
ACAD
1000
RTMaterial
1005
0
  0
LINE
  8
F01_OUT
  5
1DF
 10
-48.379386
 20
119.023609
 30
0.0
 11
-48.379386
 21
123.673609
 31
0.0
1001
ACAD
1000
RTMaterial
1005
0
  0
LINE
  8
F01_OUT
  5
1E0
 10
-48.379386
 20
123.673609
 30
0.0
 11
-48.379386
 21
124.823609
 31
0.0
1001
ACAD
1000
RTMaterial
1005
0
  0
LINE
  8
F01_OUT
  5
1E1
 10
-48.379386
 20
117.523609
 30
0.0
 11
-48.379386
 21
118.923609
 31
0.0
1001
ACAD
1000
RTMaterial
1005
0
  0
LINE
  8
F01_OUT
  5
1E2
 10
-48.379386
 20
124.823609
 30
0.0
 11
-48.379386
 21
124.873609
 31
0.0
1001
ACAD
1000
RTMaterial
1005
0
  0
LINE
  8
F01_OUT
  5
1E3
 10
-48.379386
 20
118.923609
 30
0.0
 11
-48.379386
 21
119.023609
 31
0.0
1001
ACAD
1000
RTMaterial
1005
0
  0
LINE
  8
F01_OUT
  5
1E4
 10
-48.379386
 20
117.523609
 30
0.0
 11
-48.379386
 21
117.423609
 31
0.0
1001
ACAD
1000
RTMaterial
1005
0
  0
LINE
  8
F01_OUT
  5
1E5
 10
-43.379386
 20
117.523609
 30
0.0
 11
-43.379386
 21
135.323609
 31
0.0
1001
ACAD
1000
RTMaterial
1005
0
  0
LINE
  8
F01_OUT
  5
1E6
 10
-43.379386
 20
114.923609
 30
0.0
 11
-43.867194
 21
114.923609
 31
0.0
1001
ACAD
1000
RTMaterial
1005
0
  0
LINE
  8
F01_OUT
  5
1E7
 10
-43.379386
 20
114.923609
 30
0.0
 11
-43.379386
 21
117.523609
 31
0.0
1001
ACAD
1000
RTMaterial
1005
0
  0
LINE
  8
F01_OUT
  5
1E8
 10
-44.579386
 20
114.923609
 30
0.0
 11
-44.071998
 21
114.923609
 31
0.0
1001
ACAD
1000
RTMaterial
1005
0
  0
LINE
  8
F01_OUT
  5
1E9
 10
-43.867194
 20
114.923609
 30
0.0
 11
-44.071998
 21
114.923609
 31
0.0
1001
ACAD
1000
RTMaterial
1005
0
  0
LINE
  8
F01_OUT
  5
1EA
 10
-44.679386
 20
114.923609
 30
0.0
 11
-44.579386
 21
114.923609
 31
0.0
1001
ACAD
1000
RTMaterial
1005
0
  0
LINE
  8
F01_OUT
  5
1EB
 10
-44.579386
 20
114.923609
 30
0.0
 11
-44.579386
 21
115.823609
 31
0.0
1001
ACAD
1000
RTMaterial
1005
0
  0
LINE
  8
F01_OUT
  5
1EC
 10
-44.579386
 20
115.823609
 30
0.0
 11
-44.579386
 21
116.023609
 31
0.0
1001
ACAD
1000
RTMaterial
1005
0
  0
LINE
  8
F01_OUT
  5
1ED
 10
-43.379386
 20
117.523609
 30
0.0
 11
-48.379386
 21
117.523609
 31
0.0
1001
ACAD
1000
RTMaterial
1005
0
  0
LINE
  8
F01_OUT
  5
1EE
 10
-44.68809
 20
146.923609
 30
0.0
 11
-43.867194
 21
146.923609
 31
0.0
1001
ACAD
1000
RTMaterial
1005
0
  0
LINE
  8
F01_OUT
  5
1EF
 10
-44.679386
 20
145.173609
 30
0.0
 11
-44.679386
 21
143.732614
 31
0.0
1001
ACAD
1000
RTMaterial
1005
0
  0
LINE
  8
F01_OUT
  5
1F0
 10
-44.679386
 20
145.823609
 30
0.0
 11
-44.679386
 21
145.173609
 31
0.0
1001
ACAD
1000
RTMaterial
1005
0
  0
LINE
  8
F01_OUT
  5
1F1
 10
-44.579386
 20
137.923609
 30
0.0
 11
-44.071998
 21
137.923609
 31
0.0
1001
ACAD
1000
RTMaterial
1005
0
  0
LINE
  8
F01_OUT
  5
1F2
 10
-43.867194
 20
137.923609
 30
0.0
 11
-44.071998
 21
137.923609
 31
0.0
1001
ACAD
1000
RTMaterial
1005
0
  0
LINE
  8
F01_OUT
  5
1F3
 10
-44.679386
 20
145.823609
 30
0.0
 11
-43.656451
 21
145.823609
 31
0.0
1001
ACAD
1000
RTMaterial
1005
0
  0
LINE
  8
F01_OUT
  5
1F4
 10
-44.679386
 20
137.923609
 30
0.0
 11
-44.579386
 21
137.923609
 31
0.0
1001
ACAD
1000
RTMaterial
1005
0
  0
LINE
  8
F01_OUT
  5
1F5
 10
-44.679386
 20
141.389634
 30
0.0
 11
-44.679386
 21
140.023609
 31
0.0
1001
ACAD
1000
RTMaterial
1005
0
  0
LINE
  8
F01_OUT
  5
1F6
 10
-44.679386
 20
140.023609
 30
0.0
 11
-44.679386
 21
139.832557
 31
0.0
1001
ACAD
1000
RTMaterial
1005
0
  0
LINE
  8
F01_OUT
  5
1F7
 10
-44.679386
 20
139.832557
 30
0.0
 11
-44.679386
 21
137.923609
 31
0.0
1001
ACAD
1000
RTMaterial
1005
0
  0
LINE
  8
F01_OUT
  5
1F8
 10
-44.679386
 20
143.732614
 30
0.0
 11
-44.679386
 21
141.389634
 31
0.0
1001
ACAD
1000
RTMaterial
1005
0
  0
ARC
  8
F01_OUT
  5
1F9
 10
-64.379386
 20
142.423609
 30
0.0
 40
21.0
 50
9.317473
 51
12.373625
1001
ACAD
1000
RTMaterial
1005
0
  0
ARC
  8
F01_OUT
  5
1FA
 10
-64.379386
 20
142.423609
 30
0.0
 40
21.0
 50
347.626375
 51
9.317473
1001
ACAD
1000
RTMaterial
1005
0
  0
LINE
  8
F01_OUT
  5
1FB
 10
-44.679386
 20
107.023609
 30
0.0
 11
-43.656451
 21
107.023609
 31
0.0
1001
ACAD
1000
RTMaterial
1005
0
  0
LINE
  8
F01_OUT
  5
1FC
 10
-44.679386
 20
114.923609
 30
0.0
 11
-44.579386
 21
114.923609
 31
0.0
1001
ACAD
1000
RTMaterial
1005
0
  0
LINE
  8
F01_OUT
  5
1FD
 10
-43.867194
 20
114.923609
 30
0.0
 11
-44.071998
 21
114.923609
 31
0.0
1001
ACAD
1000
RTMaterial
1005
0
  0
LINE
  8
F01_OUT
  5
1FE
 10
-44.579386
 20
114.923609
 30
0.0
 11
-44.071998
 21
114.923609
 31
0.0
1001
ACAD
1000
RTMaterial
1005
0
  0
LINE
  8
F01_OUT
  5
1FF
 10
-44.68809
 20
105.923609
 30
0.0
 11
-43.867194
 21
105.923609
 31
0.0
1001
ACAD
1000
RTMaterial
1005
0
  0
LINE
  8
F01_OUT
  5
200
 10
-44.679386
 20
107.673609
 30
0.0
 11
-44.679386
 21
107.023609
 31
0.0
1001
ACAD
1000
RTMaterial
1005
0
  0
LINE
  8
F01_OUT
  5
201
 10
-44.679386
 20
111.457584
 30
0.0
 11
-44.679386
 21
109.114604
 31
0.0
1001
ACAD
1000
RTMaterial
1005
0
  0
LINE
  8
F01_OUT
  5
202
 10
-44.679386
 20
114.923609
 30
0.0
 11
-44.679386
 21
114.673609
 31
0.0
1001
ACAD
1000
RTMaterial
1005
0
  0
LINE
  8
F01_OUT
  5
203
 10
-44.679386
 20
114.673609
 30
0.0
 11
-44.679386
 21
113.014661
 31
0.0
1001
ACAD
1000
RTMaterial
1005
0
  0
LINE
  8
F01_OUT
  5
204
 10
-44.679386
 20
113.014661
 30
0.0
 11
-44.679386
 21
112.823609
 31
0.0
1001
ACAD
1000
RTMaterial
1005
0
  0
LINE
  8
F01_OUT
  5
205
 10
-44.679386
 20
112.823609
 30
0.0
 11
-44.679386
 21
111.457584
 31
0.0
1001
ACAD
1000
RTMaterial
1005
0
  0
LINE
  8
F01_OUT
  5
206
 10
-44.679386
 20
109.114604
 30
0.0
 11
-44.679386
 21
107.673609
 31
0.0
1001
ACAD
1000
RTMaterial
1005
0
  0
LINE
  8
F01_OUT
  5
207
 10
-44.679386
 20
115.623609
 30
0.0
 11
-44.679386
 21
114.923609
 31
0.0
1001
ACAD
1000
RTMaterial
1005
0
  0
ARC
  8
F01_OUT
  5
208
 10
-64.379386
 20
110.423609
 30
0.0
 40
21.0
 50
347.626375
 51
350.682527
1001
ACAD
1000
RTMaterial
1005
0
  0
ARC
  8
F01_OUT
  5
209
 10
-64.379386
 20
110.423609
 30
0.0
 40
21.0
 50
350.682527
 51
12.373625
1001
ACAD
1000
RTMaterial
1005
0
  0
CIRCLE
  8
F01_OUT
  5
20A
 10
125.266769
 20
141.923609
 30
0.0
 40
3.0
1001
ACAD
1000
RTMaterial
1005
0
  0
CIRCLE
  8
F01_OUT
  5
20B
 10
116.566769
 20
141.923609
 30
0.0
 40
3.0
1001
ACAD
1000
RTMaterial
1005
0
  0
CIRCLE
  8
F01_OUT
  5
20C
 10
107.866769
 20
141.923609
 30
0.0
 40
3.0
1001
ACAD
1000
RTMaterial
1005
0
  0
CIRCLE
  8
F01_OUT
  5
20D
 10
99.166769
 20
141.923609
 30
0.0
 40
3.0
1001
ACAD
1000
RTMaterial
1005
0
  0
CIRCLE
  8
F01_OUT
  5
20E
 10
90.466769
 20
141.923609
 30
0.0
 40
3.0
1001
ACAD
1000
RTMaterial
1005
0
  0
LINE
  8
F01_OUT
  5
20F
 10
88.345449
 20
144.044929
 30
0.0
 11
92.588089
 21
139.802289
 31
0.0
1001
ACAD
1000
RTMaterial
1005
0
  0
LINE
  8
F01_OUT
  5
210
 10
89.406109
 20
140.862949
 30
0.0
 11
91.527429
 21
142.984269
 31
0.0
1001
ACAD
1000
RTMaterial
1005
0
  0
LINE
  8
F01_OUT
  5
211
 10
97.045449
 20
144.044929
 30
0.0
 11
101.288089
 21
139.802289
 31
0.0
1001
ACAD
1000
RTMaterial
1005
0
  0
LINE
  8
F01_OUT
  5
212
 10
98.106109
 20
140.862949
 30
0.0
 11
100.227429
 21
142.984269
 31
0.0
1001
ACAD
1000
RTMaterial
1005
0
  0
LINE
  8
F01_OUT
  5
213
 10
105.745449
 20
144.044929
 30
0.0
 11
109.988089
 21
139.802289
 31
0.0
1001
ACAD
1000
RTMaterial
1005
0
  0
LINE
  8
F01_OUT
  5
214
 10
106.806109
 20
140.862949
 30
0.0
 11
108.927429
 21
142.984269
 31
0.0
1001
ACAD
1000
RTMaterial
1005
0
  0
LINE
  8
F01_OUT
  5
215
 10
114.445449
 20
144.044929
 30
0.0
 11
118.688089
 21
139.802289
 31
0.0
1001
ACAD
1000
RTMaterial
1005
0
  0
LINE
  8
F01_OUT
  5
216
 10
115.506109
 20
140.862949
 30
0.0
 11
117.627429
 21
142.984269
 31
0.0
1001
ACAD
1000
RTMaterial
1005
0
  0
LINE
  8
F01_OUT
  5
217
 10
123.145449
 20
144.044929
 30
0.0
 11
127.388089
 21
139.802289
 31
0.0
1001
ACAD
1000
RTMaterial
1005
0
  0
LINE
  8
F01_OUT
  5
218
 10
124.206109
 20
140.862949
 30
0.0
 11
126.327429
 21
142.984269
 31
0.0
1001
ACAD
1000
RTMaterial
1005
0
  0
CIRCLE
  8
F01_OUT
  5
219
 10
125.266769
 20
110.923609
 30
0.0
 40
3.0
1001
ACAD
1000
RTMaterial
1005
0
  0
CIRCLE
  8
F01_OUT
  5
21A
 10
116.566769
 20
110.923609
 30
0.0
 40
3.0
1001
ACAD
1000
RTMaterial
1005
0
  0
CIRCLE
  8
F01_OUT
  5
21B
 10
107.866769
 20
110.923609
 30
0.0
 40
3.0
1001
ACAD
1000
RTMaterial
1005
0
  0
CIRCLE
  8
F01_OUT
  5
21C
 10
99.166769
 20
110.923609
 30
0.0
 40
3.0
1001
ACAD
1000
RTMaterial
1005
0
  0
CIRCLE
  8
F01_OUT
  5
21D
 10
90.466769
 20
110.923609
 30
0.0
 40
3.0
1001
ACAD
1000
RTMaterial
1005
0
  0
LINE
  8
F01_OUT
  5
21E
 10
88.345449
 20
113.044929
 30
0.0
 11
92.588089
 21
108.802289
 31
0.0
1001
ACAD
1000
RTMaterial
1005
0
  0
LINE
  8
F01_OUT
  5
21F
 10
89.406109
 20
109.862949
 30
0.0
 11
91.527429
 21
111.984269
 31
0.0
1001
ACAD
1000
RTMaterial
1005
0
  0
LINE
  8
F01_OUT
  5
220
 10
97.045449
 20
113.044929
 30
0.0
 11
101.288089
 21
108.802289
 31
0.0
1001
ACAD
1000
RTMaterial
1005
0
  0
LINE
  8
F01_OUT
  5
221
 10
98.106109
 20
109.862949
 30
0.0
 11
100.227429
 21
111.984269
 31
0.0
1001
ACAD
1000
RTMaterial
1005
0
  0
LINE
  8
F01_OUT
  5
222
 10
105.745449
 20
113.044929
 30
0.0
 11
109.988089
 21
108.802289
 31
0.0
1001
ACAD
1000
RTMaterial
1005
0
  0
LINE
  8
F01_OUT
  5
223
 10
106.806109
 20
109.862949
 30
0.0
 11
108.927429
 21
111.984269
 31
0.0
1001
ACAD
1000
RTMaterial
1005
0
  0
LINE
  8
F01_OUT
  5
224
 10
114.445449
 20
113.044929
 30
0.0
 11
118.688089
 21
108.802289
 31
0.0
1001
ACAD
1000
RTMaterial
1005
0
  0
LINE
  8
F01_OUT
  5
225
 10
115.506109
 20
109.862949
 30
0.0
 11
117.627429
 21
111.984269
 31
0.0
1001
ACAD
1000
RTMaterial
1005
0
  0
LINE
  8
F01_OUT
  5
226
 10
123.145449
 20
113.044929
 30
0.0
 11
127.388089
 21
108.802289
 31
0.0
1001
ACAD
1000
RTMaterial
1005
0
  0
LINE
  8
F01_OUT
  5
227
 10
124.206109
 20
109.862949
 30
0.0
 11
126.327429
 21
111.984269
 31
0.0
1001
ACAD
1000
RTMaterial
1005
0
  0
CIRCLE
  8
F01_OUT
  5
228
 10
79.766769
 20
110.923609
 30
0.0
 40
3.0
1001
ACAD
1000
RTMaterial
1005
0
  0
CIRCLE
  8
F01_OUT
  5
229
 10
71.066769
 20
110.923609
 30
0.0
 40
3.0
1001
ACAD
1000
RTMaterial
1005
0
  0
CIRCLE
  8
F01_OUT
  5
22A
 10
62.366769
 20
110.923609
 30
0.0
 40
3.0
1001
ACAD
1000
RTMaterial
1005
0
  0
CIRCLE
  8
F01_OUT
  5
22B
 10
53.666769
 20
110.923609
 30
0.0
 40
3.0
1001
ACAD
1000
RTMaterial
1005
0
  0
CIRCLE
  8
F01_OUT
  5
22C
 10
44.966769
 20
110.923609
 30
0.0
 40
3.0
1001
ACAD
1000
RTMaterial
1005
0
  0
LINE
  8
F01_OUT
  5
22D
 10
42.845449
 20
113.044929
 30
0.0
 11
47.088089
 21
108.802289
 31
0.0
1001
ACAD
1000
RTMaterial
1005
0
  0
LINE
  8
F01_OUT
  5
22E
 10
43.906109
 20
109.862949
 30
0.0
 11
46.027429
 21
111.984269
 31
0.0
1001
ACAD
1000
RTMaterial
1005
0
  0
LINE
  8
F01_OUT
  5
22F
 10
51.545449
 20
113.044929
 30
0.0
 11
55.788089
 21
108.802289
 31
0.0
1001
ACAD
1000
RTMaterial
1005
0
  0
LINE
  8
F01_OUT
  5
230
 10
52.606109
 20
109.862949
 30
0.0
 11
54.727429
 21
111.984269
 31
0.0
1001
ACAD
1000
RTMaterial
1005
0
  0
LINE
  8
F01_OUT
  5
231
 10
60.245449
 20
113.044929
 30
0.0
 11
64.488089
 21
108.802289
 31
0.0
1001
ACAD
1000
RTMaterial
1005
0
  0
LINE
  8
F01_OUT
  5
232
 10
61.306109
 20
109.862949
 30
0.0
 11
63.427429
 21
111.984269
 31
0.0
1001
ACAD
1000
RTMaterial
1005
0
  0
LINE
  8
F01_OUT
  5
233
 10
68.945449
 20
113.044929
 30
0.0
 11
73.188089
 21
108.802289
 31
0.0
1001
ACAD
1000
RTMaterial
1005
0
  0
LINE
  8
F01_OUT
  5
234
 10
70.006109
 20
109.862949
 30
0.0
 11
72.127429
 21
111.984269
 31
0.0
1001
ACAD
1000
RTMaterial
1005
0
  0
LINE
  8
F01_OUT
  5
235
 10
77.645449
 20
113.044929
 30
0.0
 11
81.888089
 21
108.802289
 31
0.0
1001
ACAD
1000
RTMaterial
1005
0
  0
LINE
  8
F01_OUT
  5
236
 10
78.706109
 20
109.862949
 30
0.0
 11
80.827429
 21
111.984269
 31
0.0
1001
ACAD
1000
RTMaterial
1005
0
  0
LINE
  8
F01_OUT
  5
237
 10
78.706109
 20
140.862949
 30
0.0
 11
80.827429
 21
142.984269
 31
0.0
1001
ACAD
1000
RTMaterial
1005
0
  0
LINE
  8
F01_OUT
  5
238
 10
77.645449
 20
144.044929
 30
0.0
 11
81.888089
 21
139.802289
 31
0.0
1001
ACAD
1000
RTMaterial
1005
0
  0
LINE
  8
F01_OUT
  5
239
 10
70.006109
 20
140.862949
 30
0.0
 11
72.127429
 21
142.984269
 31
0.0
1001
ACAD
1000
RTMaterial
1005
0
  0
LINE
  8
F01_OUT
  5
23A
 10
68.945449
 20
144.044929
 30
0.0
 11
73.188089
 21
139.802289
 31
0.0
1001
ACAD
1000
RTMaterial
1005
0
  0
LINE
  8
F01_OUT
  5
23B
 10
61.306109
 20
140.862949
 30
0.0
 11
63.427429
 21
142.984269
 31
0.0
1001
ACAD
1000
RTMaterial
1005
0
  0
LINE
  8
F01_OUT
  5
23C
 10
60.245449
 20
144.044929
 30
0.0
 11
64.488089
 21
139.802289
 31
0.0
1001
ACAD
1000
RTMaterial
1005
0
  0
LINE
  8
F01_OUT
  5
23D
 10
52.606109
 20
140.862949
 30
0.0
 11
54.727429
 21
142.984269
 31
0.0
1001
ACAD
1000
RTMaterial
1005
0
  0
LINE
  8
F01_OUT
  5
23E
 10
51.545449
 20
144.044929
 30
0.0
 11
55.788089
 21
139.802289
 31
0.0
1001
ACAD
1000
RTMaterial
1005
0
  0
LINE
  8
F01_OUT
  5
23F
 10
43.906109
 20
140.862949
 30
0.0
 11
46.027429
 21
142.984269
 31
0.0
1001
ACAD
1000
RTMaterial
1005
0
  0
LINE
  8
F01_OUT
  5
240
 10
42.845449
 20
144.044929
 30
0.0
 11
47.088089
 21
139.802289
 31
0.0
1001
ACAD
1000
RTMaterial
1005
0
  0
CIRCLE
  8
F01_OUT
  5
241
 10
44.966769
 20
141.923609
 30
0.0
 40
3.0
1001
ACAD
1000
RTMaterial
1005
0
  0
LINE
  8
F01_OUT
  5
242
 10
66.566769
 20
146.923609
 30
0.0
 11
66.566769
 21
137.923609
 31
0.0
1001
ACAD
1000
RTMaterial
1005
0
  0
LINE
  8
F01_OUT
  5
243
 10
57.866769
 20
146.923609
 30
0.0
 11
57.866769
 21
137.923609
 31
0.0
1001
ACAD
1000
RTMaterial
1005
0
  0
LINE
  8
F01_OUT
  5
244
 10
66.866769
 20
146.923609
 30
0.0
 11
66.866769
 21
137.923609
 31
0.0
1001
ACAD
1000
RTMaterial
1005
0
  0
LINE
  8
F01_OUT
  5
245
 10
75.266769
 20
146.923609
 30
0.0
 11
75.266769
 21
137.923609
 31
0.0
1001
ACAD
1000
RTMaterial
1005
0
  0
LINE
  8
F01_OUT
  5
246
 10
58.166769
 20
146.923609
 30
0.0
 11
58.166769
 21
137.923609
 31
0.0
1001
ACAD
1000
RTMaterial
1005
0
  0
LINE
  8
F01_OUT
  5
247
 10
49.466769
 20
146.923609
 30
0.0
 11
49.466769
 21
137.923609
 31
0.0
1001
ACAD
1000
RTMaterial
1005
0
  0
LINE
  8
F01_OUT
  5
248
 10
49.166769
 20
146.923609
 30
0.0
 11
49.166769
 21
137.923609
 31
0.0
1001
ACAD
1000
RTMaterial
1005
0
  0
LINE
  8
F01_OUT
  5
249
 10
75.566769
 20
146.923609
 30
0.0
 11
75.566769
 21
137.923609
 31
0.0
1001
ACAD
1000
RTMaterial
1005
0
  0
CIRCLE
  8
F01_OUT
  5
24A
 10
53.666769
 20
141.923609
 30
0.0
 40
3.0
1001
ACAD
1000
RTMaterial
1005
0
  0
CIRCLE
  8
F01_OUT
  5
24B
 10
62.366769
 20
141.923609
 30
0.0
 40
3.0
1001
ACAD
1000
RTMaterial
1005
0
  0
CIRCLE
  8
F01_OUT
  5
24C
 10
71.066769
 20
141.923609
 30
0.0
 40
3.0
1001
ACAD
1000
RTMaterial
1005
0
  0
CIRCLE
  8
F01_OUT
  5
24D
 10
79.766769
 20
141.923609
 30
0.0
 40
3.0
1001
ACAD
1000
RTMaterial
1005
0
  0
LINE
  8
F01_OUT
  5
24E
 10
39.866769
 20
114.923609
 30
0.0
 11
39.866769
 21
115.923609
 31
0.0
1001
ACAD
1000
RTMaterial
1005
0
  0
LINE
  8
F01_OUT
  5
24F
 10
84.366769
 20
116.923609
 30
0.0
 11
84.232794
 21
117.423609
 31
0.0
1001
ACAD
1000
RTMaterial
1005
F43E8D0400000000
  0
ARC
  8
F01_OUT
  5
250
 10
125.916769
 20
136.823609
 30
0.0
 40
0.3
 50
0.0
 51
90.0
1001
ACAD
1000
RTMaterial
1005
0
  0
ARC
  8
F01_OUT
  5
251
 10
124.616769
 20
136.823609
 30
0.0
 40
0.3
 50
90.0
 51
180.0
1001
ACAD
1000
RTMaterial
1005
0
  0
ARC
  8
F01_OUT
  5
252
 10
126.516769
 20
136.123609
 30
0.0
 40
0.3
 50
180.0
 51
270.0
1001
ACAD
1000
RTMaterial
1005
0
  0
ARC
  8
F01_OUT
  5
253
 10
124.616769
 20
134.023608
 30
0.0
 40
0.3
 50
180.0
 51
191.903701
1001
ACAD
1000
RTMaterial
1005
0
  0
ARC
  8
F01_OUT
  5
254
 10
127.416769
 20
135.523609
 30
0.0
 40
0.3
 50
0.0
 51
90.0
1001
ACAD
1000
RTMaterial
1005
0
  0
ARC
  8
F01_OUT
  5
255
 10
126.516769
 20
116.723609
 30
0.0
 40
0.3
 50
90.0
 51
180.0
1001
ACAD
1000
RTMaterial
1005
0
  0
ARC
  8
F01_OUT
  5
256
 10
124.616769
 20
116.023609
 30
0.0
 40
0.3
 50
180.0
 51
270.0
1001
ACAD
1000
RTMaterial
1005
0
  0
ARC
  8
F01_OUT
  5
257
 10
125.916769
 20
116.023609
 30
0.0
 40
0.3
 50
270.0
 51
0.0
1001
ACAD
1000
RTMaterial
1005
0
  0
ARC
  8
F01_OUT
  5
258
 10
127.416769
 20
117.323609
 30
0.0
 40
0.3
 50
270.0
 51
0.0
1001
ACAD
1000
RTMaterial
1005
0
  0
LINE
  8
F01_OUT
  5
259
 10
106.116769
 20
137.923609
 30
0.0
 11
109.616769
 21
137.923609
 31
0.0
1001
ACAD
1000
RTMaterial
1005
0
  0
LINE
  8
F01_OUT
  5
25A
 10
105.616769
 20
137.923609
 30
0.0
 11
106.116769
 21
137.923609
 31
0.0
1001
ACAD
1000
RTMaterial
1005
0
  0
LINE
  8
F01_OUT
  5
25B
 10
105.116769
 20
137.923609
 30
0.0
 11
105.616769
 21
137.923609
 31
0.0
1001
ACAD
1000
RTMaterial
1005
0
  0
LINE
  8
F01_OUT
  5
25C
 10
114.816769
 20
137.923609
 30
0.0
 11
116.566769
 21
137.923609
 31
0.0
1001
ACAD
1000
RTMaterial
1005
0
  0
LINE
  8
F01_OUT
  5
25D
 10
121.066769
 20
137.923609
 30
0.0
 11
120.766769
 21
137.923609
 31
0.0
1001
ACAD
1000
RTMaterial
1005
0
  0
LINE
  8
F01_OUT
  5
25E
 10
118.566769
 20
137.923609
 30
0.0
 11
118.816769
 21
137.923609
 31
0.0
1001
ACAD
1000
RTMaterial
1005
0
  0
LINE
  8
F01_OUT
  5
25F
 10
119.316769
 20
137.923609
 30
0.0
 11
120.766769
 21
137.923609
 31
0.0
1001
ACAD
1000
RTMaterial
1005
0
  0
LINE
  8
F01_OUT
  5
260
 10
118.816769
 20
137.923609
 30
0.0
 11
119.316769
 21
137.923609
 31
0.0
1001
ACAD
1000
RTMaterial
1005
0
  0
LINE
  8
F01_OUT
  5
261
 10
116.566769
 20
137.923609
 30
0.0
 11
118.316769
 21
137.923609
 31
0.0
1001
ACAD
1000
RTMaterial
1005
0
  0
LINE
  8
F01_OUT
  5
262
 10
118.316769
 20
137.923609
 30
0.0
 11
118.566769
 21
137.923609
 31
0.0
1001
ACAD
1000
RTMaterial
1005
0
  0
LINE
  8
F01_OUT
  5
263
 10
94.966769
 20
137.923609
 30
0.0
 11
96.416769
 21
137.923609
 31
0.0
1001
ACAD
1000
RTMaterial
1005
0
  0
LINE
  8
F01_OUT
  5
264
 10
96.416769
 20
137.923609
 30
0.0
 11
96.916769
 21
137.923609
 31
0.0
1001
ACAD
1000
RTMaterial
1005
0
  0
LINE
  8
F01_OUT
  5
265
 10
96.916769
 20
137.923609
 30
0.0
 11
97.166769
 21
137.923609
 31
0.0
1001
ACAD
1000
RTMaterial
1005
0
  0
LINE
  8
F01_OUT
  5
266
 10
101.916769
 20
137.923609
 30
0.0
 11
103.366769
 21
137.923609
 31
0.0
1001
ACAD
1000
RTMaterial
1005
0
  0
LINE
  8
F01_OUT
  5
267
 10
101.416769
 20
137.923609
 30
0.0
 11
101.916769
 21
137.923609
 31
0.0
1001
ACAD
1000
RTMaterial
1005
0
  0
LINE
  8
F01_OUT
  5
268
 10
99.166769
 20
137.923609
 30
0.0
 11
100.916769
 21
137.923609
 31
0.0
1001
ACAD
1000
RTMaterial
1005
0
  0
LINE
  8
F01_OUT
  5
269
 10
100.916769
 20
137.923609
 30
0.0
 11
101.416769
 21
137.923609
 31
0.0
1001
ACAD
1000
RTMaterial
1005
0
  0
LINE
  8
F01_OUT
  5
26A
 10
103.666769
 20
137.923609
 30
0.0
 11
105.116769
 21
137.923609
 31
0.0
1001
ACAD
1000
RTMaterial
1005
0
  0
LINE
  8
F01_OUT
  5
26B
 10
103.666769
 20
137.923609
 30
0.0
 11
103.366769
 21
137.923609
 31
0.0
1001
ACAD
1000
RTMaterial
1005
0
  0
LINE
  8
F01_OUT
  5
26C
 10
97.416769
 20
137.923609
 30
0.0
 11
99.166769
 21
137.923609
 31
0.0
1001
ACAD
1000
RTMaterial
1005
0
  0
LINE
  8
F01_OUT
  5
26D
 10
97.166769
 20
137.923609
 30
0.0
 11
97.416769
 21
137.923609
 31
0.0
1001
ACAD
1000
RTMaterial
1005
0
  0
LINE
  8
F01_OUT
  5
26E
 10
112.366769
 20
137.923609
 30
0.0
 11
113.816769
 21
137.923609
 31
0.0
1001
ACAD
1000
RTMaterial
1005
0
  0
LINE
  8
F01_OUT
  5
26F
 10
112.366769
 20
137.923609
 30
0.0
 11
112.066769
 21
137.923609
 31
0.0
1001
ACAD
1000
RTMaterial
1005
0
  0
LINE
  8
F01_OUT
  5
270
 10
110.616769
 20
137.923609
 30
0.0
 11
112.066769
 21
137.923609
 31
0.0
1001
ACAD
1000
RTMaterial
1005
0
  0
LINE
  8
F01_OUT
  5
271
 10
110.116769
 20
137.923609
 30
0.0
 11
110.616769
 21
137.923609
 31
0.0
1001
ACAD
1000
RTMaterial
1005
0
  0
LINE
  8
F01_OUT
  5
272
 10
109.616769
 20
137.923609
 30
0.0
 11
110.116769
 21
137.923609
 31
0.0
1001
ACAD
1000
RTMaterial
1005
0
  0
LINE
  8
F01_OUT
  5
273
 10
114.316769
 20
137.923609
 30
0.0
 11
114.816769
 21
137.923609
 31
0.0
1001
ACAD
1000
RTMaterial
1005
0
  0
LINE
  8
F01_OUT
  5
274
 10
113.816769
 20
137.923609
 30
0.0
 11
114.316769
 21
137.923609
 31
0.0
1001
ACAD
1000
RTMaterial
1005
0
  0
LINE
  8
F01_OUT
  5
275
 10
93.216769
 20
137.923609
 30
0.0
 11
94.666769
 21
137.923609
 31
0.0
1001
ACAD
1000
RTMaterial
1005
0
  0
LINE
  8
F01_OUT
  5
276
 10
92.716769
 20
137.923609
 30
0.0
 11
93.216769
 21
137.923609
 31
0.0
1001
ACAD
1000
RTMaterial
1005
0
  0
LINE
  8
F01_OUT
  5
277
 10
92.275378
 20
137.923609
 30
0.0
 11
92.716769
 21
137.923609
 31
0.0
1001
ACAD
1000
RTMaterial
1005
0
  0
LINE
  8
F01_OUT
  5
278
 10
92.216769
 20
137.923609
 30
0.0
 11
92.275378
 21
137.923609
 31
0.0
1001
ACAD
1000
RTMaterial
1005
0
  0
LINE
  8
F01_OUT
  5
279
 10
94.966769
 20
137.923609
 30
0.0
 11
94.666769
 21
137.923609
 31
0.0
1001
ACAD
1000
RTMaterial
1005
0
  0
LINE
  8
F01_OUT
  5
27A
 10
88.716769
 20
137.923609
 30
0.0
 11
92.216769
 21
137.923609
 31
0.0
1001
ACAD
1000
RTMaterial
1005
0
  0
LINE
  8
F01_OUT
  5
27B
 10
87.716769
 20
137.923609
 30
0.0
 11
88.216769
 21
137.923609
 31
0.0
1001
ACAD
1000
RTMaterial
1005
0
  0
LINE
  8
F01_OUT
  5
27C
 10
88.216769
 20
137.923609
 30
0.0
 11
88.716769
 21
137.923609
 31
0.0
1001
ACAD
1000
RTMaterial
1005
0
  0
LINE
  8
F01_OUT
  5
27D
 10
86.591769
 20
137.923609
 30
0.0
 11
87.716769
 21
137.923609
 31
0.0
1001
ACAD
1000
RTMaterial
1005
0
  0
LINE
  8
F01_OUT
  5
27E
 10
86.466769
 20
137.923609
 30
0.0
 11
86.591769
 21
137.923609
 31
0.0
1001
ACAD
1000
RTMaterial
1005
0
  0
LINE
  8
F01_OUT
  5
27F
 10
86.466769
 20
137.423609
 30
0.0
 11
86.466769
 21
137.923609
 31
0.0
1001
ACAD
1000
RTMaterial
1005
0
  0
LINE
  8
F01_OUT
  5
280
 10
124.316769
 20
136.823609
 30
0.0
 11
124.316769
 21
134.423608
 31
0.0
1001
ACAD
1000
RTMaterial
1005
0
  0
LINE
  8
F01_OUT
  5
281
 10
124.316769
 20
134.423608
 30
0.0
 11
124.316769
 21
134.023608
 31
0.0
1001
ACAD
1000
RTMaterial
1005
0
  0
LINE
  8
F01_OUT
  5
282
 10
126.216769
 20
136.123609
 30
0.0
 11
126.216769
 21
136.823609
 31
0.0
1001
ACAD
1000
RTMaterial
1005
0
  0
LINE
  8
F01_OUT
  5
283
 10
125.916769
 20
137.123609
 30
0.0
 11
124.616769
 21
137.123609
 31
0.0
1001
ACAD
1000
RTMaterial
1005
0
  0
LINE
  8
F01_OUT
  5
284
 10
123.666769
 20
137.923609
 30
0.0
 11
126.866769
 21
137.923609
 31
0.0
1001
ACAD
1000
RTMaterial
1005
0
  0
LINE
  8
F01_OUT
  5
285
 10
121.066769
 20
137.923609
 30
0.0
 11
123.666769
 21
137.923609
 31
0.0
1001
ACAD
1000
RTMaterial
1005
0
  0
LINE
  8
F01_OUT
  5
286
 10
127.716769
 20
133.961728
 30
0.0
 11
124.32322
 21
133.961728
 31
0.0
1001
ACAD
1000
RTMaterial
1005
0
  0
LINE
  8
F01_OUT
  5
287
 10
127.716769
 20
134.423608
 30
0.0
 11
127.716769
 21
135.523609
 31
0.0
1001
ACAD
1000
RTMaterial
1005
0
  0
LINE
  8
F01_OUT
  5
288
 10
127.716769
 20
133.961728
 30
0.0
 11
127.716769
 21
134.423608
 31
0.0
1001
ACAD
1000
RTMaterial
1005
0
  0
LINE
  8
F01_OUT
  5
289
 10
127.416769
 20
135.823609
 30
0.0
 11
126.516769
 21
135.823609
 31
0.0
1001
ACAD
1000
RTMaterial
1005
0
  0
LINE
  8
F01_OUT
  5
28A
 10
126.866769
 20
137.923609
 30
0.0
 11
128.227149
 21
137.923609
 31
0.0
1001
ACAD
1000
RTMaterial
1005
0
  0
LINE
  8
F01_OUT
  5
28B
 10
129.266769
 20
136.823609
 30
0.0
 11
129.266769
 21
135.623609
 31
0.0
1001
ACAD
1000
RTMaterial
1005
0
  0
LINE
  8
F01_OUT
  5
28C
 10
128.227149
 20
137.923609
 30
0.0
 11
129.141769
 21
137.923609
 31
0.0
1001
ACAD
1000
RTMaterial
1005
0
  0
LINE
  8
F01_OUT
  5
28D
 10
129.141769
 20
137.923609
 30
0.0
 11
129.266769
 21
137.923609
 31
0.0
1001
ACAD
1000
RTMaterial
1005
0
  0
LINE
  8
F01_OUT
  5
28E
 10
129.266769
 20
137.923609
 30
0.0
 11
129.266769
 21
136.823609
 31
0.0
1001
ACAD
1000
RTMaterial
1005
0
  0
LINE
  8
F01_OUT
  5
28F
 10
129.266769
 20
135.623609
 30
0.0
 11
129.266769
 21
135.323609
 31
0.0
1001
ACAD
1000
RTMaterial
1005
0
  0
LINE
  8
F01_OUT
  5
290
 10
129.266769
 20
135.323609
 30
0.0
 11
130.366769
 21
135.323609
 31
0.0
1001
ACAD
1000
RTMaterial
1005
0
  0
LINE
  8
F01_OUT
  5
291
 10
124.316769
 20
116.023609
 30
0.0
 11
124.316769
 21
118.423609
 31
0.0
1001
ACAD
1000
RTMaterial
1005
0
  0
LINE
  8
F01_OUT
  5
292
 10
124.316769
 20
118.423609
 30
0.0
 11
124.316769
 21
118.88549
 31
0.0
1001
ACAD
1000
RTMaterial
1005
0
  0
LINE
  8
F01_OUT
  5
293
 10
92.216769
 20
114.923609
 30
0.0
 11
88.716769
 21
114.923609
 31
0.0
1001
ACAD
1000
RTMaterial
1005
0
  0
LINE
  8
F01_OUT
  5
294
 10
105.116769
 20
114.923609
 30
0.0
 11
103.666769
 21
114.923609
 31
0.0
1001
ACAD
1000
RTMaterial
1005
0
  0
LINE
  8
F01_OUT
  5
295
 10
86.466769
 20
114.923609
 30
0.0
 11
86.466769
 21
115.423609
 31
0.0
1001
ACAD
1000
RTMaterial
1005
0
  0
LINE
  8
F01_OUT
  5
296
 10
99.166769
 20
114.923609
 30
0.0
 11
97.416769
 21
114.923609
 31
0.0
1001
ACAD
1000
RTMaterial
1005
0
  0
LINE
  8
F01_OUT
  5
297
 10
97.416769
 20
114.923609
 30
0.0
 11
97.166769
 21
114.923609
 31
0.0
1001
ACAD
1000
RTMaterial
1005
0
  0
LINE
  8
F01_OUT
  5
298
 10
100.916769
 20
114.923609
 30
0.0
 11
99.166769
 21
114.923609
 31
0.0
1001
ACAD
1000
RTMaterial
1005
0
  0
LINE
  8
F01_OUT
  5
299
 10
97.166769
 20
114.923609
 30
0.0
 11
96.916769
 21
114.923609
 31
0.0
1001
ACAD
1000
RTMaterial
1005
0
  0
LINE
  8
F01_OUT
  5
29A
 10
87.716769
 20
114.923609
 30
0.0
 11
86.591769
 21
114.923609
 31
0.0
1001
ACAD
1000
RTMaterial
1005
0
  0
LINE
  8
F01_OUT
  5
29B
 10
86.591769
 20
114.923609
 30
0.0
 11
86.466769
 21
114.923609
 31
0.0
1001
ACAD
1000
RTMaterial
1005
0
  0
LINE
  8
F01_OUT
  5
29C
 10
88.716769
 20
114.923609
 30
0.0
 11
88.216769
 21
114.923609
 31
0.0
1001
ACAD
1000
RTMaterial
1005
0
  0
LINE
  8
F01_OUT
  5
29D
 10
88.216769
 20
114.923609
 30
0.0
 11
87.716769
 21
114.923609
 31
0.0
1001
ACAD
1000
RTMaterial
1005
0
  0
LINE
  8
F01_OUT
  5
29E
 10
101.416769
 20
114.923609
 30
0.0
 11
100.916769
 21
114.923609
 31
0.0
1001
ACAD
1000
RTMaterial
1005
0
  0
LINE
  8
F01_OUT
  5
29F
 10
103.366769
 20
114.923609
 30
0.0
 11
101.916769
 21
114.923609
 31
0.0
1001
ACAD
1000
RTMaterial
1005
0
  0
LINE
  8
F01_OUT
  5
2A0
 10
101.916769
 20
114.923609
 30
0.0
 11
101.416769
 21
114.923609
 31
0.0
1001
ACAD
1000
RTMaterial
1005
0
  0
LINE
  8
F01_OUT
  5
2A1
 10
103.366769
 20
114.923609
 30
0.0
 11
103.666769
 21
114.923609
 31
0.0
1001
ACAD
1000
RTMaterial
1005
0
  0
LINE
  8
F01_OUT
  5
2A2
 10
92.275378
 20
114.923609
 30
0.0
 11
92.216769
 21
114.923609
 31
0.0
1001
ACAD
1000
RTMaterial
1005
0
  0
LINE
  8
F01_OUT
  5
2A3
 10
92.716769
 20
114.923609
 30
0.0
 11
92.275378
 21
114.923609
 31
0.0
1001
ACAD
1000
RTMaterial
1005
0
  0
LINE
  8
F01_OUT
  5
2A4
 10
93.216769
 20
114.923609
 30
0.0
 11
92.716769
 21
114.923609
 31
0.0
1001
ACAD
1000
RTMaterial
1005
0
  0
LINE
  8
F01_OUT
  5
2A5
 10
94.666769
 20
114.923609
 30
0.0
 11
93.216769
 21
114.923609
 31
0.0
1001
ACAD
1000
RTMaterial
1005
0
  0
LINE
  8
F01_OUT
  5
2A6
 10
96.416769
 20
114.923609
 30
0.0
 11
94.966769
 21
114.923609
 31
0.0
1001
ACAD
1000
RTMaterial
1005
0
  0
LINE
  8
F01_OUT
  5
2A7
 10
94.666769
 20
114.923609
 30
0.0
 11
94.966769
 21
114.923609
 31
0.0
1001
ACAD
1000
RTMaterial
1005
0
  0
LINE
  8
F01_OUT
  5
2A8
 10
96.916769
 20
114.923609
 30
0.0
 11
96.416769
 21
114.923609
 31
0.0
1001
ACAD
1000
RTMaterial
1005
0
  0
LINE
  8
F01_OUT
  5
2A9
 10
109.616769
 20
114.923609
 30
0.0
 11
106.116769
 21
114.923609
 31
0.0
1001
ACAD
1000
RTMaterial
1005
0
  0
LINE
  8
F01_OUT
  5
2AA
 10
123.666769
 20
114.923609
 30
0.0
 11
121.066769
 21
114.923609
 31
0.0
1001
ACAD
1000
RTMaterial
1005
0
  0
LINE
  8
F01_OUT
  5
2AB
 10
120.766769
 20
114.923609
 30
0.0
 11
119.316769
 21
114.923609
 31
0.0
1001
ACAD
1000
RTMaterial
1005
0
  0
LINE
  8
F01_OUT
  5
2AC
 10
120.766769
 20
114.923609
 30
0.0
 11
121.066769
 21
114.923609
 31
0.0
1001
ACAD
1000
RTMaterial
1005
0
  0
LINE
  8
F01_OUT
  5
2AD
 10
118.566769
 20
114.923609
 30
0.0
 11
118.316769
 21
114.923609
 31
0.0
1001
ACAD
1000
RTMaterial
1005
0
  0
LINE
  8
F01_OUT
  5
2AE
 10
119.316769
 20
114.923609
 30
0.0
 11
118.816769
 21
114.923609
 31
0.0
1001
ACAD
1000
RTMaterial
1005
0
  0
LINE
  8
F01_OUT
  5
2AF
 10
118.816769
 20
114.923609
 30
0.0
 11
118.566769
 21
114.923609
 31
0.0
1001
ACAD
1000
RTMaterial
1005
0
  0
LINE
  8
F01_OUT
  5
2B0
 10
118.316769
 20
114.923609
 30
0.0
 11
116.566769
 21
114.923609
 31
0.0
1001
ACAD
1000
RTMaterial
1005
0
  0
LINE
  8
F01_OUT
  5
2B1
 10
114.316769
 20
114.923609
 30
0.0
 11
113.816769
 21
114.923609
 31
0.0
1001
ACAD
1000
RTMaterial
1005
0
  0
LINE
  8
F01_OUT
  5
2B2
 10
116.566769
 20
114.923609
 30
0.0
 11
114.816769
 21
114.923609
 31
0.0
1001
ACAD
1000
RTMaterial
1005
0
  0
LINE
  8
F01_OUT
  5
2B3
 10
114.816769
 20
114.923609
 30
0.0
 11
114.316769
 21
114.923609
 31
0.0
1001
ACAD
1000
RTMaterial
1005
0
  0
LINE
  8
F01_OUT
  5
2B4
 10
110.116769
 20
114.923609
 30
0.0
 11
109.616769
 21
114.923609
 31
0.0
1001
ACAD
1000
RTMaterial
1005
0
  0
LINE
  8
F01_OUT
  5
2B5
 10
106.116769
 20
114.923609
 30
0.0
 11
105.616769
 21
114.923609
 31
0.0
1001
ACAD
1000
RTMaterial
1005
0
  0
LINE
  8
F01_OUT
  5
2B6
 10
105.616769
 20
114.923609
 30
0.0
 11
105.116769
 21
114.923609
 31
0.0
1001
ACAD
1000
RTMaterial
1005
0
  0
LINE
  8
F01_OUT
  5
2B7
 10
110.616769
 20
114.923609
 30
0.0
 11
110.116769
 21
114.923609
 31
0.0
1001
ACAD
1000
RTMaterial
1005
0
  0
LINE
  8
F01_OUT
  5
2B8
 10
113.816769
 20
114.923609
 30
0.0
 11
112.366769
 21
114.923609
 31
0.0
1001
ACAD
1000
RTMaterial
1005
0
  0
LINE
  8
F01_OUT
  5
2B9
 10
112.066769
 20
114.923609
 30
0.0
 11
112.366769
 21
114.923609
 31
0.0
1001
ACAD
1000
RTMaterial
1005
0
  0
LINE
  8
F01_OUT
  5
2BA
 10
112.066769
 20
114.923609
 30
0.0
 11
110.616769
 21
114.923609
 31
0.0
1001
ACAD
1000
RTMaterial
1005
0
  0
LINE
  8
F01_OUT
  5
2BB
 10
125.916769
 20
115.723609
 30
0.0
 11
124.616769
 21
115.723609
 31
0.0
1001
ACAD
1000
RTMaterial
1005
0
  0
LINE
  8
F01_OUT
  5
2BC
 10
126.216769
 20
116.723609
 30
0.0
 11
126.216769
 21
116.023609
 31
0.0
1001
ACAD
1000
RTMaterial
1005
0
  0
LINE
  8
F01_OUT
  5
2BD
 10
126.866769
 20
114.923609
 30
0.0
 11
123.666769
 21
114.923609
 31
0.0
1001
ACAD
1000
RTMaterial
1005
0
  0
LINE
  8
F01_OUT
  5
2BE
 10
127.716769
 20
118.88549
 30
0.0
 11
124.316769
 21
118.88549
 31
0.0
1001
ACAD
1000
RTMaterial
1005
0
  0
LINE
  8
F01_OUT
  5
2BF
 10
127.716769
 20
117.323609
 30
0.0
 11
127.716769
 21
118.423609
 31
0.0
1001
ACAD
1000
RTMaterial
1005
0
  0
LINE
  8
F01_OUT
  5
2C0
 10
127.716769
 20
118.423609
 30
0.0
 11
127.716769
 21
118.88549
 31
0.0
1001
ACAD
1000
RTMaterial
1005
0
  0
LINE
  8
F01_OUT
  5
2C1
 10
126.516769
 20
117.023609
 30
0.0
 11
127.416769
 21
117.023609
 31
0.0
1001
ACAD
1000
RTMaterial
1005
0
  0
LINE
  8
F01_OUT
  5
2C2
 10
128.227149
 20
114.923609
 30
0.0
 11
126.866769
 21
114.923609
 31
0.0
1001
ACAD
1000
RTMaterial
1005
0
  0
LINE
  8
F01_OUT
  5
2C3
 10
129.266769
 20
117.223609
 30
0.0
 11
129.266769
 21
116.023609
 31
0.0
1001
ACAD
1000
RTMaterial
1005
0
  0
LINE
  8
F01_OUT
  5
2C4
 10
129.266769
 20
116.023609
 30
0.0
 11
129.266769
 21
114.923609
 31
0.0
1001
ACAD
1000
RTMaterial
1005
0
  0
LINE
  8
F01_OUT
  5
2C5
 10
129.266769
 20
117.523609
 30
0.0
 11
129.266769
 21
117.223609
 31
0.0
1001
ACAD
1000
RTMaterial
1005
0
  0
LINE
  8
F01_OUT
  5
2C6
 10
129.141769
 20
114.923609
 30
0.0
 11
128.227149
 21
114.923609
 31
0.0
1001
ACAD
1000
RTMaterial
1005
0
  0
LINE
  8
F01_OUT
  5
2C7
 10
129.266769
 20
114.923609
 30
0.0
 11
129.141769
 21
114.923609
 31
0.0
1001
ACAD
1000
RTMaterial
1005
0
  0
LINE
  8
F01_OUT
  5
2C8
 10
130.366769
 20
117.523609
 30
0.0
 11
129.266769
 21
117.523609
 31
0.0
1001
ACAD
1000
RTMaterial
1005
0
  0
LINE
  8
F01_OUT
  5
2C9
 10
130.366769
 20
135.323609
 30
0.0
 11
130.366769
 21
117.523609
 31
0.0
1001
ACAD
1000
RTMaterial
1005
0
  0
ARC
  8
F01_OUT
  5
2CA
 10
85.666769
 20
150.123609
 30
0.0
 40
0.3
 50
90.0
 51
180.0
1001
ACAD
1000
RTMaterial
1005
0
  0
ARC
  8
F01_OUT
  5
2CB
 10
86.291769
 20
150.123609
 30
0.0
 40
0.3
 50
0.0
 51
90.0
1001
ACAD
1000
RTMaterial
1005
0
  0
ARC
  8
F01_OUT
  5
2CC
 10
112.041769
 20
102.723609
 30
0.0
 40
0.3
 50
180.0
 51
270.0
1001
ACAD
1000
RTMaterial
1005
0
  0
ARC
  8
F01_OUT
  5
2CD
 10
112.391769
 20
102.723609
 30
0.0
 40
0.3
 50
270.0
 51
0.0
1001
ACAD
1000
RTMaterial
1005
0
  0
ARC
  8
F01_OUT
  5
2CE
 10
94.991769
 20
102.723609
 30
0.0
 40
0.3
 50
270.0
 51
0.0
1001
ACAD
1000
RTMaterial
1005
0
  0
ARC
  8
F01_OUT
  5
2CF
 10
103.341769
 20
150.123609
 30
0.0
 40
0.3
 50
90.0
 51
180.0
1001
ACAD
1000
RTMaterial
1005
0
  0
ARC
  8
F01_OUT
  5
2D0
 10
94.991769
 20
150.123609
 30
0.0
 40
0.3
 50
0.0
 51
90.0
1001
ACAD
1000
RTMaterial
1005
0
  0
ARC
  8
F01_OUT
  5
2D1
 10
120.741769
 20
150.123609
 30
0.0
 40
0.3
 50
90.0
 51
180.0
1001
ACAD
1000
RTMaterial
1005
0
  0
ARC
  8
F01_OUT
  5
2D2
 10
121.091769
 20
150.123609
 30
0.0
 40
0.3
 50
0.0
 51
90.0
1001
ACAD
1000
RTMaterial
1005
0
  0
ARC
  8
F01_OUT
  5
2D3
 10
94.641769
 20
150.123609
 30
0.0
 40
0.3
 50
90.0
 51
180.0
1001
ACAD
1000
RTMaterial
1005
0
  0
ARC
  8
F01_OUT
  5
2D4
 10
112.391769
 20
150.123609
 30
0.0
 40
0.3
 50
0.0
 51
90.0
1001
ACAD
1000
RTMaterial
1005
0
  0
ARC
  8
F01_OUT
  5
2D5
 10
103.691769
 20
150.123609
 30
0.0
 40
0.3
 50
0.0
 51
90.0
1001
ACAD
1000
RTMaterial
1005
0
  0
ARC
  8
F01_OUT
  5
2D6
 10
112.041769
 20
150.123609
 30
0.0
 40
0.3
 50
90.0
 51
180.0
1001
ACAD
1000
RTMaterial
1005
0
  0
ARC
  8
F01_OUT
  5
2D7
 10
129.441769
 20
150.123609
 30
0.0
 40
0.3
 50
90.0
 51
180.0
1001
ACAD
1000
RTMaterial
1005
0
  0
ARC
  8
F01_OUT
  5
2D8
 10
130.066769
 20
150.123609
 30
0.0
 40
0.3
 50
0.0
 51
90.0
1001
ACAD
1000
RTMaterial
1005
0
  0
ARC
  8
F01_OUT
  5
2D9
 10
94.641769
 20
102.723609
 30
0.0
 40
0.3
 50
180.0
 51
270.0
1001
ACAD
1000
RTMaterial
1005
0
  0
ARC
  8
F01_OUT
  5
2DA
 10
86.291769
 20
102.723609
 30
0.0
 40
0.3
 50
270.0
 51
0.0
1001
ACAD
1000
RTMaterial
1005
0
  0
ARC
  8
F01_OUT
  5
2DB
 10
85.666769
 20
102.723609
 30
0.0
 40
0.3
 50
180.0
 51
270.0
1001
ACAD
1000
RTMaterial
1005
0
  0
ARC
  8
F01_OUT
  5
2DC
 10
103.691769
 20
102.723609
 30
0.0
 40
0.3
 50
270.0
 51
0.0
1001
ACAD
1000
RTMaterial
1005
0
  0
ARC
  8
F01_OUT
  5
2DD
 10
120.741769
 20
102.723609
 30
0.0
 40
0.3
 50
180.0
 51
270.0
1001
ACAD
1000
RTMaterial
1005
0
  0
ARC
  8
F01_OUT
  5
2DE
 10
121.091769
 20
102.723609
 30
0.0
 40
0.3
 50
270.0
 51
0.0
1001
ACAD
1000
RTMaterial
1005
0
  0
ARC
  8
F01_OUT
  5
2DF
 10
103.341769
 20
102.723609
 30
0.0
 40
0.3
 50
180.0
 51
270.0
1001
ACAD
1000
RTMaterial
1005
0
  0
ARC
  8
F01_OUT
  5
2E0
 10
129.441769
 20
102.723609
 30
0.0
 40
0.3
 50
180.0
 51
270.0
1001
ACAD
1000
RTMaterial
1005
0
  0
ARC
  8
F01_OUT
  5
2E1
 10
130.066769
 20
102.723609
 30
0.0
 40
0.3
 50
270.0
 51
0.0
1001
ACAD
1000
RTMaterial
1005
0
  0
LINE
  8
F01_OUT
  5
2E2
 10
92.216769
 20
137.923609
 30
0.0
 11
92.275378
 21
137.923609
 31
0.0
1001
ACAD
1000
RTMaterial
1005
0
  0
LINE
  8
F01_OUT
  5
2E3
 10
88.716769
 20
137.923609
 30
0.0
 11
92.216769
 21
137.923609
 31
0.0
1001
ACAD
1000
RTMaterial
1005
0
  0
LINE
  8
F01_OUT
  5
2E4
 10
87.716769
 20
137.923609
 30
0.0
 11
88.216769
 21
137.923609
 31
0.0
1001
ACAD
1000
RTMaterial
1005
0
  0
LINE
  8
F01_OUT
  5
2E5
 10
88.216769
 20
137.923609
 30
0.0
 11
88.716769
 21
137.923609
 31
0.0
1001
ACAD
1000
RTMaterial
1005
0
  0
LINE
  8
F01_OUT
  5
2E6
 10
86.591769
 20
137.923609
 30
0.0
 11
87.716769
 21
137.923609
 31
0.0
1001
ACAD
1000
RTMaterial
1005
0
  0
LINE
  8
F01_OUT
  5
2E7
 10
85.366769
 20
137.381867
 30
0.0
 11
85.366769
 21
137.923609
 31
0.0
1001
ACAD
1000
RTMaterial
1005
0
  0
LINE
  8
F01_OUT
  5
2E8
 10
123.666769
 20
137.923609
 30
0.0
 11
126.866769
 21
137.923609
 31
0.0
1001
ACAD
1000
RTMaterial
1005
0
  0
LINE
  8
F01_OUT
  5
2E9
 10
128.227149
 20
137.923609
 30
0.0
 11
129.141769
 21
137.923609
 31
0.0
1001
ACAD
1000
RTMaterial
1005
0
  0
LINE
  8
F01_OUT
  5
2EA
 10
85.366769
 20
145.823609
 30
0.0
 11
85.366769
 21
137.923609
 31
0.0
1001
ACAD
1000
RTMaterial
1005
0
  0
LINE
  8
F01_OUT
  5
2EB
 10
130.366769
 20
145.823609
 30
0.0
 11
130.366769
 21
137.923609
 31
0.0
1001
ACAD
1000
RTMaterial
1005
0
  0
LINE
  8
F01_OUT
  5
2EC
 10
130.366769
 20
137.923609
 30
0.0
 11
130.366769
 21
135.923609
 31
0.0
1001
ACAD
1000
RTMaterial
1005
0
  0
LINE
  8
F01_OUT
  5
2ED
 10
130.366769
 20
135.423609
 30
0.0
 11
130.366769
 21
135.923609
 31
0.0
1001
ACAD
1000
RTMaterial
1005
0
  0
LINE
  8
F01_OUT
  5
2EE
 10
130.366769
 20
135.423609
 30
0.0
 11
130.366769
 21
135.323609
 31
0.0
1001
ACAD
1000
RTMaterial
1005
0
  0
LINE
  8
F01_OUT
  5
2EF
 10
85.666769
 20
150.423609
 30
0.0
 11
86.291769
 21
150.423609
 31
0.0
1001
ACAD
1000
RTMaterial
1005
0
  0
LINE
  8
F01_OUT
  5
2F0
 10
85.366769
 20
150.123609
 30
0.0
 11
85.366769
 21
145.823609
 31
0.0
1001
ACAD
1000
RTMaterial
1005
0
  0
LINE
  8
F01_OUT
  5
2F1
 10
86.591769
 20
150.123609
 30
0.0
 11
86.591769
 21
145.823609
 31
0.0
1001
ACAD
1000
RTMaterial
1005
0
  0
LINE
  8
F01_OUT
  5
2F2
 10
112.391769
 20
102.423609
 30
0.0
 11
112.041769
 21
102.423609
 31
0.0
1001
ACAD
1000
RTMaterial
1005
0
  0
LINE
  8
F01_OUT
  5
2F3
 10
94.991769
 20
102.423609
 30
0.0
 11
94.641769
 21
102.423609
 31
0.0
1001
ACAD
1000
RTMaterial
1005
0
  0
LINE
  8
F01_OUT
  5
2F4
 10
92.216769
 20
114.923609
 30
0.0
 11
88.716769
 21
114.923609
 31
0.0
1001
ACAD
1000
RTMaterial
1005
0
  0
LINE
  8
F01_OUT
  5
2F5
 10
87.716769
 20
114.923609
 30
0.0
 11
86.591769
 21
114.923609
 31
0.0
1001
ACAD
1000
RTMaterial
1005
0
  0
LINE
  8
F01_OUT
  5
2F6
 10
88.716769
 20
114.923609
 30
0.0
 11
88.216769
 21
114.923609
 31
0.0
1001
ACAD
1000
RTMaterial
1005
0
  0
LINE
  8
F01_OUT
  5
2F7
 10
88.216769
 20
114.923609
 30
0.0
 11
87.716769
 21
114.923609
 31
0.0
1001
ACAD
1000
RTMaterial
1005
0
  0
LINE
  8
F01_OUT
  5
2F8
 10
92.275378
 20
114.923609
 30
0.0
 11
92.216769
 21
114.923609
 31
0.0
1001
ACAD
1000
RTMaterial
1005
0
  0
LINE
  8
F01_OUT
  5
2F9
 10
126.866769
 20
114.923609
 30
0.0
 11
123.666769
 21
114.923609
 31
0.0
1001
ACAD
1000
RTMaterial
1005
0
  0
LINE
  8
F01_OUT
  5
2FA
 10
129.141769
 20
114.923609
 30
0.0
 11
128.227149
 21
114.923609
 31
0.0
1001
ACAD
1000
RTMaterial
1005
0
  0
LINE
  8
F01_OUT
  5
2FB
 10
130.366769
 20
107.023609
 30
0.0
 11
130.366769
 21
114.923609
 31
0.0
1001
ACAD
1000
RTMaterial
1005
0
  0
LINE
  8
F01_OUT
  5
2FC
 10
130.366769
 20
114.923609
 30
0.0
 11
130.366769
 21
116.923609
 31
0.0
1001
ACAD
1000
RTMaterial
1005
0
  0
LINE
  8
F01_OUT
  5
2FD
 10
130.366769
 20
117.423609
 30
0.0
 11
130.366769
 21
116.923609
 31
0.0
1001
ACAD
1000
RTMaterial
1005
0
  0
LINE
  8
F01_OUT
  5
2FE
 10
94.641769
 20
150.423609
 30
0.0
 11
94.991769
 21
150.423609
 31
0.0
1001
ACAD
1000
RTMaterial
1005
0
  0
LINE
  8
F01_OUT
  5
2FF
 10
103.341769
 20
150.423609
 30
0.0
 11
103.691769
 21
150.423609
 31
0.0
1001
ACAD
1000
RTMaterial
1005
0
  0
LINE
  8
F01_OUT
  5
300
 10
120.741769
 20
150.423609
 30
0.0
 11
121.091769
 21
150.423609
 31
0.0
1001
ACAD
1000
RTMaterial
1005
0
  0
LINE
  8
F01_OUT
  5
301
 10
112.041769
 20
150.423609
 30
0.0
 11
112.391769
 21
150.423609
 31
0.0
1001
ACAD
1000
RTMaterial
1005
0
  0
LINE
  8
F01_OUT
  5
302
 10
120.441769
 20
150.123609
 30
0.0
 11
120.441769
 21
146.923609
 31
0.0
1001
ACAD
1000
RTMaterial
1005
0
  0
LINE
  8
F01_OUT
  5
303
 10
121.391769
 20
150.123609
 30
0.0
 11
121.391769
 21
146.923609
 31
0.0
1001
ACAD
1000
RTMaterial
1005
0
  0
LINE
  8
F01_OUT
  5
304
 10
94.341769
 20
150.123609
 30
0.0
 11
94.341769
 21
146.923609
 31
0.0
1001
ACAD
1000
RTMaterial
1005
0
  0
LINE
  8
F01_OUT
  5
305
 10
103.041769
 20
150.123609
 30
0.0
 11
103.041769
 21
146.923609
 31
0.0
1001
ACAD
1000
RTMaterial
1005
0
  0
LINE
  8
F01_OUT
  5
306
 10
95.291769
 20
150.123609
 30
0.0
 11
95.291769
 21
146.923609
 31
0.0
1001
ACAD
1000
RTMaterial
1005
0
  0
LINE
  8
F01_OUT
  5
307
 10
103.991769
 20
150.123609
 30
0.0
 11
103.991769
 21
146.923609
 31
0.0
1001
ACAD
1000
RTMaterial
1005
0
  0
LINE
  8
F01_OUT
  5
308
 10
111.741769
 20
150.123609
 30
0.0
 11
111.741769
 21
146.923609
 31
0.0
1001
ACAD
1000
RTMaterial
1005
0
  0
LINE
  8
F01_OUT
  5
309
 10
112.691769
 20
150.123609
 30
0.0
 11
112.691769
 21
146.923609
 31
0.0
1001
ACAD
1000
RTMaterial
1005
0
  0
LINE
  8
F01_OUT
  5
30A
 10
129.141769
 20
145.823609
 30
0.0
 11
129.141769
 21
150.123609
 31
0.0
1001
ACAD
1000
RTMaterial
1005
0
  0
LINE
  8
F01_OUT
  5
30B
 10
130.366769
 20
145.823609
 30
0.0
 11
130.366769
 21
150.123609
 31
0.0
1001
ACAD
1000
RTMaterial
1005
0
  0
LINE
  8
F01_OUT
  5
30C
 10
130.066769
 20
150.423609
 30
0.0
 11
129.441769
 21
150.423609
 31
0.0
1001
ACAD
1000
RTMaterial
1005
0
  0
LINE
  8
F01_OUT
  5
30D
 10
130.366769
 20
135.323609
 30
0.0
 11
130.366769
 21
117.523609
 31
0.0
1001
ACAD
1000
RTMaterial
1005
0
  0
LINE
  8
F01_OUT
  5
30E
 10
130.366769
 20
117.523609
 30
0.0
 11
130.366769
 21
117.423609
 31
0.0
1001
ACAD
1000
RTMaterial
1005
0
  0
LINE
  8
F01_OUT
  5
30F
 10
85.366769
 20
114.923609
 30
0.0
 11
85.366769
 21
115.465351
 31
0.0
1001
ACAD
1000
RTMaterial
1005
0
  0
LINE
  8
F01_OUT
  5
310
 10
111.741769
 20
102.723609
 30
0.0
 11
111.741769
 21
105.923609
 31
0.0
1001
ACAD
1000
RTMaterial
1005
0
  0
LINE
  8
F01_OUT
  5
311
 10
112.691769
 20
102.723609
 30
0.0
 11
112.691769
 21
105.923609
 31
0.0
1001
ACAD
1000
RTMaterial
1005
0
  0
LINE
  8
F01_OUT
  5
312
 10
85.366769
 20
107.023609
 30
0.0
 11
85.366769
 21
114.923609
 31
0.0
1001
ACAD
1000
RTMaterial
1005
0
  0
LINE
  8
F01_OUT
  5
313
 10
86.591769
 20
106.923609
 30
0.0
 11
86.591769
 21
107.023609
 31
0.0
1001
ACAD
1000
RTMaterial
1005
0
  0
LINE
  8
F01_OUT
  5
314
 10
129.141769
 20
107.023609
 30
0.0
 11
129.141769
 21
105.923609
 31
0.0
1001
ACAD
1000
RTMaterial
1005
0
  0
LINE
  8
F01_OUT
  5
315
 10
94.341769
 20
102.723609
 30
0.0
 11
94.341769
 21
105.923609
 31
0.0
1001
ACAD
1000
RTMaterial
1005
0
  0
LINE
  8
F01_OUT
  5
316
 10
103.691769
 20
102.423609
 30
0.0
 11
103.341769
 21
102.423609
 31
0.0
1001
ACAD
1000
RTMaterial
1005
0
  0
LINE
  8
F01_OUT
  5
317
 10
86.591769
 20
106.923609
 30
0.0
 11
86.591769
 21
102.723609
 31
0.0
1001
ACAD
1000
RTMaterial
1005
0
  0
LINE
  8
F01_OUT
  5
318
 10
85.366769
 20
107.023609
 30
0.0
 11
85.366769
 21
102.723609
 31
0.0
1001
ACAD
1000
RTMaterial
1005
0
  0
LINE
  8
F01_OUT
  5
319
 10
85.666769
 20
102.423609
 30
0.0
 11
86.291769
 21
102.423609
 31
0.0
1001
ACAD
1000
RTMaterial
1005
0
  0
LINE
  8
F01_OUT
  5
31A
 10
121.091769
 20
102.423609
 30
0.0
 11
120.866769
 21
102.423609
 31
0.0
1001
ACAD
1000
RTMaterial
1005
0
  0
LINE
  8
F01_OUT
  5
31B
 10
120.441769
 20
102.723609
 30
0.0
 11
120.441769
 21
105.923609
 31
0.0
1001
ACAD
1000
RTMaterial
1005
0
  0
LINE
  8
F01_OUT
  5
31C
 10
120.866769
 20
102.423609
 30
0.0
 11
120.741769
 21
102.423609
 31
0.0
1001
ACAD
1000
RTMaterial
1005
0
  0
LINE
  8
F01_OUT
  5
31D
 10
121.391769
 20
102.723609
 30
0.0
 11
121.391769
 21
105.923609
 31
0.0
1001
ACAD
1000
RTMaterial
1005
0
  0
LINE
  8
F01_OUT
  5
31E
 10
129.141769
 20
105.923609
 30
0.0
 11
129.141769
 21
102.723609
 31
0.0
1001
ACAD
1000
RTMaterial
1005
0
  0
LINE
  8
F01_OUT
  5
31F
 10
103.041769
 20
102.723609
 30
0.0
 11
103.041769
 21
105.923609
 31
0.0
1001
ACAD
1000
RTMaterial
1005
0
  0
LINE
  8
F01_OUT
  5
320
 10
95.291769
 20
102.723609
 30
0.0
 11
95.291769
 21
105.923609
 31
0.0
1001
ACAD
1000
RTMaterial
1005
0
  0
LINE
  8
F01_OUT
  5
321
 10
103.991769
 20
102.723609
 30
0.0
 11
103.991769
 21
105.923609
 31
0.0
1001
ACAD
1000
RTMaterial
1005
0
  0
LINE
  8
F01_OUT
  5
322
 10
130.066769
 20
102.423609
 30
0.0
 11
129.441769
 21
102.423609
 31
0.0
1001
ACAD
1000
RTMaterial
1005
0
  0
LINE
  8
F01_OUT
  5
323
 10
130.366769
 20
102.723609
 30
0.0
 11
130.366769
 21
107.023609
 31
0.0
1001
ACAD
1000
RTMaterial
1005
0
  0
LINE
  8
F01_OUT
  5
324
 10
129.141769
 20
106.923609
 30
0.0
 11
128.966769
 21
106.923609
 31
0.0
1001
ACAD
1000
RTMaterial
1005
0
  0
LINE
  8
F01_OUT
  5
325
 10
128.966769
 20
105.923609
 30
0.0
 11
129.141769
 21
105.923609
 31
0.0
1001
ACAD
1000
RTMaterial
1005
0
  0
LINE
  8
F01_OUT
  5
326
 10
86.766769
 20
106.923609
 30
0.0
 11
86.591769
 21
106.923609
 31
0.0
1001
ACAD
1000
RTMaterial
1005
0
  0
LINE
  8
F01_OUT
  5
327
 10
86.766769
 20
107.023609
 30
0.0
 11
85.366769
 21
107.023609
 31
0.0
1001
ACAD
1000
RTMaterial
1005
0
  0
LINE
  8
F01_OUT
  5
328
 10
94.666769
 20
105.923609
 30
0.0
 11
94.666769
 21
114.923609
 31
0.0
1001
ACAD
1000
RTMaterial
1005
0
  0
LINE
  8
F01_OUT
  5
329
 10
103.366769
 20
105.923609
 30
0.0
 11
103.366769
 21
114.923609
 31
0.0
1001
ACAD
1000
RTMaterial
1005
0
  0
LINE
  8
F01_OUT
  5
32A
 10
94.966769
 20
105.923609
 30
0.0
 11
94.966769
 21
114.923609
 31
0.0
1001
ACAD
1000
RTMaterial
1005
0
  0
LINE
  8
F01_OUT
  5
32B
 10
112.066769
 20
105.923609
 30
0.0
 11
112.066769
 21
114.923609
 31
0.0
1001
ACAD
1000
RTMaterial
1005
0
  0
LINE
  8
F01_OUT
  5
32C
 10
103.666769
 20
105.923609
 30
0.0
 11
103.666769
 21
114.923609
 31
0.0
1001
ACAD
1000
RTMaterial
1005
0
  0
LINE
  8
F01_OUT
  5
32D
 10
120.766769
 20
105.923609
 30
0.0
 11
120.766769
 21
114.923609
 31
0.0
1001
ACAD
1000
RTMaterial
1005
0
  0
LINE
  8
F01_OUT
  5
32E
 10
112.366769
 20
105.923609
 30
0.0
 11
112.366769
 21
114.923609
 31
0.0
1001
ACAD
1000
RTMaterial
1005
0
  0
LINE
  8
F01_OUT
  5
32F
 10
89.020725
 20
105.923609
 30
0.0
 11
88.52042
 21
105.923609
 31
0.0
1001
ACAD
1000
RTMaterial
1005
0
  0
LINE
  8
F01_OUT
  5
330
 10
94.666769
 20
105.923609
 30
0.0
 11
89.020725
 21
105.923609
 31
0.0
1001
ACAD
1000
RTMaterial
1005
0
  0
LINE
  8
F01_OUT
  5
331
 10
121.066769
 20
105.923609
 30
0.0
 11
121.066769
 21
114.923609
 31
0.0
1001
ACAD
1000
RTMaterial
1005
0
  0
LINE
  8
F01_OUT
  5
332
 10
85.366769
 20
107.023609
 30
0.0
 11
85.366769
 21
114.923609
 31
0.0
1001
ACAD
1000
RTMaterial
1005
0
  0
LINE
  8
F01_OUT
  5
333
 10
120.766769
 20
105.923609
 30
0.0
 11
120.366769
 21
105.923609
 31
0.0
1001
ACAD
1000
RTMaterial
1005
0
  0
LINE
  8
F01_OUT
  5
334
 10
120.366769
 20
105.923609
 30
0.0
 11
115.316769
 21
105.923609
 31
0.0
1001
ACAD
1000
RTMaterial
1005
0
  0
LINE
  8
F01_OUT
  5
335
 10
115.316769
 20
105.923609
 30
0.0
 11
112.366769
 21
105.923609
 31
0.0
1001
ACAD
1000
RTMaterial
1005
0
  0
LINE
  8
F01_OUT
  5
336
 10
120.766769
 20
105.923609
 30
0.0
 11
121.066769
 21
105.923609
 31
0.0
1001
ACAD
1000
RTMaterial
1005
0
  0
LINE
  8
F01_OUT
  5
337
 10
86.766769
 20
106.923609
 30
0.0
 11
86.766769
 21
107.023609
 31
0.0
1001
ACAD
1000
RTMaterial
1005
0
  0
LINE
  8
F01_OUT
  5
338
 10
86.766769
 20
105.923609
 30
0.0
 11
86.766769
 21
106.923609
 31
0.0
1001
ACAD
1000
RTMaterial
1005
0
  0
LINE
  8
F01_OUT
  5
339
 10
128.966769
 20
106.923609
 30
0.0
 11
128.966769
 21
107.023609
 31
0.0
1001
ACAD
1000
RTMaterial
1005
0
  0
LINE
  8
F01_OUT
  5
33A
 10
128.966769
 20
105.923609
 30
0.0
 11
128.966769
 21
106.923609
 31
0.0
1001
ACAD
1000
RTMaterial
1005
0
  0
LINE
  8
F01_OUT
  5
33B
 10
94.666769
 20
105.923609
 30
0.0
 11
94.966769
 21
105.923609
 31
0.0
1001
ACAD
1000
RTMaterial
1005
0
  0
LINE
  8
F01_OUT
  5
33C
 10
95.366769
 20
105.923609
 30
0.0
 11
94.966769
 21
105.923609
 31
0.0
1001
ACAD
1000
RTMaterial
1005
0
  0
LINE
  8
F01_OUT
  5
33D
 10
100.416769
 20
105.923609
 30
0.0
 11
95.366769
 21
105.923609
 31
0.0
1001
ACAD
1000
RTMaterial
1005
0
  0
LINE
  8
F01_OUT
  5
33E
 10
103.366769
 20
105.923609
 30
0.0
 11
103.666769
 21
105.923609
 31
0.0
1001
ACAD
1000
RTMaterial
1005
0
  0
LINE
  8
F01_OUT
  5
33F
 10
103.366769
 20
105.923609
 30
0.0
 11
100.416769
 21
105.923609
 31
0.0
1001
ACAD
1000
RTMaterial
1005
0
  0
LINE
  8
F01_OUT
  5
340
 10
112.066769
 20
105.923609
 30
0.0
 11
112.366769
 21
105.923609
 31
0.0
1001
ACAD
1000
RTMaterial
1005
0
  0
LINE
  8
F01_OUT
  5
341
 10
88.52042
 20
105.923609
 30
0.0
 11
86.766769
 21
105.923609
 31
0.0
1001
ACAD
1000
RTMaterial
1005
0
  0
LINE
  8
F01_OUT
  5
342
 10
128.966769
 20
105.923609
 30
0.0
 11
121.066769
 21
105.923609
 31
0.0
1001
ACAD
1000
RTMaterial
1005
0
  0
LINE
  8
F01_OUT
  5
343
 10
112.066769
 20
105.923609
 30
0.0
 11
103.666769
 21
105.923609
 31
0.0
1001
ACAD
1000
RTMaterial
1005
0
  0
LINE
  8
F01_OUT
  5
344
 10
86.591769
 20
105.923609
 30
0.0
 11
86.766769
 21
105.923609
 31
0.0
1001
ACAD
1000
RTMaterial
1005
0
  0
LINE
  8
F01_OUT
  5
345
 10
86.466769
 20
114.923609
 30
0.0
 11
85.366769
 21
114.923609
 31
0.0
1001
ACAD
1000
RTMaterial
1005
0
  0
LINE
  8
F01_OUT
  5
346
 10
130.366769
 20
114.923609
 30
0.0
 11
129.266769
 21
114.923609
 31
0.0
1001
ACAD
1000
RTMaterial
1005
0
  0
LINE
  8
F01_OUT
  5
347
 10
130.366769
 20
107.023609
 30
0.0
 11
130.366769
 21
114.923609
 31
0.0
1001
ACAD
1000
RTMaterial
1005
0
  0
LINE
  8
F01_OUT
  5
348
 10
130.366769
 20
107.023609
 30
0.0
 11
128.966769
 21
107.023609
 31
0.0
1001
ACAD
1000
RTMaterial
1005
0
  0
LINE
  8
F01_OUT
  5
349
 10
129.266769
 20
114.923609
 30
0.0
 11
129.141769
 21
114.923609
 31
0.0
1001
ACAD
1000
RTMaterial
1005
0
  0
LINE
  8
F01_OUT
  5
34A
 10
129.141769
 20
114.923609
 30
0.0
 11
128.227149
 21
114.923609
 31
0.0
1001
ACAD
1000
RTMaterial
1005
0
  0
LINE
  8
F01_OUT
  5
34B
 10
128.227149
 20
114.923609
 30
0.0
 11
126.866769
 21
114.923609
 31
0.0
1001
ACAD
1000
RTMaterial
1005
0
  0
LINE
  8
F01_OUT
  5
34C
 10
126.866769
 20
114.923609
 30
0.0
 11
123.666769
 21
114.923609
 31
0.0
1001
ACAD
1000
RTMaterial
1005
0
  0
LINE
  8
F01_OUT
  5
34D
 10
112.066769
 20
114.923609
 30
0.0
 11
110.616769
 21
114.923609
 31
0.0
1001
ACAD
1000
RTMaterial
1005
0
  0
LINE
  8
F01_OUT
  5
34E
 10
112.066769
 20
114.923609
 30
0.0
 11
112.366769
 21
114.923609
 31
0.0
1001
ACAD
1000
RTMaterial
1005
0
  0
LINE
  8
F01_OUT
  5
34F
 10
113.816769
 20
114.923609
 30
0.0
 11
112.366769
 21
114.923609
 31
0.0
1001
ACAD
1000
RTMaterial
1005
0
  0
LINE
  8
F01_OUT
  5
350
 10
110.616769
 20
114.923609
 30
0.0
 11
110.116769
 21
114.923609
 31
0.0
1001
ACAD
1000
RTMaterial
1005
0
  0
LINE
  8
F01_OUT
  5
351
 10
105.616769
 20
114.923609
 30
0.0
 11
105.116769
 21
114.923609
 31
0.0
1001
ACAD
1000
RTMaterial
1005
0
  0
LINE
  8
F01_OUT
  5
352
 10
106.116769
 20
114.923609
 30
0.0
 11
105.616769
 21
114.923609
 31
0.0
1001
ACAD
1000
RTMaterial
1005
0
  0
LINE
  8
F01_OUT
  5
353
 10
110.116769
 20
114.923609
 30
0.0
 11
109.616769
 21
114.923609
 31
0.0
1001
ACAD
1000
RTMaterial
1005
0
  0
LINE
  8
F01_OUT
  5
354
 10
114.816769
 20
114.923609
 30
0.0
 11
114.316769
 21
114.923609
 31
0.0
1001
ACAD
1000
RTMaterial
1005
0
  0
LINE
  8
F01_OUT
  5
355
 10
116.566769
 20
114.923609
 30
0.0
 11
114.816769
 21
114.923609
 31
0.0
1001
ACAD
1000
RTMaterial
1005
0
  0
LINE
  8
F01_OUT
  5
356
 10
114.316769
 20
114.923609
 30
0.0
 11
113.816769
 21
114.923609
 31
0.0
1001
ACAD
1000
RTMaterial
1005
0
  0
LINE
  8
F01_OUT
  5
357
 10
118.316769
 20
114.923609
 30
0.0
 11
116.566769
 21
114.923609
 31
0.0
1001
ACAD
1000
RTMaterial
1005
0
  0
LINE
  8
F01_OUT
  5
358
 10
118.816769
 20
114.923609
 30
0.0
 11
118.566769
 21
114.923609
 31
0.0
1001
ACAD
1000
RTMaterial
1005
0
  0
LINE
  8
F01_OUT
  5
359
 10
119.316769
 20
114.923609
 30
0.0
 11
118.816769
 21
114.923609
 31
0.0
1001
ACAD
1000
RTMaterial
1005
0
  0
LINE
  8
F01_OUT
  5
35A
 10
118.566769
 20
114.923609
 30
0.0
 11
118.316769
 21
114.923609
 31
0.0
1001
ACAD
1000
RTMaterial
1005
0
  0
LINE
  8
F01_OUT
  5
35B
 10
120.766769
 20
114.923609
 30
0.0
 11
121.066769
 21
114.923609
 31
0.0
1001
ACAD
1000
RTMaterial
1005
0
  0
LINE
  8
F01_OUT
  5
35C
 10
120.766769
 20
114.923609
 30
0.0
 11
119.316769
 21
114.923609
 31
0.0
1001
ACAD
1000
RTMaterial
1005
0
  0
LINE
  8
F01_OUT
  5
35D
 10
123.666769
 20
114.923609
 30
0.0
 11
121.066769
 21
114.923609
 31
0.0
1001
ACAD
1000
RTMaterial
1005
0
  0
LINE
  8
F01_OUT
  5
35E
 10
109.616769
 20
114.923609
 30
0.0
 11
106.116769
 21
114.923609
 31
0.0
1001
ACAD
1000
RTMaterial
1005
0
  0
LINE
  8
F01_OUT
  5
35F
 10
96.916769
 20
114.923609
 30
0.0
 11
96.416769
 21
114.923609
 31
0.0
1001
ACAD
1000
RTMaterial
1005
0
  0
LINE
  8
F01_OUT
  5
360
 10
94.666769
 20
114.923609
 30
0.0
 11
94.966769
 21
114.923609
 31
0.0
1001
ACAD
1000
RTMaterial
1005
0
  0
LINE
  8
F01_OUT
  5
361
 10
96.416769
 20
114.923609
 30
0.0
 11
94.966769
 21
114.923609
 31
0.0
1001
ACAD
1000
RTMaterial
1005
0
  0
LINE
  8
F01_OUT
  5
362
 10
94.666769
 20
114.923609
 30
0.0
 11
93.216769
 21
114.923609
 31
0.0
1001
ACAD
1000
RTMaterial
1005
0
  0
LINE
  8
F01_OUT
  5
363
 10
93.216769
 20
114.923609
 30
0.0
 11
92.716769
 21
114.923609
 31
0.0
1001
ACAD
1000
RTMaterial
1005
0
  0
LINE
  8
F01_OUT
  5
364
 10
92.716769
 20
114.923609
 30
0.0
 11
92.275378
 21
114.923609
 31
0.0
1001
ACAD
1000
RTMaterial
1005
0
  0
LINE
  8
F01_OUT
  5
365
 10
92.275378
 20
114.923609
 30
0.0
 11
92.216769
 21
114.923609
 31
0.0
1001
ACAD
1000
RTMaterial
1005
0
  0
LINE
  8
F01_OUT
  5
366
 10
103.366769
 20
114.923609
 30
0.0
 11
103.666769
 21
114.923609
 31
0.0
1001
ACAD
1000
RTMaterial
1005
0
  0
LINE
  8
F01_OUT
  5
367
 10
101.916769
 20
114.923609
 30
0.0
 11
101.416769
 21
114.923609
 31
0.0
1001
ACAD
1000
RTMaterial
1005
0
  0
LINE
  8
F01_OUT
  5
368
 10
103.366769
 20
114.923609
 30
0.0
 11
101.916769
 21
114.923609
 31
0.0
1001
ACAD
1000
RTMaterial
1005
0
  0
LINE
  8
F01_OUT
  5
369
 10
101.416769
 20
114.923609
 30
0.0
 11
100.916769
 21
114.923609
 31
0.0
1001
ACAD
1000
RTMaterial
1005
0
  0
LINE
  8
F01_OUT
  5
36A
 10
88.216769
 20
114.923609
 30
0.0
 11
87.716769
 21
114.923609
 31
0.0
1001
ACAD
1000
RTMaterial
1005
0
  0
LINE
  8
F01_OUT
  5
36B
 10
88.716769
 20
114.923609
 30
0.0
 11
88.216769
 21
114.923609
 31
0.0
1001
ACAD
1000
RTMaterial
1005
0
  0
LINE
  8
F01_OUT
  5
36C
 10
86.591769
 20
114.923609
 30
0.0
 11
86.466769
 21
114.923609
 31
0.0
1001
ACAD
1000
RTMaterial
1005
0
  0
LINE
  8
F01_OUT
  5
36D
 10
87.716769
 20
114.923609
 30
0.0
 11
86.591769
 21
114.923609
 31
0.0
1001
ACAD
1000
RTMaterial
1005
0
  0
LINE
  8
F01_OUT
  5
36E
 10
97.166769
 20
114.923609
 30
0.0
 11
96.916769
 21
114.923609
 31
0.0
1001
ACAD
1000
RTMaterial
1005
0
  0
LINE
  8
F01_OUT
  5
36F
 10
100.916769
 20
114.923609
 30
0.0
 11
99.166769
 21
114.923609
 31
0.0
1001
ACAD
1000
RTMaterial
1005
0
  0
LINE
  8
F01_OUT
  5
370
 10
97.416769
 20
114.923609
 30
0.0
 11
97.166769
 21
114.923609
 31
0.0
1001
ACAD
1000
RTMaterial
1005
0
  0
LINE
  8
F01_OUT
  5
371
 10
99.166769
 20
114.923609
 30
0.0
 11
97.416769
 21
114.923609
 31
0.0
1001
ACAD
1000
RTMaterial
1005
0
  0
LINE
  8
F01_OUT
  5
372
 10
105.116769
 20
114.923609
 30
0.0
 11
103.666769
 21
114.923609
 31
0.0
1001
ACAD
1000
RTMaterial
1005
0
  0
LINE
  8
F01_OUT
  5
373
 10
92.216769
 20
114.923609
 30
0.0
 11
88.716769
 21
114.923609
 31
0.0
1001
ACAD
1000
RTMaterial
1005
0
  0
LINE
  8
F01_OUT
  5
374
 10
120.866769
 20
102.423609
 30
0.0
 11
120.741769
 21
102.423609
 31
0.0
1001
ACAD
1000
RTMaterial
1005
0
  0
LINE
  8
F01_OUT
  5
375
 10
121.091769
 20
102.423609
 30
0.0
 11
120.866769
 21
102.423609
 31
0.0
1001
ACAD
1000
RTMaterial
1005
0
  0
LINE
  8
F01_OUT
  5
376
 10
121.191769
 20
102.423609
 30
0.0
 11
121.091769
 21
102.423609
 31
0.0
1001
ACAD
1000
RTMaterial
1005
0
  0
LINE
  8
F01_OUT
  5
377
 10
103.691769
 20
102.423609
 30
0.0
 11
103.341769
 21
102.423609
 31
0.0
1001
ACAD
1000
RTMaterial
1005
0
  0
LINE
  8
F01_OUT
  5
378
 10
100.416769
 20
105.573609
 30
0.0
 11
100.416769
 21
105.923609
 31
0.0
1001
ACAD
1000
RTMaterial
1005
0
  0
LINE
  8
F01_OUT
  5
379
 10
112.041769
 20
150.423609
 30
0.0
 11
112.391769
 21
150.423609
 31
0.0
1001
ACAD
1000
RTMaterial
1005
0
  0
LINE
  8
F01_OUT
  5
37A
 10
110.979155
 20
150.423609
 30
0.0
 11
112.041769
 21
150.423609
 31
0.0
1001
ACAD
1000
RTMaterial
1005
0
  0
LINE
  8
F01_OUT
  5
37B
 10
120.741769
 20
150.423609
 30
0.0
 11
121.091769
 21
150.423609
 31
0.0
1001
ACAD
1000
RTMaterial
1005
0
  0
LINE
  8
F01_OUT
  5
37C
 10
112.391769
 20
150.423609
 30
0.0
 11
120.741769
 21
150.423609
 31
0.0
1001
ACAD
1000
RTMaterial
1005
0
  0
LINE
  8
F01_OUT
  5
37D
 10
103.341769
 20
150.423609
 30
0.0
 11
103.691769
 21
150.423609
 31
0.0
1001
ACAD
1000
RTMaterial
1005
0
  0
LINE
  8
F01_OUT
  5
37E
 10
94.641769
 20
150.423609
 30
0.0
 11
94.991769
 21
150.423609
 31
0.0
1001
ACAD
1000
RTMaterial
1005
0
  0
LINE
  8
F01_OUT
  5
37F
 10
106.866769
 20
146.923609
 30
0.0
 11
106.866769
 21
147.273609
 31
0.0
1001
ACAD
1000
RTMaterial
1005
0
  0
LINE
  8
F01_OUT
  5
380
 10
108.866769
 20
147.273609
 30
0.0
 11
108.866769
 21
146.923609
 31
0.0
1001
ACAD
1000
RTMaterial
1005
0
  0
LINE
  8
F01_OUT
  5
381
 10
115.316769
 20
148.923609
 30
0.0
 11
120.366769
 21
148.923609
 31
0.0
1001
ACAD
1000
RTMaterial
1005
0
  0
LINE
  8
F01_OUT
  5
382
 10
95.366769
 20
146.923609
 30
0.0
 11
95.366769
 21
147.273609
 31
0.0
1001
ACAD
1000
RTMaterial
1005
0
  0
LINE
  8
F01_OUT
  5
383
 10
100.416769
 20
147.273609
 30
0.0
 11
100.416769
 21
146.923609
 31
0.0
1001
ACAD
1000
RTMaterial
1005
0
  0
LINE
  8
F01_OUT
  5
384
 10
101.366769
 20
146.923609
 30
0.0
 11
101.590012
 21
146.923609
 31
0.0
1001
ACAD
1000
RTMaterial
1005
0
  0
LINE
  8
F01_OUT
  5
385
 10
101.590012
 20
146.923609
 30
0.0
 11
103.366769
 21
146.923609
 31
0.0
1001
ACAD
1000
RTMaterial
1005
0
  0
LINE
  8
F01_OUT
  5
386
 10
103.666769
 20
146.923609
 30
0.0
 11
103.866769
 21
146.923609
 31
0.0
1001
ACAD
1000
RTMaterial
1005
0
  0
LINE
  8
F01_OUT
  5
387
 10
103.366769
 20
146.923609
 30
0.0
 11
103.666769
 21
146.923609
 31
0.0
1001
ACAD
1000
RTMaterial
1005
0
  0
LINE
  8
F01_OUT
  5
388
 10
106.866769
 20
146.923609
 30
0.0
 11
108.866769
 21
146.923609
 31
0.0
1001
ACAD
1000
RTMaterial
1005
0
  0
LINE
  8
F01_OUT
  5
389
 10
120.366769
 20
148.923609
 30
0.0
 11
120.366769
 21
146.923609
 31
0.0
1001
ACAD
1000
RTMaterial
1005
0
  0
LINE
  8
F01_OUT
  5
38A
 10
115.316769
 20
146.923609
 30
0.0
 11
115.316769
 21
148.923609
 31
0.0
1001
ACAD
1000
RTMaterial
1005
0
  0
LINE
  8
F01_OUT
  5
38B
 10
114.143526
 20
146.923609
 30
0.0
 11
114.366769
 21
146.923609
 31
0.0
1001
ACAD
1000
RTMaterial
1005
0
  0
LINE
  8
F01_OUT
  5
38C
 10
112.066769
 20
146.923609
 30
0.0
 11
112.366769
 21
146.923609
 31
0.0
1001
ACAD
1000
RTMaterial
1005
0
  0
LINE
  8
F01_OUT
  5
38D
 10
111.866769
 20
146.923609
 30
0.0
 11
112.066769
 21
146.923609
 31
0.0
1001
ACAD
1000
RTMaterial
1005
0
  0
LINE
  8
F01_OUT
  5
38E
 10
112.366769
 20
146.923609
 30
0.0
 11
114.143526
 21
146.923609
 31
0.0
1001
ACAD
1000
RTMaterial
1005
0
  0
LINE
  8
F01_OUT
  5
38F
 10
112.691769
 20
149.423609
 30
0.0
 11
114.366769
 21
149.423609
 31
0.0
1001
ACAD
1000
RTMaterial
1005
0
  0
LINE
  8
F01_OUT
  5
390
 10
114.366769
 20
149.423609
 30
0.0
 11
114.366769
 21
148.124999
 31
0.0
1001
ACAD
1000
RTMaterial
1005
0
  0
LINE
  8
F01_OUT
  5
391
 10
95.366769
 20
105.923609
 30
0.0
 11
95.366769
 21
105.573609
 31
0.0
1001
ACAD
1000
RTMaterial
1005
0
  0
LINE
  8
F01_OUT
  5
392
 10
112.391769
 20
102.423609
 30
0.0
 11
112.041769
 21
102.423609
 31
0.0
1001
ACAD
1000
RTMaterial
1005
0
  0
LINE
  8
F01_OUT
  5
393
 10
112.491769
 20
102.423609
 30
0.0
 11
112.391769
 21
102.423609
 31
0.0
1001
ACAD
1000
RTMaterial
1005
0
  0
LINE
  8
F01_OUT
  5
394
 10
112.041769
 20
102.423609
 30
0.0
 11
106.129155
 21
102.423609
 31
0.0
1001
ACAD
1000
RTMaterial
1005
0
  0
LINE
  8
F01_OUT
  5
395
 10
121.091769
 20
150.423609
 30
0.0
 11
129.441769
 21
150.423609
 31
0.0
1001
ACAD
1000
RTMaterial
1005
0
  0
ARC
  8
F01_OUT
  5
396
 10
125.366769
 20
146.423609
 30
0.0
 40
2.25
 50
16.22315
 51
126.869898
1001
ACAD
1000
RTMaterial
1005
0
  0
ARC
  8
F01_OUT
  5
397
 10
125.366769
 20
146.423609
 30
0.0
 40
2.25
 50
126.869898
 51
167.160412
1001
ACAD
1000
RTMaterial
1005
0
  0
ARC
  8
F01_OUT
  5
398
 10
103.266769
 20
147.523609
 30
0.0
 40
0.4
 50
218.682187
 51
235.771134
1001
ACAD
1000
RTMaterial
1005
0
  0
ARC
  8
F01_OUT
  5
399
 10
112.466769
 20
147.523609
 30
0.0
 40
0.4
 50
304.228866
 51
346.254379
1001
ACAD
1000
RTMaterial
1005
0
  0
LINE
  8
F01_OUT
  5
39A
 10
115.316769
 20
147.752617
 30
0.0
 11
117.431686
 21
146.923609
 31
0.0
1001
ACAD
1000
RTMaterial
1005
0
  0
LINE
  8
F01_OUT
  5
39B
 10
112.691769
 20
147.492671
 30
0.0
 11
114.143526
 21
146.923609
 31
0.0
1001
ACAD
1000
RTMaterial
1005
0
  0
LINE
  8
F01_OUT
  5
39C
 10
112.691769
 20
148.781567
 30
0.0
 11
114.366769
 21
148.124999
 31
0.0
1001
ACAD
1000
RTMaterial
1005
0
  0
LINE
  8
F01_OUT
  5
39D
 10
102.341769
 20
147.218284
 30
0.0
 11
102.482912
 21
147.273609
 31
0.0
1001
ACAD
1000
RTMaterial
1005
0
  0
LINE
  8
F01_OUT
  5
39E
 10
98.301852
 20
146.923609
 30
0.0
 11
99.194752
 21
147.273609
 31
0.0
1001
ACAD
1000
RTMaterial
1005
0
  0
LINE
  8
F01_OUT
  5
39F
 10
89.020725
 20
146.923609
 30
0.0
 11
94.666769
 21
146.923609
 31
0.0
1001
ACAD
1000
RTMaterial
1005
0
  0
LINE
  8
F01_OUT
  5
3A0
 10
88.52042
 20
146.923609
 30
0.0
 11
89.020725
 21
146.923609
 31
0.0
1001
ACAD
1000
RTMaterial
1005
0
  0
LINE
  8
F01_OUT
  5
3A1
 10
128.966769
 20
145.923609
 30
0.0
 11
128.966769
 21
145.823609
 31
0.0
1001
ACAD
1000
RTMaterial
1005
0
  0
LINE
  8
F01_OUT
  5
3A2
 10
128.966769
 20
146.923609
 30
0.0
 11
128.966769
 21
145.923609
 31
0.0
1001
ACAD
1000
RTMaterial
1005
0
  0
LINE
  8
F01_OUT
  5
3A3
 10
121.066769
 20
146.923609
 30
0.0
 11
128.966769
 21
146.923609
 31
0.0
1001
ACAD
1000
RTMaterial
1005
0
  0
LINE
  8
F01_OUT
  5
3A4
 10
103.666769
 20
146.923609
 30
0.0
 11
103.666769
 21
137.923609
 31
0.0
1001
ACAD
1000
RTMaterial
1005
0
  0
LINE
  8
F01_OUT
  5
3A5
 10
103.366769
 20
146.923609
 30
0.0
 11
103.366769
 21
137.923609
 31
0.0
1001
ACAD
1000
RTMaterial
1005
0
  0
LINE
  8
F01_OUT
  5
3A6
 10
94.666769
 20
146.923609
 30
0.0
 11
94.666769
 21
137.923609
 31
0.0
1001
ACAD
1000
RTMaterial
1005
0
  0
LINE
  8
F01_OUT
  5
3A7
 10
94.966769
 20
146.923609
 30
0.0
 11
94.966769
 21
137.923609
 31
0.0
1001
ACAD
1000
RTMaterial
1005
0
  0
LINE
  8
F01_OUT
  5
3A8
 10
94.966769
 20
146.923609
 30
0.0
 11
95.366769
 21
146.923609
 31
0.0
1001
ACAD
1000
RTMaterial
1005
0
  0
LINE
  8
F01_OUT
  5
3A9
 10
94.966769
 20
146.923609
 30
0.0
 11
94.666769
 21
146.923609
 31
0.0
1001
ACAD
1000
RTMaterial
1005
0
  0
LINE
  8
F01_OUT
  5
3AA
 10
95.366769
 20
146.923609
 30
0.0
 11
100.416769
 21
146.923609
 31
0.0
1001
ACAD
1000
RTMaterial
1005
0
  0
LINE
  8
F01_OUT
  5
3AB
 10
100.416769
 20
146.923609
 30
0.0
 11
101.366769
 21
146.923609
 31
0.0
1001
ACAD
1000
RTMaterial
1005
0
  0
LINE
  8
F01_OUT
  5
3AC
 10
101.366769
 20
146.923609
 30
0.0
 11
101.590012
 21
146.923609
 31
0.0
1001
ACAD
1000
RTMaterial
1005
0
  0
LINE
  8
F01_OUT
  5
3AD
 10
103.866769
 20
146.923609
 30
0.0
 11
106.866769
 21
146.923609
 31
0.0
1001
ACAD
1000
RTMaterial
1005
0
  0
LINE
  8
F01_OUT
  5
3AE
 10
108.866769
 20
146.923609
 30
0.0
 11
111.866769
 21
146.923609
 31
0.0
1001
ACAD
1000
RTMaterial
1005
0
  0
LINE
  8
F01_OUT
  5
3AF
 10
101.590012
 20
146.923609
 30
0.0
 11
103.366769
 21
146.923609
 31
0.0
1001
ACAD
1000
RTMaterial
1005
0
  0
LINE
  8
F01_OUT
  5
3B0
 10
103.666769
 20
146.923609
 30
0.0
 11
103.866769
 21
146.923609
 31
0.0
1001
ACAD
1000
RTMaterial
1005
0
  0
LINE
  8
F01_OUT
  5
3B1
 10
103.366769
 20
146.923609
 30
0.0
 11
103.666769
 21
146.923609
 31
0.0
1001
ACAD
1000
RTMaterial
1005
0
  0
LINE
  8
F01_OUT
  5
3B2
 10
106.866769
 20
146.923609
 30
0.0
 11
108.866769
 21
146.923609
 31
0.0
1001
ACAD
1000
RTMaterial
1005
0
  0
LINE
  8
F01_OUT
  5
3B3
 10
121.066769
 20
146.923609
 30
0.0
 11
120.766769
 21
146.923609
 31
0.0
1001
ACAD
1000
RTMaterial
1005
0
  0
LINE
  8
F01_OUT
  5
3B4
 10
112.366769
 20
146.923609
 30
0.0
 11
112.366769
 21
137.923609
 31
0.0
1001
ACAD
1000
RTMaterial
1005
0
  0
LINE
  8
F01_OUT
  5
3B5
 10
121.066769
 20
146.923609
 30
0.0
 11
121.066769
 21
137.923609
 31
0.0
1001
ACAD
1000
RTMaterial
1005
0
  0
LINE
  8
F01_OUT
  5
3B6
 10
120.366769
 20
146.923609
 30
0.0
 11
120.766769
 21
146.923609
 31
0.0
1001
ACAD
1000
RTMaterial
1005
0
  0
LINE
  8
F01_OUT
  5
3B7
 10
120.766769
 20
146.923609
 30
0.0
 11
120.766769
 21
137.923609
 31
0.0
1001
ACAD
1000
RTMaterial
1005
0
  0
LINE
  8
F01_OUT
  5
3B8
 10
112.066769
 20
146.923609
 30
0.0
 11
112.066769
 21
137.923609
 31
0.0
1001
ACAD
1000
RTMaterial
1005
0
  0
LINE
  8
F01_OUT
  5
3B9
 10
115.316769
 20
146.923609
 30
0.0
 11
120.366769
 21
146.923609
 31
0.0
1001
ACAD
1000
RTMaterial
1005
0
  0
LINE
  8
F01_OUT
  5
3BA
 10
114.366769
 20
146.923609
 30
0.0
 11
115.316769
 21
146.923609
 31
0.0
1001
ACAD
1000
RTMaterial
1005
0
  0
LINE
  8
F01_OUT
  5
3BB
 10
114.143526
 20
146.923609
 30
0.0
 11
114.366769
 21
146.923609
 31
0.0
1001
ACAD
1000
RTMaterial
1005
0
  0
LINE
  8
F01_OUT
  5
3BC
 10
112.066769
 20
146.923609
 30
0.0
 11
112.366769
 21
146.923609
 31
0.0
1001
ACAD
1000
RTMaterial
1005
0
  0
LINE
  8
F01_OUT
  5
3BD
 10
111.866769
 20
146.923609
 30
0.0
 11
112.066769
 21
146.923609
 31
0.0
1001
ACAD
1000
RTMaterial
1005
0
  0
LINE
  8
F01_OUT
  5
3BE
 10
112.366769
 20
146.923609
 30
0.0
 11
114.143526
 21
146.923609
 31
0.0
1001
ACAD
1000
RTMaterial
1005
0
  0
LINE
  8
F01_OUT
  5
3BF
 10
86.766769
 20
145.923609
 30
0.0
 11
86.766769
 21
145.823609
 31
0.0
1001
ACAD
1000
RTMaterial
1005
0
  0
LINE
  8
F01_OUT
  5
3C0
 10
86.766769
 20
146.923609
 30
0.0
 11
86.766769
 21
145.923609
 31
0.0
1001
ACAD
1000
RTMaterial
1005
0
  0
LINE
  8
F01_OUT
  5
3C1
 10
86.766769
 20
146.923609
 30
0.0
 11
88.52042
 21
146.923609
 31
0.0
1001
ACAD
1000
RTMaterial
1005
0
  0
LINE
  8
F01_OUT
  5
3C2
 10
86.591769
 20
145.923609
 30
0.0
 11
86.766769
 21
145.923609
 31
0.0
1001
ACAD
1000
RTMaterial
1005
0
  0
LINE
  8
F01_OUT
  5
3C3
 10
85.366769
 20
145.823609
 30
0.0
 11
86.766769
 21
145.823609
 31
0.0
1001
ACAD
1000
RTMaterial
1005
0
  0
LINE
  8
F01_OUT
  5
3C4
 10
86.766769
 20
146.923609
 30
0.0
 11
86.591769
 21
146.923609
 31
0.0
1001
ACAD
1000
RTMaterial
1005
0
  0
LINE
  8
F01_OUT
  5
3C5
 10
129.141769
 20
146.923609
 30
0.0
 11
128.966769
 21
146.923609
 31
0.0
1001
ACAD
1000
RTMaterial
1005
0
  0
LINE
  8
F01_OUT
  5
3C6
 10
129.266769
 20
137.923609
 30
0.0
 11
130.366769
 21
137.923609
 31
0.0
1001
ACAD
1000
RTMaterial
1005
0
  0
LINE
  8
F01_OUT
  5
3C7
 10
130.366769
 20
145.823609
 30
0.0
 11
130.366769
 21
137.923609
 31
0.0
1001
ACAD
1000
RTMaterial
1005
0
  0
LINE
  8
F01_OUT
  5
3C8
 10
128.966769
 20
145.823609
 30
0.0
 11
130.366769
 21
145.823609
 31
0.0
1001
ACAD
1000
RTMaterial
1005
0
  0
LINE
  8
F01_OUT
  5
3C9
 10
85.366769
 20
145.823609
 30
0.0
 11
85.366769
 21
137.923609
 31
0.0
1001
ACAD
1000
RTMaterial
1005
0
  0
LINE
  8
F01_OUT
  5
3CA
 10
128.966769
 20
145.923609
 30
0.0
 11
129.141769
 21
145.923609
 31
0.0
1001
ACAD
1000
RTMaterial
1005
0
  0
LINE
  8
F01_OUT
  5
3CB
 10
129.141769
 20
137.923609
 30
0.0
 11
129.266769
 21
137.923609
 31
0.0
1001
ACAD
1000
RTMaterial
1005
0
  0
LINE
  8
F01_OUT
  5
3CC
 10
128.227149
 20
137.923609
 30
0.0
 11
129.141769
 21
137.923609
 31
0.0
1001
ACAD
1000
RTMaterial
1005
0
  0
LINE
  8
F01_OUT
  5
3CD
 10
126.866769
 20
137.923609
 30
0.0
 11
128.227149
 21
137.923609
 31
0.0
1001
ACAD
1000
RTMaterial
1005
0
  0
LINE
  8
F01_OUT
  5
3CE
 10
121.066769
 20
137.923609
 30
0.0
 11
123.666769
 21
137.923609
 31
0.0
1001
ACAD
1000
RTMaterial
1005
0
  0
LINE
  8
F01_OUT
  5
3CF
 10
123.666769
 20
137.923609
 30
0.0
 11
126.866769
 21
137.923609
 31
0.0
1001
ACAD
1000
RTMaterial
1005
0
  0
LINE
  8
F01_OUT
  5
3D0
 10
85.366769
 20
137.923609
 30
0.0
 11
86.466769
 21
137.923609
 31
0.0
1001
ACAD
1000
RTMaterial
1005
0
  0
LINE
  8
F01_OUT
  5
3D1
 10
86.466769
 20
137.923609
 30
0.0
 11
86.591769
 21
137.923609
 31
0.0
1001
ACAD
1000
RTMaterial
1005
0
  0
LINE
  8
F01_OUT
  5
3D2
 10
86.591769
 20
137.923609
 30
0.0
 11
87.716769
 21
137.923609
 31
0.0
1001
ACAD
1000
RTMaterial
1005
0
  0
LINE
  8
F01_OUT
  5
3D3
 10
88.216769
 20
137.923609
 30
0.0
 11
88.716769
 21
137.923609
 31
0.0
1001
ACAD
1000
RTMaterial
1005
0
  0
LINE
  8
F01_OUT
  5
3D4
 10
87.716769
 20
137.923609
 30
0.0
 11
88.216769
 21
137.923609
 31
0.0
1001
ACAD
1000
RTMaterial
1005
0
  0
LINE
  8
F01_OUT
  5
3D5
 10
88.716769
 20
137.923609
 30
0.0
 11
92.216769
 21
137.923609
 31
0.0
1001
ACAD
1000
RTMaterial
1005
0
  0
LINE
  8
F01_OUT
  5
3D6
 10
94.966769
 20
137.923609
 30
0.0
 11
94.666769
 21
137.923609
 31
0.0
1001
ACAD
1000
RTMaterial
1005
0
  0
LINE
  8
F01_OUT
  5
3D7
 10
92.216769
 20
137.923609
 30
0.0
 11
92.275378
 21
137.923609
 31
0.0
1001
ACAD
1000
RTMaterial
1005
0
  0
LINE
  8
F01_OUT
  5
3D8
 10
92.275378
 20
137.923609
 30
0.0
 11
92.716769
 21
137.923609
 31
0.0
1001
ACAD
1000
RTMaterial
1005
0
  0
LINE
  8
F01_OUT
  5
3D9
 10
92.716769
 20
137.923609
 30
0.0
 11
93.216769
 21
137.923609
 31
0.0
1001
ACAD
1000
RTMaterial
1005
0
  0
LINE
  8
F01_OUT
  5
3DA
 10
93.216769
 20
137.923609
 30
0.0
 11
94.666769
 21
137.923609
 31
0.0
1001
ACAD
1000
RTMaterial
1005
0
  0
LINE
  8
F01_OUT
  5
3DB
 10
113.816769
 20
137.923609
 30
0.0
 11
114.316769
 21
137.923609
 31
0.0
1001
ACAD
1000
RTMaterial
1005
0
  0
LINE
  8
F01_OUT
  5
3DC
 10
114.316769
 20
137.923609
 30
0.0
 11
114.816769
 21
137.923609
 31
0.0
1001
ACAD
1000
RTMaterial
1005
0
  0
LINE
  8
F01_OUT
  5
3DD
 10
109.616769
 20
137.923609
 30
0.0
 11
110.116769
 21
137.923609
 31
0.0
1001
ACAD
1000
RTMaterial
1005
0
  0
LINE
  8
F01_OUT
  5
3DE
 10
110.116769
 20
137.923609
 30
0.0
 11
110.616769
 21
137.923609
 31
0.0
1001
ACAD
1000
RTMaterial
1005
0
  0
LINE
  8
F01_OUT
  5
3DF
 10
110.616769
 20
137.923609
 30
0.0
 11
112.066769
 21
137.923609
 31
0.0
1001
ACAD
1000
RTMaterial
1005
0
  0
LINE
  8
F01_OUT
  5
3E0
 10
112.366769
 20
137.923609
 30
0.0
 11
112.066769
 21
137.923609
 31
0.0
1001
ACAD
1000
RTMaterial
1005
0
  0
LINE
  8
F01_OUT
  5
3E1
 10
112.366769
 20
137.923609
 30
0.0
 11
113.816769
 21
137.923609
 31
0.0
1001
ACAD
1000
RTMaterial
1005
0
  0
LINE
  8
F01_OUT
  5
3E2
 10
97.166769
 20
137.923609
 30
0.0
 11
97.416769
 21
137.923609
 31
0.0
1001
ACAD
1000
RTMaterial
1005
0
  0
LINE
  8
F01_OUT
  5
3E3
 10
97.416769
 20
137.923609
 30
0.0
 11
99.166769
 21
137.923609
 31
0.0
1001
ACAD
1000
RTMaterial
1005
0
  0
LINE
  8
F01_OUT
  5
3E4
 10
103.666769
 20
137.923609
 30
0.0
 11
103.366769
 21
137.923609
 31
0.0
1001
ACAD
1000
RTMaterial
1005
0
  0
LINE
  8
F01_OUT
  5
3E5
 10
103.666769
 20
137.923609
 30
0.0
 11
105.116769
 21
137.923609
 31
0.0
1001
ACAD
1000
RTMaterial
1005
0
  0
LINE
  8
F01_OUT
  5
3E6
 10
100.916769
 20
137.923609
 30
0.0
 11
101.416769
 21
137.923609
 31
0.0
1001
ACAD
1000
RTMaterial
1005
0
  0
LINE
  8
F01_OUT
  5
3E7
 10
99.166769
 20
137.923609
 30
0.0
 11
100.916769
 21
137.923609
 31
0.0
1001
ACAD
1000
RTMaterial
1005
0
  0
LINE
  8
F01_OUT
  5
3E8
 10
101.416769
 20
137.923609
 30
0.0
 11
101.916769
 21
137.923609
 31
0.0
1001
ACAD
1000
RTMaterial
1005
0
  0
LINE
  8
F01_OUT
  5
3E9
 10
101.916769
 20
137.923609
 30
0.0
 11
103.366769
 21
137.923609
 31
0.0
1001
ACAD
1000
RTMaterial
1005
0
  0
LINE
  8
F01_OUT
  5
3EA
 10
96.916769
 20
137.923609
 30
0.0
 11
97.166769
 21
137.923609
 31
0.0
1001
ACAD
1000
RTMaterial
1005
0
  0
LINE
  8
F01_OUT
  5
3EB
 10
96.416769
 20
137.923609
 30
0.0
 11
96.916769
 21
137.923609
 31
0.0
1001
ACAD
1000
RTMaterial
1005
0
  0
LINE
  8
F01_OUT
  5
3EC
 10
94.966769
 20
137.923609
 30
0.0
 11
96.416769
 21
137.923609
 31
0.0
1001
ACAD
1000
RTMaterial
1005
0
  0
LINE
  8
F01_OUT
  5
3ED
 10
118.316769
 20
137.923609
 30
0.0
 11
118.566769
 21
137.923609
 31
0.0
1001
ACAD
1000
RTMaterial
1005
0
  0
LINE
  8
F01_OUT
  5
3EE
 10
116.566769
 20
137.923609
 30
0.0
 11
118.316769
 21
137.923609
 31
0.0
1001
ACAD
1000
RTMaterial
1005
0
  0
LINE
  8
F01_OUT
  5
3EF
 10
118.816769
 20
137.923609
 30
0.0
 11
119.316769
 21
137.923609
 31
0.0
1001
ACAD
1000
RTMaterial
1005
0
  0
LINE
  8
F01_OUT
  5
3F0
 10
119.316769
 20
137.923609
 30
0.0
 11
120.766769
 21
137.923609
 31
0.0
1001
ACAD
1000
RTMaterial
1005
0
  0
LINE
  8
F01_OUT
  5
3F1
 10
118.566769
 20
137.923609
 30
0.0
 11
118.816769
 21
137.923609
 31
0.0
1001
ACAD
1000
RTMaterial
1005
0
  0
LINE
  8
F01_OUT
  5
3F2
 10
121.066769
 20
137.923609
 30
0.0
 11
120.766769
 21
137.923609
 31
0.0
1001
ACAD
1000
RTMaterial
1005
0
  0
LINE
  8
F01_OUT
  5
3F3
 10
114.816769
 20
137.923609
 30
0.0
 11
116.566769
 21
137.923609
 31
0.0
1001
ACAD
1000
RTMaterial
1005
0
  0
LINE
  8
F01_OUT
  5
3F4
 10
105.116769
 20
137.923609
 30
0.0
 11
105.616769
 21
137.923609
 31
0.0
1001
ACAD
1000
RTMaterial
1005
0
  0
LINE
  8
F01_OUT
  5
3F5
 10
105.616769
 20
137.923609
 30
0.0
 11
106.116769
 21
137.923609
 31
0.0
1001
ACAD
1000
RTMaterial
1005
0
  0
LINE
  8
F01_OUT
  5
3F6
 10
106.116769
 20
137.923609
 30
0.0
 11
109.616769
 21
137.923609
 31
0.0
1001
ACAD
1000
RTMaterial
1005
0
  0
LINE
  8
F01_OUT
  5
3F7
 10
89.866769
 20
105.216502
 30
0.0
 11
89.866769
 21
105.923609
 31
0.0
1001
ACAD
1000
RTMaterial
1005
0
  0
LINE
  8
F01_OUT
  5
3F8
 10
90.866769
 20
105.216502
 30
0.0
 11
90.866769
 21
105.923609
 31
0.0
1001
ACAD
1000
RTMaterial
1005
0
  0
LINE
  8
F01_OUT
  5
3F9
 10
89.020725
 20
105.923609
 30
0.0
 11
88.52042
 21
105.923609
 31
0.0
1001
ACAD
1000
RTMaterial
1005
0
  0
LINE
  8
F01_OUT
  5
3FA
 10
84.866769
 20
106.423609
 30
0.0
 11
85.366769
 21
106.423609
 31
0.0
1001
ACAD
1000
RTMaterial
1005
0
  0
LINE
  8
F01_OUT
  5
3FB
 10
84.866769
 20
110.423609
 30
0.0
 11
85.366769
 21
110.423609
 31
0.0
1001
ACAD
1000
RTMaterial
1005
0
  0
LINE
  8
F01_OUT
  5
3FC
 10
80.366769
 20
105.923609
 30
0.0
 11
80.366769
 21
105.573609
 31
0.0
1001
ACAD
1000
RTMaterial
1005
0
  0
LINE
  8
F01_OUT
  5
3FD
 10
81.700895
 20
105.573609
 30
0.0
 11
81.713118
 21
105.923609
 31
0.0
1001
ACAD
1000
RTMaterial
1005
0
  0
LINE
  8
F01_OUT
  5
3FE
 10
90.866769
 20
105.216502
 30
0.0
 11
89.866769
 21
105.216502
 31
0.0
1001
ACAD
1000
RTMaterial
1005
0
  0
LINE
  8
F01_OUT
  5
3FF
 10
85.366769
 20
110.323609
 30
0.0
 11
84.866769
 21
110.323609
 31
0.0
1001
ACAD
1000
RTMaterial
1005
0
  0
LINE
  8
F01_OUT
  5
400
 10
81.713118
 20
105.923609
 30
0.0
 11
81.212813
 21
105.923609
 31
0.0
1001
ACAD
1000
RTMaterial
1005
0
  0
ARC
  8
F01_OUT
  5
401
 10
90.866769
 20
106.423609
 30
0.0
 40
3.0
 50
343.54075
 51
350.405932
1001
ACAD
1000
RTMaterial
1005
0
  0
ARC
  8
F01_OUT
  5
402
 10
79.366769
 20
106.423609
 30
0.0
 40
3.0
 50
189.594068
 51
196.45925
1001
ACAD
1000
RTMaterial
1005
0
  0
LINE
  8
F01_OUT
  5
403
 10
89.866769
 20
146.923609
 30
0.0
 11
89.866769
 21
147.273609
 31
0.0
1001
ACAD
1000
RTMaterial
1005
0
  0
LINE
  8
F01_OUT
  5
404
 10
88.52042
 20
146.923609
 30
0.0
 11
89.020725
 21
146.923609
 31
0.0
1001
ACAD
1000
RTMaterial
1005
0
  0
LINE
  8
F01_OUT
  5
405
 10
90.866769
 20
147.273609
 30
0.0
 11
90.866769
 21
146.923609
 31
0.0
1001
ACAD
1000
RTMaterial
1005
0
  0
LINE
  8
F01_OUT
  5
406
 10
79.366769
 20
147.273609
 30
0.0
 11
79.366769
 21
146.923609
 31
0.0
1001
ACAD
1000
RTMaterial
1005
0
  0
LINE
  8
F01_OUT
  5
407
 10
80.366769
 20
147.273609
 30
0.0
 11
80.366769
 21
146.923609
 31
0.0
1001
ACAD
1000
RTMaterial
1005
0
  0
LINE
  8
F01_OUT
  5
408
 10
88.532643
 20
147.273609
 30
0.0
 11
88.52042
 21
146.923609
 31
0.0
1001
ACAD
1000
RTMaterial
1005
0
  0
LINE
  8
F01_OUT
  5
409
 10
85.366769
 20
142.423609
 30
0.0
 11
84.866769
 21
142.423609
 31
0.0
1001
ACAD
1000
RTMaterial
1005
0
  0
LINE
  8
F01_OUT
  5
40A
 10
84.866769
 20
142.523609
 30
0.0
 11
85.366769
 21
142.523609
 31
0.0
1001
ACAD
1000
RTMaterial
1005
0
  0
LINE
  8
F01_OUT
  5
40B
 10
81.212813
 20
146.923609
 30
0.0
 11
81.713118
 21
146.923609
 31
0.0
1001
ACAD
1000
RTMaterial
1005
0
  0
LINE
  8
F01_OUT
  5
40C
 10
85.366769
 20
146.423609
 30
0.0
 11
85.088781
 21
146.423609
 31
0.0
1001
ACAD
1000
RTMaterial
1005
0
  0
ARC
  8
F01_OUT
  5
40D
 10
90.866769
 20
146.423609
 30
0.0
 40
3.0
 50
9.594068
 51
16.45925
1001
ACAD
1000
RTMaterial
1005
0
  0
ARC
  8
F01_OUT
  5
40E
 10
79.366769
 20
146.423609
 30
0.0
 40
3.0
 50
163.54075
 51
170.405932
1001
ACAD
1000
RTMaterial
1005
0
  0
LINE
  8
F01_OUT
  5
40F
 10
49.491769
 20
150.423609
 30
0.0
 11
55.404383
 21
150.423609
 31
0.0
1001
ACAD
1000
RTMaterial
1005
0
  0
LINE
  8
F01_OUT
  5
410
 10
49.866769
 20
148.923609
 30
0.0
 11
54.441769
 21
148.923609
 31
0.0
1001
ACAD
1000
RTMaterial
1005
0
  0
LINE
  8
F01_OUT
  5
411
 10
56.090012
 20
146.923609
 30
0.0
 11
57.866769
 21
146.923609
 31
0.0
1001
ACAD
1000
RTMaterial
1005
0
  0
LINE
  8
F01_OUT
  5
412
 10
55.866769
 20
146.923609
 30
0.0
 11
56.090012
 21
146.923609
 31
0.0
1001
ACAD
1000
RTMaterial
1005
0
  0
LINE
  8
F01_OUT
  5
413
 10
61.366769
 20
146.923609
 30
0.0
 11
61.366769
 21
147.682213
 31
0.0
1001
ACAD
1000
RTMaterial
1005
0
  0
LINE
  8
F01_OUT
  5
414
 10
58.166769
 20
146.923609
 30
0.0
 11
58.366769
 21
146.923609
 31
0.0
1001
ACAD
1000
RTMaterial
1005
0
  0
LINE
  8
F01_OUT
  5
415
 10
57.866769
 20
146.923609
 30
0.0
 11
58.166769
 21
146.923609
 31
0.0
1001
ACAD
1000
RTMaterial
1005
0
  0
LINE
  8
F01_OUT
  5
416
 10
49.866769
 20
105.923609
 30
0.0
 11
49.866769
 21
105.573609
 31
0.0
1001
ACAD
1000
RTMaterial
1005
0
  0
LINE
  8
F01_OUT
  5
417
 10
49.366769
 20
102.423609
 30
0.0
 11
49.141769
 21
102.423609
 31
0.0
1001
ACAD
1000
RTMaterial
1005
0
  0
LINE
  8
F01_OUT
  5
418
 10
41.854383
 20
102.423609
 30
0.0
 11
41.366769
 21
102.423609
 31
0.0
1001
ACAD
1000
RTMaterial
1005
0
  0
LINE
  8
F01_OUT
  5
419
 10
54.916769
 20
105.573609
 30
0.0
 11
54.916769
 21
105.923609
 31
0.0
1001
ACAD
1000
RTMaterial
1005
0
  0
LINE
  8
F01_OUT
  5
41A
 10
69.816769
 20
105.923609
 30
0.0
 11
69.816769
 21
105.573609
 31
0.0
1001
ACAD
1000
RTMaterial
1005
0
  0
LINE
  8
F01_OUT
  5
41B
 10
75.241769
 20
150.423609
 30
0.0
 11
75.591769
 21
150.423609
 31
0.0
1001
ACAD
1000
RTMaterial
1005
0
  0
LINE
  8
F01_OUT
  5
41C
 10
66.541769
 20
150.423609
 30
0.0
 11
66.891769
 21
150.423609
 31
0.0
1001
ACAD
1000
RTMaterial
1005
0
  0
LINE
  8
F01_OUT
  5
41D
 10
69.816769
 20
146.923609
 30
0.0
 11
69.816769
 21
147.273609
 31
0.0
1001
ACAD
1000
RTMaterial
1005
0
  0
LINE
  8
F01_OUT
  5
41E
 10
74.866769
 20
105.573609
 30
0.0
 11
74.866769
 21
105.923609
 31
0.0
1001
ACAD
1000
RTMaterial
1005
0
  0
LINE
  8
F01_OUT
  5
41F
 10
63.366769
 20
147.839054
 30
0.0
 11
63.366769
 21
146.923609
 31
0.0
1001
ACAD
1000
RTMaterial
1005
0
  0
LINE
  8
F01_OUT
  5
420
 10
68.643526
 20
146.923609
 30
0.0
 11
68.866769
 21
146.923609
 31
0.0
1001
ACAD
1000
RTMaterial
1005
0
  0
LINE
  8
F01_OUT
  5
421
 10
66.566769
 20
146.923609
 30
0.0
 11
66.866769
 21
146.923609
 31
0.0
1001
ACAD
1000
RTMaterial
1005
0
  0
LINE
  8
F01_OUT
  5
422
 10
66.366769
 20
146.923609
 30
0.0
 11
66.566769
 21
146.923609
 31
0.0
1001
ACAD
1000
RTMaterial
1005
0
  0
LINE
  8
F01_OUT
  5
423
 10
61.366769
 20
146.923609
 30
0.0
 11
63.366769
 21
146.923609
 31
0.0
1001
ACAD
1000
RTMaterial
1005
0
  0
LINE
  8
F01_OUT
  5
424
 10
66.866769
 20
146.923609
 30
0.0
 11
68.643526
 21
146.923609
 31
0.0
1001
ACAD
1000
RTMaterial
1005
0
  0
LINE
  8
F01_OUT
  5
425
 10
57.841769
 20
150.423609
 30
0.0
 11
58.191769
 21
150.423609
 31
0.0
1001
ACAD
1000
RTMaterial
1005
0
  0
LINE
  8
F01_OUT
  5
426
 10
49.041769
 20
150.423609
 30
0.0
 11
49.141769
 21
150.423609
 31
0.0
1001
ACAD
1000
RTMaterial
1005
0
  0
LINE
  8
F01_OUT
  5
427
 10
49.141769
 20
150.423609
 30
0.0
 11
49.491769
 21
150.423609
 31
0.0
1001
ACAD
1000
RTMaterial
1005
0
  0
LINE
  8
F01_OUT
  5
428
 10
41.366769
 20
150.423609
 30
0.0
 11
45.741769
 21
150.423609
 31
0.0
1001
ACAD
1000
RTMaterial
1005
0
  0
LINE
  8
F01_OUT
  5
429
 10
54.916769
 20
147.765216
 30
0.0
 11
54.916769
 21
146.923609
 31
0.0
1001
ACAD
1000
RTMaterial
1005
0
  0
LINE
  8
F01_OUT
  5
42A
 10
49.866769
 20
146.923609
 30
0.0
 11
49.866769
 21
148.923609
 31
0.0
1001
ACAD
1000
RTMaterial
1005
0
  0
ARC
  8
F01_OUT
  5
42B
 10
44.866769
 20
106.423609
 30
0.0
 40
2.25
 50
337.803899
 51
347.160412
1001
ACAD
1000
RTMaterial
1005
0
  0
ARC
  8
F01_OUT
  5
42C
 10
41.366769
 20
103.423609
 30
0.0
 40
1.0
 50
247.811837
 51
270.0
1001
ACAD
1000
RTMaterial
1005
0
  0
ARC
  8
F01_OUT
  5
42D
 10
41.366769
 20
149.423609
 30
0.0
 40
1.0
 50
90.0
 51
112.188163
1001
ACAD
1000
RTMaterial
1005
0
  0
ARC
  8
F01_OUT
  5
42E
 10
66.966769
 20
147.523609
 30
0.0
 40
0.4
 50
304.228866
 51
321.317813
1001
ACAD
1000
RTMaterial
1005
0
  0
ARC
  8
F01_OUT
  5
42F
 10
44.866769
 20
146.423609
 30
0.0
 40
2.25
 50
37.918203
 51
53.130102
1001
ACAD
1000
RTMaterial
1005
0
  0
ARC
  8
F01_OUT
  5
430
 10
57.766769
 20
147.523609
 30
0.0
 40
0.4
 50
202.442683
 51
235.771134
1001
ACAD
1000
RTMaterial
1005
0
  0
ARC
  8
F01_OUT
  5
431
 10
44.866769
 20
146.423609
 30
0.0
 40
2.25
 50
53.130102
 51
167.160412
1001
ACAD
1000
RTMaterial
1005
0
  0
LINE
  8
F01_OUT
  5
432
 10
56.841769
 20
147.218284
 30
0.0
 11
57.189629
 21
147.354638
 31
0.0
1001
ACAD
1000
RTMaterial
1005
0
  0
LINE
  8
F01_OUT
  5
433
 10
71.038786
 20
147.273609
 30
0.0
 11
71.931686
 21
146.923609
 31
0.0
1001
ACAD
1000
RTMaterial
1005
0
  0
LINE
  8
F01_OUT
  5
434
 10
67.750626
 20
147.273609
 30
0.0
 11
68.643526
 21
146.923609
 31
0.0
1001
ACAD
1000
RTMaterial
1005
0
  0
LINE
  8
F01_OUT
  5
435
 10
52.801852
 20
146.923609
 30
0.0
 11
54.916769
 21
147.752617
 31
0.0
1001
ACAD
1000
RTMaterial
1005
0
  0
LINE
  8
F01_OUT
  5
436
 10
56.090012
 20
146.923609
 30
0.0
 11
57.866769
 21
146.923609
 31
0.0
1001
ACAD
1000
RTMaterial
1005
0
  0
LINE
  8
F01_OUT
  5
437
 10
41.266769
 20
146.923609
 30
0.0
 11
49.166769
 21
146.923609
 31
0.0
1001
ACAD
1000
RTMaterial
1005
0
  0
LINE
  8
F01_OUT
  5
438
 10
55.866769
 20
146.923609
 30
0.0
 11
56.090012
 21
146.923609
 31
0.0
1001
ACAD
1000
RTMaterial
1005
0
  0
LINE
  8
F01_OUT
  5
439
 10
54.916769
 20
146.923609
 30
0.0
 11
55.866769
 21
146.923609
 31
0.0
1001
ACAD
1000
RTMaterial
1005
0
  0
LINE
  8
F01_OUT
  5
43A
 10
49.466769
 20
146.923609
 30
0.0
 11
49.166769
 21
146.923609
 31
0.0
1001
ACAD
1000
RTMaterial
1005
0
  0
LINE
  8
F01_OUT
  5
43B
 10
49.466769
 20
146.923609
 30
0.0
 11
49.866769
 21
146.923609
 31
0.0
1001
ACAD
1000
RTMaterial
1005
0
  0
LINE
  8
F01_OUT
  5
43C
 10
49.866769
 20
146.923609
 30
0.0
 11
54.916769
 21
146.923609
 31
0.0
1001
ACAD
1000
RTMaterial
1005
0
  0
LINE
  8
F01_OUT
  5
43D
 10
39.866769
 20
145.823609
 30
0.0
 11
41.266769
 21
145.823609
 31
0.0
1001
ACAD
1000
RTMaterial
1005
0
  0
LINE
  8
F01_OUT
  5
43E
 10
41.091769
 20
145.923609
 30
0.0
 11
41.266769
 21
145.923609
 31
0.0
1001
ACAD
1000
RTMaterial
1005
0
  0
LINE
  8
F01_OUT
  5
43F
 10
41.266769
 20
145.923609
 30
0.0
 11
41.266769
 21
145.823609
 31
0.0
1001
ACAD
1000
RTMaterial
1005
0
  0
LINE
  8
F01_OUT
  5
440
 10
41.266769
 20
146.923609
 30
0.0
 11
41.266769
 21
145.923609
 31
0.0
1001
ACAD
1000
RTMaterial
1005
0
  0
LINE
  8
F01_OUT
  5
441
 10
58.166769
 20
146.923609
 30
0.0
 11
58.366769
 21
146.923609
 31
0.0
1001
ACAD
1000
RTMaterial
1005
0
  0
LINE
  8
F01_OUT
  5
442
 10
58.366769
 20
146.923609
 30
0.0
 11
61.366769
 21
146.923609
 31
0.0
1001
ACAD
1000
RTMaterial
1005
0
  0
LINE
  8
F01_OUT
  5
443
 10
57.866769
 20
146.923609
 30
0.0
 11
58.166769
 21
146.923609
 31
0.0
1001
ACAD
1000
RTMaterial
1005
0
  0
LINE
  8
F01_OUT
  5
444
 10
64.116769
 20
137.923609
 30
0.0
 11
64.616769
 21
137.923609
 31
0.0
1001
ACAD
1000
RTMaterial
1005
0
  0
LINE
  8
F01_OUT
  5
445
 10
60.616769
 20
137.923609
 30
0.0
 11
64.116769
 21
137.923609
 31
0.0
1001
ACAD
1000
RTMaterial
1005
0
  0
LINE
  8
F01_OUT
  5
446
 10
64.616769
 20
137.923609
 30
0.0
 11
65.116769
 21
137.923609
 31
0.0
1001
ACAD
1000
RTMaterial
1005
0
  0
LINE
  8
F01_OUT
  5
447
 10
65.116769
 20
137.923609
 30
0.0
 11
66.566769
 21
137.923609
 31
0.0
1001
ACAD
1000
RTMaterial
1005
0
  0
LINE
  8
F01_OUT
  5
448
 10
78.166769
 20
137.923609
 30
0.0
 11
81.366769
 21
137.923609
 31
0.0
1001
ACAD
1000
RTMaterial
1005
0
  0
LINE
  8
F01_OUT
  5
449
 10
66.866769
 20
137.923609
 30
0.0
 11
68.316769
 21
137.923609
 31
0.0
1001
ACAD
1000
RTMaterial
1005
0
  0
LINE
  8
F01_OUT
  5
44A
 10
66.866769
 20
137.923609
 30
0.0
 11
66.566769
 21
137.923609
 31
0.0
1001
ACAD
1000
RTMaterial
1005
0
  0
LINE
  8
F01_OUT
  5
44B
 10
69.316769
 20
137.923609
 30
0.0
 11
71.066769
 21
137.923609
 31
0.0
1001
ACAD
1000
RTMaterial
1005
0
  0
LINE
  8
F01_OUT
  5
44C
 10
68.816769
 20
137.923609
 30
0.0
 11
69.316769
 21
137.923609
 31
0.0
1001
ACAD
1000
RTMaterial
1005
0
  0
LINE
  8
F01_OUT
  5
44D
 10
71.066769
 20
137.923609
 30
0.0
 11
72.816769
 21
137.923609
 31
0.0
1001
ACAD
1000
RTMaterial
1005
0
  0
LINE
  8
F01_OUT
  5
44E
 10
68.316769
 20
137.923609
 30
0.0
 11
68.816769
 21
137.923609
 31
0.0
1001
ACAD
1000
RTMaterial
1005
0
  0
LINE
  8
F01_OUT
  5
44F
 10
81.366769
 20
137.923609
 30
0.0
 11
82.727149
 21
137.923609
 31
0.0
1001
ACAD
1000
RTMaterial
1005
0
  0
LINE
  8
F01_OUT
  5
450
 10
73.066769
 20
137.923609
 30
0.0
 11
73.316769
 21
137.923609
 31
0.0
1001
ACAD
1000
RTMaterial
1005
0
  0
LINE
  8
F01_OUT
  5
451
 10
72.816769
 20
137.923609
 30
0.0
 11
73.066769
 21
137.923609
 31
0.0
1001
ACAD
1000
RTMaterial
1005
0
  0
LINE
  8
F01_OUT
  5
452
 10
73.816769
 20
137.923609
 30
0.0
 11
75.266769
 21
137.923609
 31
0.0
1001
ACAD
1000
RTMaterial
1005
0
  0
LINE
  8
F01_OUT
  5
453
 10
73.316769
 20
137.923609
 30
0.0
 11
73.816769
 21
137.923609
 31
0.0
1001
ACAD
1000
RTMaterial
1005
0
  0
LINE
  8
F01_OUT
  5
454
 10
75.566769
 20
137.923609
 30
0.0
 11
78.166769
 21
137.923609
 31
0.0
1001
ACAD
1000
RTMaterial
1005
0
  0
LINE
  8
F01_OUT
  5
455
 10
75.566769
 20
137.923609
 30
0.0
 11
75.266769
 21
137.923609
 31
0.0
1001
ACAD
1000
RTMaterial
1005
0
  0
LINE
  8
F01_OUT
  5
456
 10
75.566769
 20
146.923609
 30
0.0
 11
81.212813
 21
146.923609
 31
0.0
1001
ACAD
1000
RTMaterial
1005
0
  0
LINE
  8
F01_OUT
  5
457
 10
81.713118
 20
146.923609
 30
0.0
 11
83.466769
 21
146.923609
 31
0.0
1001
ACAD
1000
RTMaterial
1005
0
  0
LINE
  8
F01_OUT
  5
458
 10
83.641769
 20
146.923609
 30
0.0
 11
83.466769
 21
146.923609
 31
0.0
1001
ACAD
1000
RTMaterial
1005
0
  0
LINE
  8
F01_OUT
  5
459
 10
63.366769
 20
146.923609
 30
0.0
 11
66.366769
 21
146.923609
 31
0.0
1001
ACAD
1000
RTMaterial
1005
0
  0
LINE
  8
F01_OUT
  5
45A
 10
75.566769
 20
146.923609
 30
0.0
 11
75.266769
 21
146.923609
 31
0.0
1001
ACAD
1000
RTMaterial
1005
0
  0
LINE
  8
F01_OUT
  5
45B
 10
68.643526
 20
146.923609
 30
0.0
 11
68.866769
 21
146.923609
 31
0.0
1001
ACAD
1000
RTMaterial
1005
0
  0
LINE
  8
F01_OUT
  5
45C
 10
68.866769
 20
146.923609
 30
0.0
 11
69.816769
 21
146.923609
 31
0.0
1001
ACAD
1000
RTMaterial
1005
0
  0
LINE
  8
F01_OUT
  5
45D
 10
74.866769
 20
146.923609
 30
0.0
 11
75.266769
 21
146.923609
 31
0.0
1001
ACAD
1000
RTMaterial
1005
0
  0
LINE
  8
F01_OUT
  5
45E
 10
69.816769
 20
146.923609
 30
0.0
 11
74.866769
 21
146.923609
 31
0.0
1001
ACAD
1000
RTMaterial
1005
0
  0
LINE
  8
F01_OUT
  5
45F
 10
83.466769
 20
145.923609
 30
0.0
 11
83.466769
 21
145.823609
 31
0.0
1001
ACAD
1000
RTMaterial
1005
0
  0
LINE
  8
F01_OUT
  5
460
 10
83.466769
 20
146.923609
 30
0.0
 11
83.466769
 21
145.923609
 31
0.0
1001
ACAD
1000
RTMaterial
1005
0
  0
LINE
  8
F01_OUT
  5
461
 10
83.641769
 20
137.923609
 30
0.0
 11
83.766769
 21
137.923609
 31
0.0
1001
ACAD
1000
RTMaterial
1005
0
  0
LINE
  8
F01_OUT
  5
462
 10
82.727149
 20
137.923609
 30
0.0
 11
83.641769
 21
137.923609
 31
0.0
1001
ACAD
1000
RTMaterial
1005
0
  0
LINE
  8
F01_OUT
  5
463
 10
84.866769
 20
145.823609
 30
0.0
 11
84.866769
 21
137.923609
 31
0.0
1001
ACAD
1000
RTMaterial
1005
0
  0
LINE
  8
F01_OUT
  5
464
 10
83.766769
 20
137.923609
 30
0.0
 11
84.866769
 21
137.923609
 31
0.0
1001
ACAD
1000
RTMaterial
1005
0
  0
LINE
  8
F01_OUT
  5
465
 10
66.566769
 20
146.923609
 30
0.0
 11
66.866769
 21
146.923609
 31
0.0
1001
ACAD
1000
RTMaterial
1005
0
  0
LINE
  8
F01_OUT
  5
466
 10
66.366769
 20
146.923609
 30
0.0
 11
66.566769
 21
146.923609
 31
0.0
1001
ACAD
1000
RTMaterial
1005
0
  0
LINE
  8
F01_OUT
  5
467
 10
61.366769
 20
146.923609
 30
0.0
 11
63.366769
 21
146.923609
 31
0.0
1001
ACAD
1000
RTMaterial
1005
0
  0
LINE
  8
F01_OUT
  5
468
 10
81.212813
 20
146.923609
 30
0.0
 11
81.713118
 21
146.923609
 31
0.0
1001
ACAD
1000
RTMaterial
1005
0
  0
LINE
  8
F01_OUT
  5
469
 10
66.866769
 20
146.923609
 30
0.0
 11
68.643526
 21
146.923609
 31
0.0
1001
ACAD
1000
RTMaterial
1005
0
  0
LINE
  8
F01_OUT
  5
46A
 10
83.466769
 20
145.823609
 30
0.0
 11
84.866769
 21
145.823609
 31
0.0
1001
ACAD
1000
RTMaterial
1005
0
  0
LINE
  8
F01_OUT
  5
46B
 10
83.466769
 20
145.923609
 30
0.0
 11
83.641769
 21
145.923609
 31
0.0
1001
ACAD
1000
RTMaterial
1005
0
  0
LINE
  8
F01_OUT
  5
46C
 10
41.266769
 20
146.923609
 30
0.0
 11
41.091769
 21
146.923609
 31
0.0
1001
ACAD
1000
RTMaterial
1005
0
  0
LINE
  8
F01_OUT
  5
46D
 10
39.866769
 20
145.823609
 30
0.0
 11
39.866769
 21
137.923609
 31
0.0
1001
ACAD
1000
RTMaterial
1005
0
  0
LINE
  8
F01_OUT
  5
46E
 10
40.966769
 20
137.923609
 30
0.0
 11
41.091769
 21
137.923609
 31
0.0
1001
ACAD
1000
RTMaterial
1005
0
  0
LINE
  8
F01_OUT
  5
46F
 10
41.091769
 20
137.923609
 30
0.0
 11
42.216769
 21
137.923609
 31
0.0
1001
ACAD
1000
RTMaterial
1005
0
  0
LINE
  8
F01_OUT
  5
470
 10
42.216769
 20
137.923609
 30
0.0
 11
42.716769
 21
137.923609
 31
0.0
1001
ACAD
1000
RTMaterial
1005
0
  0
LINE
  8
F01_OUT
  5
471
 10
39.866769
 20
137.923609
 30
0.0
 11
40.966769
 21
137.923609
 31
0.0
1001
ACAD
1000
RTMaterial
1005
0
  0
LINE
  8
F01_OUT
  5
472
 10
49.466769
 20
137.923609
 30
0.0
 11
49.166769
 21
137.923609
 31
0.0
1001
ACAD
1000
RTMaterial
1005
0
  0
LINE
  8
F01_OUT
  5
473
 10
42.716769
 20
137.923609
 30
0.0
 11
43.216769
 21
137.923609
 31
0.0
1001
ACAD
1000
RTMaterial
1005
0
  0
LINE
  8
F01_OUT
  5
474
 10
47.716769
 20
137.923609
 30
0.0
 11
49.166769
 21
137.923609
 31
0.0
1001
ACAD
1000
RTMaterial
1005
0
  0
LINE
  8
F01_OUT
  5
475
 10
46.716769
 20
137.923609
 30
0.0
 11
46.775378
 21
137.923609
 31
0.0
1001
ACAD
1000
RTMaterial
1005
0
  0
LINE
  8
F01_OUT
  5
476
 10
46.775378
 20
137.923609
 30
0.0
 11
47.216769
 21
137.923609
 31
0.0
1001
ACAD
1000
RTMaterial
1005
0
  0
LINE
  8
F01_OUT
  5
477
 10
47.216769
 20
137.923609
 30
0.0
 11
47.716769
 21
137.923609
 31
0.0
1001
ACAD
1000
RTMaterial
1005
0
  0
LINE
  8
F01_OUT
  5
478
 10
50.916769
 20
137.923609
 30
0.0
 11
51.416769
 21
137.923609
 31
0.0
1001
ACAD
1000
RTMaterial
1005
0
  0
LINE
  8
F01_OUT
  5
479
 10
49.466769
 20
137.923609
 30
0.0
 11
50.916769
 21
137.923609
 31
0.0
1001
ACAD
1000
RTMaterial
1005
0
  0
LINE
  8
F01_OUT
  5
47A
 10
58.166769
 20
137.923609
 30
0.0
 11
57.866769
 21
137.923609
 31
0.0
1001
ACAD
1000
RTMaterial
1005
0
  0
LINE
  8
F01_OUT
  5
47B
 10
60.116769
 20
137.923609
 30
0.0
 11
60.616769
 21
137.923609
 31
0.0
1001
ACAD
1000
RTMaterial
1005
0
  0
LINE
  8
F01_OUT
  5
47C
 10
55.916769
 20
137.923609
 30
0.0
 11
56.416769
 21
137.923609
 31
0.0
1001
ACAD
1000
RTMaterial
1005
0
  0
LINE
  8
F01_OUT
  5
47D
 10
51.666769
 20
137.923609
 30
0.0
 11
51.916769
 21
137.923609
 31
0.0
1001
ACAD
1000
RTMaterial
1005
0
  0
LINE
  8
F01_OUT
  5
47E
 10
51.416769
 20
137.923609
 30
0.0
 11
51.666769
 21
137.923609
 31
0.0
1001
ACAD
1000
RTMaterial
1005
0
  0
LINE
  8
F01_OUT
  5
47F
 10
59.616769
 20
137.923609
 30
0.0
 11
60.116769
 21
137.923609
 31
0.0
1001
ACAD
1000
RTMaterial
1005
0
  0
LINE
  8
F01_OUT
  5
480
 10
55.416769
 20
137.923609
 30
0.0
 11
55.916769
 21
137.923609
 31
0.0
1001
ACAD
1000
RTMaterial
1005
0
  0
LINE
  8
F01_OUT
  5
481
 10
58.166769
 20
137.923609
 30
0.0
 11
59.616769
 21
137.923609
 31
0.0
1001
ACAD
1000
RTMaterial
1005
0
  0
LINE
  8
F01_OUT
  5
482
 10
56.416769
 20
137.923609
 30
0.0
 11
57.866769
 21
137.923609
 31
0.0
1001
ACAD
1000
RTMaterial
1005
0
  0
LINE
  8
F01_OUT
  5
483
 10
53.666769
 20
137.923609
 30
0.0
 11
55.416769
 21
137.923609
 31
0.0
1001
ACAD
1000
RTMaterial
1005
0
  0
LINE
  8
F01_OUT
  5
484
 10
51.916769
 20
137.923609
 30
0.0
 11
53.666769
 21
137.923609
 31
0.0
1001
ACAD
1000
RTMaterial
1005
0
  0
LINE
  8
F01_OUT
  5
485
 10
43.216769
 20
137.923609
 30
0.0
 11
46.716769
 21
137.923609
 31
0.0
1001
ACAD
1000
RTMaterial
1005
0
  0
ARC
  8
F01_OUT
  5
486
 10
81.916769
 20
117.323609
 30
0.0
 40
0.3
 50
270.0
 51
0.0
1001
ACAD
1000
RTMaterial
1005
0
  0
ARC
  8
F01_OUT
  5
487
 10
81.016769
 20
116.723609
 30
0.0
 40
0.3
 50
90.0
 51
180.0
1001
ACAD
1000
RTMaterial
1005
0
  0
ARC
  8
F01_OUT
  5
488
 10
80.416769
 20
116.023609
 30
0.0
 40
0.3
 50
270.0
 51
0.0
1001
ACAD
1000
RTMaterial
1005
0
  0
ARC
  8
F01_OUT
  5
489
 10
79.116769
 20
116.023609
 30
0.0
 40
0.3
 50
180.0
 51
270.0
1001
ACAD
1000
RTMaterial
1005
0
  0
ARC
  8
F01_OUT
  5
48A
 10
79.116769
 20
134.023608
 30
0.0
 40
0.3
 50
180.0
 51
191.903701
1001
ACAD
1000
RTMaterial
1005
0
  0
ARC
  8
F01_OUT
  5
48B
 10
81.916769
 20
135.523609
 30
0.0
 40
0.3
 50
0.0
 51
90.0
1001
ACAD
1000
RTMaterial
1005
0
  0
ARC
  8
F01_OUT
  5
48C
 10
79.116769
 20
136.823609
 30
0.0
 40
0.3
 50
90.0
 51
180.0
1001
ACAD
1000
RTMaterial
1005
0
  0
ARC
  8
F01_OUT
  5
48D
 10
80.416769
 20
136.823609
 30
0.0
 40
0.3
 50
0.0
 51
90.0
1001
ACAD
1000
RTMaterial
1005
0
  0
ARC
  8
F01_OUT
  5
48E
 10
81.016769
 20
136.123609
 30
0.0
 40
0.3
 50
180.0
 51
270.0
1001
ACAD
1000
RTMaterial
1005
0
  0
LINE
  8
F01_OUT
  5
48F
 10
43.216769
 20
137.923609
 30
0.0
 11
46.716769
 21
137.923609
 31
0.0
1001
ACAD
1000
RTMaterial
1005
0
  0
LINE
  8
F01_OUT
  5
490
 10
51.916769
 20
137.923609
 30
0.0
 11
53.666769
 21
137.923609
 31
0.0
1001
ACAD
1000
RTMaterial
1005
0
  0
LINE
  8
F01_OUT
  5
491
 10
53.666769
 20
137.923609
 30
0.0
 11
55.416769
 21
137.923609
 31
0.0
1001
ACAD
1000
RTMaterial
1005
0
  0
LINE
  8
F01_OUT
  5
492
 10
56.416769
 20
137.923609
 30
0.0
 11
57.866769
 21
137.923609
 31
0.0
1001
ACAD
1000
RTMaterial
1005
0
  0
LINE
  8
F01_OUT
  5
493
 10
58.166769
 20
137.923609
 30
0.0
 11
59.616769
 21
137.923609
 31
0.0
1001
ACAD
1000
RTMaterial
1005
0
  0
LINE
  8
F01_OUT
  5
494
 10
55.416769
 20
137.923609
 30
0.0
 11
55.916769
 21
137.923609
 31
0.0
1001
ACAD
1000
RTMaterial
1005
0
  0
LINE
  8
F01_OUT
  5
495
 10
59.616769
 20
137.923609
 30
0.0
 11
60.116769
 21
137.923609
 31
0.0
1001
ACAD
1000
RTMaterial
1005
0
  0
LINE
  8
F01_OUT
  5
496
 10
51.416769
 20
137.923609
 30
0.0
 11
51.666769
 21
137.923609
 31
0.0
1001
ACAD
1000
RTMaterial
1005
0
  0
LINE
  8
F01_OUT
  5
497
 10
51.666769
 20
137.923609
 30
0.0
 11
51.916769
 21
137.923609
 31
0.0
1001
ACAD
1000
RTMaterial
1005
0
  0
LINE
  8
F01_OUT
  5
498
 10
55.916769
 20
137.923609
 30
0.0
 11
56.416769
 21
137.923609
 31
0.0
1001
ACAD
1000
RTMaterial
1005
0
  0
LINE
  8
F01_OUT
  5
499
 10
60.116769
 20
137.923609
 30
0.0
 11
60.616769
 21
137.923609
 31
0.0
1001
ACAD
1000
RTMaterial
1005
0
  0
LINE
  8
F01_OUT
  5
49A
 10
58.166769
 20
137.923609
 30
0.0
 11
57.866769
 21
137.923609
 31
0.0
1001
ACAD
1000
RTMaterial
1005
0
  0
LINE
  8
F01_OUT
  5
49B
 10
49.466769
 20
137.923609
 30
0.0
 11
50.916769
 21
137.923609
 31
0.0
1001
ACAD
1000
RTMaterial
1005
0
  0
LINE
  8
F01_OUT
  5
49C
 10
50.916769
 20
137.923609
 30
0.0
 11
51.416769
 21
137.923609
 31
0.0
1001
ACAD
1000
RTMaterial
1005
0
  0
LINE
  8
F01_OUT
  5
49D
 10
47.216769
 20
137.923609
 30
0.0
 11
47.716769
 21
137.923609
 31
0.0
1001
ACAD
1000
RTMaterial
1005
0
  0
LINE
  8
F01_OUT
  5
49E
 10
46.775378
 20
137.923609
 30
0.0
 11
47.216769
 21
137.923609
 31
0.0
1001
ACAD
1000
RTMaterial
1005
0
  0
LINE
  8
F01_OUT
  5
49F
 10
46.716769
 20
137.923609
 30
0.0
 11
46.775378
 21
137.923609
 31
0.0
1001
ACAD
1000
RTMaterial
1005
0
  0
LINE
  8
F01_OUT
  5
4A0
 10
47.716769
 20
137.923609
 30
0.0
 11
49.166769
 21
137.923609
 31
0.0
1001
ACAD
1000
RTMaterial
1005
0
  0
LINE
  8
F01_OUT
  5
4A1
 10
42.716769
 20
137.923609
 30
0.0
 11
43.216769
 21
137.923609
 31
0.0
1001
ACAD
1000
RTMaterial
1005
0
  0
LINE
  8
F01_OUT
  5
4A2
 10
49.466769
 20
137.923609
 30
0.0
 11
49.166769
 21
137.923609
 31
0.0
1001
ACAD
1000
RTMaterial
1005
0
  0
LINE
  8
F01_OUT
  5
4A3
 10
42.216769
 20
137.923609
 30
0.0
 11
42.716769
 21
137.923609
 31
0.0
1001
ACAD
1000
RTMaterial
1005
0
  0
LINE
  8
F01_OUT
  5
4A4
 10
41.091769
 20
137.923609
 30
0.0
 11
42.216769
 21
137.923609
 31
0.0
1001
ACAD
1000
RTMaterial
1005
0
  0
LINE
  8
F01_OUT
  5
4A5
 10
40.966769
 20
137.923609
 30
0.0
 11
41.091769
 21
137.923609
 31
0.0
1001
ACAD
1000
RTMaterial
1005
0
  0
LINE
  8
F01_OUT
  5
4A6
 10
40.966769
 20
137.423609
 30
0.0
 11
40.966769
 21
137.923609
 31
0.0
1001
ACAD
1000
RTMaterial
1005
0
  0
LINE
  8
F01_OUT
  5
4A7
 10
83.766769
 20
135.323609
 30
0.0
 11
84.866769
 21
135.323609
 31
0.0
1001
ACAD
1000
RTMaterial
1005
0
  0
LINE
  8
F01_OUT
  5
4A8
 10
84.866769
 20
135.323609
 30
0.0
 11
84.866769
 21
133.323609
 31
0.0
1001
ACAD
1000
RTMaterial
1005
0
  0
LINE
  8
F01_OUT
  5
4A9
 10
83.766769
 20
137.923609
 30
0.0
 11
83.766769
 21
136.823609
 31
0.0
1001
ACAD
1000
RTMaterial
1005
0
  0
LINE
  8
F01_OUT
  5
4AA
 10
82.727149
 20
137.923609
 30
0.0
 11
83.641769
 21
137.923609
 31
0.0
1001
ACAD
1000
RTMaterial
1005
0
  0
LINE
  8
F01_OUT
  5
4AB
 10
83.766769
 20
136.823609
 30
0.0
 11
83.766769
 21
135.623609
 31
0.0
1001
ACAD
1000
RTMaterial
1005
0
  0
LINE
  8
F01_OUT
  5
4AC
 10
83.641769
 20
137.923609
 30
0.0
 11
83.766769
 21
137.923609
 31
0.0
1001
ACAD
1000
RTMaterial
1005
0
  0
LINE
  8
F01_OUT
  5
4AD
 10
83.766769
 20
135.623609
 30
0.0
 11
83.766769
 21
135.323609
 31
0.0
1001
ACAD
1000
RTMaterial
1005
0
  0
LINE
  8
F01_OUT
  5
4AE
 10
83.766769
 20
116.023609
 30
0.0
 11
83.866769
 21
116.023609
 31
0.0
1001
ACAD
1000
RTMaterial
1005
0
  0
LINE
  8
F01_OUT
  5
4AF
 10
83.766769
 20
117.223609
 30
0.0
 11
83.766769
 21
116.023609
 31
0.0
1001
ACAD
1000
RTMaterial
1005
0
  0
LINE
  8
F01_OUT
  5
4B0
 10
83.766769
 20
117.523609
 30
0.0
 11
83.766769
 21
117.223609
 31
0.0
1001
ACAD
1000
RTMaterial
1005
0
  0
LINE
  8
F01_OUT
  5
4B1
 10
83.866769
 20
117.223609
 30
0.0
 11
83.766769
 21
117.223609
 31
0.0
1001
ACAD
1000
RTMaterial
1005
0
  0
LINE
  8
F01_OUT
  5
4B2
 10
84.866769
 20
117.523609
 30
0.0
 11
83.766769
 21
117.523609
 31
0.0
1001
ACAD
1000
RTMaterial
1005
0
  0
LINE
  8
F01_OUT
  5
4B3
 10
81.016769
 20
117.023609
 30
0.0
 11
81.916769
 21
117.023609
 31
0.0
1001
ACAD
1000
RTMaterial
1005
0
  0
LINE
  8
F01_OUT
  5
4B4
 10
84.866769
 20
119.523609
 30
0.0
 11
84.866769
 21
117.523609
 31
0.0
1001
ACAD
1000
RTMaterial
1005
0
  0
LINE
  8
F01_OUT
  5
4B5
 10
82.216769
 20
117.323609
 30
0.0
 11
82.216769
 21
118.423609
 31
0.0
1001
ACAD
1000
RTMaterial
1005
0
  0
LINE
  8
F01_OUT
  5
4B6
 10
82.216769
 20
118.423609
 30
0.0
 11
82.216769
 21
118.88549
 31
0.0
1001
ACAD
1000
RTMaterial
1005
0
  0
LINE
  8
F01_OUT
  5
4B7
 10
80.716769
 20
116.723609
 30
0.0
 11
80.716769
 21
116.023609
 31
0.0
1001
ACAD
1000
RTMaterial
1005
0
  0
LINE
  8
F01_OUT
  5
4B8
 10
82.216769
 20
118.88549
 30
0.0
 11
78.816769
 21
118.88549
 31
0.0
1001
ACAD
1000
RTMaterial
1005
0
  0
LINE
  8
F01_OUT
  5
4B9
 10
78.816769
 20
116.023609
 30
0.0
 11
78.816769
 21
118.423609
 31
0.0
1001
ACAD
1000
RTMaterial
1005
0
  0
LINE
  8
F01_OUT
  5
4BA
 10
78.816769
 20
118.423609
 30
0.0
 11
78.816769
 21
118.88549
 31
0.0
1001
ACAD
1000
RTMaterial
1005
0
  0
LINE
  8
F01_OUT
  5
4BB
 10
78.166769
 20
114.923609
 30
0.0
 11
75.566769
 21
114.923609
 31
0.0
1001
ACAD
1000
RTMaterial
1005
0
  0
LINE
  8
F01_OUT
  5
4BC
 10
73.316769
 20
114.923609
 30
0.0
 11
73.066769
 21
114.923609
 31
0.0
1001
ACAD
1000
RTMaterial
1005
0
  0
LINE
  8
F01_OUT
  5
4BD
 10
73.066769
 20
114.923609
 30
0.0
 11
72.816769
 21
114.923609
 31
0.0
1001
ACAD
1000
RTMaterial
1005
0
  0
LINE
  8
F01_OUT
  5
4BE
 10
75.266769
 20
114.923609
 30
0.0
 11
75.566769
 21
114.923609
 31
0.0
1001
ACAD
1000
RTMaterial
1005
0
  0
LINE
  8
F01_OUT
  5
4BF
 10
75.266769
 20
114.923609
 30
0.0
 11
73.816769
 21
114.923609
 31
0.0
1001
ACAD
1000
RTMaterial
1005
0
  0
LINE
  8
F01_OUT
  5
4C0
 10
73.816769
 20
114.923609
 30
0.0
 11
73.316769
 21
114.923609
 31
0.0
1001
ACAD
1000
RTMaterial
1005
0
  0
LINE
  8
F01_OUT
  5
4C1
 10
72.816769
 20
114.923609
 30
0.0
 11
71.066769
 21
114.923609
 31
0.0
1001
ACAD
1000
RTMaterial
1005
0
  0
LINE
  8
F01_OUT
  5
4C2
 10
83.641769
 20
114.923609
 30
0.0
 11
82.727149
 21
114.923609
 31
0.0
1001
ACAD
1000
RTMaterial
1005
0
  0
LINE
  8
F01_OUT
  5
4C3
 10
83.766769
 20
114.923609
 30
0.0
 11
83.641769
 21
114.923609
 31
0.0
1001
ACAD
1000
RTMaterial
1005
0
  0
LINE
  8
F01_OUT
  5
4C4
 10
80.416769
 20
115.723609
 30
0.0
 11
79.116769
 21
115.723609
 31
0.0
1001
ACAD
1000
RTMaterial
1005
0
  0
LINE
  8
F01_OUT
  5
4C5
 10
81.366769
 20
114.923609
 30
0.0
 11
78.166769
 21
114.923609
 31
0.0
1001
ACAD
1000
RTMaterial
1005
0
  0
LINE
  8
F01_OUT
  5
4C6
 10
82.727149
 20
114.923609
 30
0.0
 11
81.366769
 21
114.923609
 31
0.0
1001
ACAD
1000
RTMaterial
1005
0
  0
LINE
  8
F01_OUT
  5
4C7
 10
83.766769
 20
116.023609
 30
0.0
 11
83.766769
 21
114.923609
 31
0.0
1001
ACAD
1000
RTMaterial
1005
0
  0
LINE
  8
F01_OUT
  5
4C8
 10
68.316769
 20
114.923609
 30
0.0
 11
66.866769
 21
114.923609
 31
0.0
1001
ACAD
1000
RTMaterial
1005
0
  0
LINE
  8
F01_OUT
  5
4C9
 10
68.816769
 20
114.923609
 30
0.0
 11
68.316769
 21
114.923609
 31
0.0
1001
ACAD
1000
RTMaterial
1005
0
  0
LINE
  8
F01_OUT
  5
4CA
 10
66.566769
 20
114.923609
 30
0.0
 11
66.866769
 21
114.923609
 31
0.0
1001
ACAD
1000
RTMaterial
1005
0
  0
LINE
  8
F01_OUT
  5
4CB
 10
71.066769
 20
114.923609
 30
0.0
 11
69.316769
 21
114.923609
 31
0.0
1001
ACAD
1000
RTMaterial
1005
0
  0
LINE
  8
F01_OUT
  5
4CC
 10
69.316769
 20
114.923609
 30
0.0
 11
68.816769
 21
114.923609
 31
0.0
1001
ACAD
1000
RTMaterial
1005
0
  0
LINE
  8
F01_OUT
  5
4CD
 10
64.116769
 20
114.923609
 30
0.0
 11
60.616769
 21
114.923609
 31
0.0
1001
ACAD
1000
RTMaterial
1005
0
  0
LINE
  8
F01_OUT
  5
4CE
 10
60.616769
 20
114.923609
 30
0.0
 11
60.116769
 21
114.923609
 31
0.0
1001
ACAD
1000
RTMaterial
1005
0
  0
LINE
  8
F01_OUT
  5
4CF
 10
66.566769
 20
114.923609
 30
0.0
 11
65.116769
 21
114.923609
 31
0.0
1001
ACAD
1000
RTMaterial
1005
0
  0
LINE
  8
F01_OUT
  5
4D0
 10
65.116769
 20
114.923609
 30
0.0
 11
64.616769
 21
114.923609
 31
0.0
1001
ACAD
1000
RTMaterial
1005
0
  0
LINE
  8
F01_OUT
  5
4D1
 10
64.616769
 20
114.923609
 30
0.0
 11
64.116769
 21
114.923609
 31
0.0
1001
ACAD
1000
RTMaterial
1005
0
  0
LINE
  8
F01_OUT
  5
4D2
 10
60.116769
 20
114.923609
 30
0.0
 11
59.616769
 21
114.923609
 31
0.0
1001
ACAD
1000
RTMaterial
1005
0
  0
LINE
  8
F01_OUT
  5
4D3
 10
82.216769
 20
133.961728
 30
0.0
 11
78.82322
 21
133.961728
 31
0.0
1001
ACAD
1000
RTMaterial
1005
0
  0
LINE
  8
F01_OUT
  5
4D4
 10
75.566769
 20
137.923609
 30
0.0
 11
75.266769
 21
137.923609
 31
0.0
1001
ACAD
1000
RTMaterial
1005
0
  0
LINE
  8
F01_OUT
  5
4D5
 10
78.816769
 20
136.823609
 30
0.0
 11
78.816769
 21
134.423608
 31
0.0
1001
ACAD
1000
RTMaterial
1005
0
  0
LINE
  8
F01_OUT
  5
4D6
 10
78.816769
 20
134.423608
 30
0.0
 11
78.816769
 21
134.023608
 31
0.0
1001
ACAD
1000
RTMaterial
1005
0
  0
LINE
  8
F01_OUT
  5
4D7
 10
75.566769
 20
137.923609
 30
0.0
 11
78.166769
 21
137.923609
 31
0.0
1001
ACAD
1000
RTMaterial
1005
0
  0
LINE
  8
F01_OUT
  5
4D8
 10
73.316769
 20
137.923609
 30
0.0
 11
73.816769
 21
137.923609
 31
0.0
1001
ACAD
1000
RTMaterial
1005
0
  0
LINE
  8
F01_OUT
  5
4D9
 10
73.816769
 20
137.923609
 30
0.0
 11
75.266769
 21
137.923609
 31
0.0
1001
ACAD
1000
RTMaterial
1005
0
  0
LINE
  8
F01_OUT
  5
4DA
 10
72.816769
 20
137.923609
 30
0.0
 11
73.066769
 21
137.923609
 31
0.0
1001
ACAD
1000
RTMaterial
1005
0
  0
LINE
  8
F01_OUT
  5
4DB
 10
73.066769
 20
137.923609
 30
0.0
 11
73.316769
 21
137.923609
 31
0.0
1001
ACAD
1000
RTMaterial
1005
0
  0
LINE
  8
F01_OUT
  5
4DC
 10
82.216769
 20
134.423608
 30
0.0
 11
82.216769
 21
135.523609
 31
0.0
1001
ACAD
1000
RTMaterial
1005
0
  0
LINE
  8
F01_OUT
  5
4DD
 10
82.216769
 20
133.961728
 30
0.0
 11
82.216769
 21
134.423608
 31
0.0
1001
ACAD
1000
RTMaterial
1005
0
  0
LINE
  8
F01_OUT
  5
4DE
 10
81.366769
 20
137.923609
 30
0.0
 11
82.727149
 21
137.923609
 31
0.0
1001
ACAD
1000
RTMaterial
1005
0
  0
LINE
  8
F01_OUT
  5
4DF
 10
68.316769
 20
137.923609
 30
0.0
 11
68.816769
 21
137.923609
 31
0.0
1001
ACAD
1000
RTMaterial
1005
0
  0
LINE
  8
F01_OUT
  5
4E0
 10
71.066769
 20
137.923609
 30
0.0
 11
72.816769
 21
137.923609
 31
0.0
1001
ACAD
1000
RTMaterial
1005
0
  0
LINE
  8
F01_OUT
  5
4E1
 10
68.816769
 20
137.923609
 30
0.0
 11
69.316769
 21
137.923609
 31
0.0
1001
ACAD
1000
RTMaterial
1005
0
  0
LINE
  8
F01_OUT
  5
4E2
 10
69.316769
 20
137.923609
 30
0.0
 11
71.066769
 21
137.923609
 31
0.0
1001
ACAD
1000
RTMaterial
1005
0
  0
LINE
  8
F01_OUT
  5
4E3
 10
66.866769
 20
137.923609
 30
0.0
 11
66.566769
 21
137.923609
 31
0.0
1001
ACAD
1000
RTMaterial
1005
0
  0
LINE
  8
F01_OUT
  5
4E4
 10
66.866769
 20
137.923609
 30
0.0
 11
68.316769
 21
137.923609
 31
0.0
1001
ACAD
1000
RTMaterial
1005
0
  0
LINE
  8
F01_OUT
  5
4E5
 10
78.166769
 20
137.923609
 30
0.0
 11
81.366769
 21
137.923609
 31
0.0
1001
ACAD
1000
RTMaterial
1005
0
  0
LINE
  8
F01_OUT
  5
4E6
 10
65.116769
 20
137.923609
 30
0.0
 11
66.566769
 21
137.923609
 31
0.0
1001
ACAD
1000
RTMaterial
1005
0
  0
LINE
  8
F01_OUT
  5
4E7
 10
80.416769
 20
137.123609
 30
0.0
 11
79.116769
 21
137.123609
 31
0.0
1001
ACAD
1000
RTMaterial
1005
0
  0
LINE
  8
F01_OUT
  5
4E8
 10
80.716769
 20
136.123609
 30
0.0
 11
80.716769
 21
136.823609
 31
0.0
1001
ACAD
1000
RTMaterial
1005
0
  0
LINE
  8
F01_OUT
  5
4E9
 10
81.916769
 20
135.823609
 30
0.0
 11
81.016769
 21
135.823609
 31
0.0
1001
ACAD
1000
RTMaterial
1005
0
  0
LINE
  8
F01_OUT
  5
4EA
 10
46.716769
 20
114.923609
 30
0.0
 11
43.216769
 21
114.923609
 31
0.0
1001
ACAD
1000
RTMaterial
1005
0
  0
LINE
  8
F01_OUT
  5
4EB
 10
49.166769
 20
114.923609
 30
0.0
 11
47.716769
 21
114.923609
 31
0.0
1001
ACAD
1000
RTMaterial
1005
0
  0
LINE
  8
F01_OUT
  5
4EC
 10
57.866769
 20
114.923609
 30
0.0
 11
56.416769
 21
114.923609
 31
0.0
1001
ACAD
1000
RTMaterial
1005
0
  0
LINE
  8
F01_OUT
  5
4ED
 10
55.416769
 20
114.923609
 30
0.0
 11
53.666769
 21
114.923609
 31
0.0
1001
ACAD
1000
RTMaterial
1005
0
  0
LINE
  8
F01_OUT
  5
4EE
 10
55.916769
 20
114.923609
 30
0.0
 11
55.416769
 21
114.923609
 31
0.0
1001
ACAD
1000
RTMaterial
1005
0
  0
LINE
  8
F01_OUT
  5
4EF
 10
50.916769
 20
114.923609
 30
0.0
 11
49.466769
 21
114.923609
 31
0.0
1001
ACAD
1000
RTMaterial
1005
0
  0
LINE
  8
F01_OUT
  5
4F0
 10
51.666769
 20
114.923609
 30
0.0
 11
51.416769
 21
114.923609
 31
0.0
1001
ACAD
1000
RTMaterial
1005
0
  0
LINE
  8
F01_OUT
  5
4F1
 10
47.216769
 20
114.923609
 30
0.0
 11
46.775378
 21
114.923609
 31
0.0
1001
ACAD
1000
RTMaterial
1005
0
  0
LINE
  8
F01_OUT
  5
4F2
 10
46.775378
 20
114.923609
 30
0.0
 11
46.716769
 21
114.923609
 31
0.0
1001
ACAD
1000
RTMaterial
1005
0
  0
LINE
  8
F01_OUT
  5
4F3
 10
49.166769
 20
114.923609
 30
0.0
 11
49.466769
 21
114.923609
 31
0.0
1001
ACAD
1000
RTMaterial
1005
0
  0
LINE
  8
F01_OUT
  5
4F4
 10
51.416769
 20
114.923609
 30
0.0
 11
50.916769
 21
114.923609
 31
0.0
1001
ACAD
1000
RTMaterial
1005
0
  0
LINE
  8
F01_OUT
  5
4F5
 10
47.716769
 20
114.923609
 30
0.0
 11
47.216769
 21
114.923609
 31
0.0
1001
ACAD
1000
RTMaterial
1005
0
  0
LINE
  8
F01_OUT
  5
4F6
 10
57.866769
 20
114.923609
 30
0.0
 11
58.166769
 21
114.923609
 31
0.0
1001
ACAD
1000
RTMaterial
1005
0
  0
LINE
  8
F01_OUT
  5
4F7
 10
56.416769
 20
114.923609
 30
0.0
 11
55.916769
 21
114.923609
 31
0.0
1001
ACAD
1000
RTMaterial
1005
0
  0
LINE
  8
F01_OUT
  5
4F8
 10
51.916769
 20
114.923609
 30
0.0
 11
51.666769
 21
114.923609
 31
0.0
1001
ACAD
1000
RTMaterial
1005
0
  0
LINE
  8
F01_OUT
  5
4F9
 10
53.666769
 20
114.923609
 30
0.0
 11
51.916769
 21
114.923609
 31
0.0
1001
ACAD
1000
RTMaterial
1005
0
  0
LINE
  8
F01_OUT
  5
4FA
 10
59.616769
 20
114.923609
 30
0.0
 11
58.166769
 21
114.923609
 31
0.0
1001
ACAD
1000
RTMaterial
1005
0
  0
LINE
  8
F01_OUT
  5
4FB
 10
42.216769
 20
114.923609
 30
0.0
 11
41.091769
 21
114.923609
 31
0.0
1001
ACAD
1000
RTMaterial
1005
0
  0
LINE
  8
F01_OUT
  5
4FC
 10
43.216769
 20
114.923609
 30
0.0
 11
42.716769
 21
114.923609
 31
0.0
1001
ACAD
1000
RTMaterial
1005
0
  0
LINE
  8
F01_OUT
  5
4FD
 10
42.716769
 20
114.923609
 30
0.0
 11
42.216769
 21
114.923609
 31
0.0
1001
ACAD
1000
RTMaterial
1005
0
  0
LINE
  8
F01_OUT
  5
4FE
 10
41.091769
 20
114.923609
 30
0.0
 11
40.966769
 21
114.923609
 31
0.0
1001
ACAD
1000
RTMaterial
1005
0
  0
LINE
  8
F01_OUT
  5
4FF
 10
40.966769
 20
114.923609
 30
0.0
 11
40.966769
 21
115.423609
 31
0.0
1001
ACAD
1000
RTMaterial
1005
0
  0
LINE
  8
F01_OUT
  5
500
 10
64.616769
 20
137.923609
 30
0.0
 11
65.116769
 21
137.923609
 31
0.0
1001
ACAD
1000
RTMaterial
1005
0
  0
LINE
  8
F01_OUT
  5
501
 10
60.616769
 20
137.923609
 30
0.0
 11
64.116769
 21
137.923609
 31
0.0
1001
ACAD
1000
RTMaterial
1005
0
  0
LINE
  8
F01_OUT
  5
502
 10
64.116769
 20
137.923609
 30
0.0
 11
64.616769
 21
137.923609
 31
0.0
1001
ACAD
1000
RTMaterial
1005
0
  0
ARC
  8
F01_OUT
  5
503
 10
58.191769
 20
150.123609
 30
0.0
 40
0.3
 50
0.0
 51
90.0
1001
ACAD
1000
RTMaterial
1005
0
  0
ARC
  8
F01_OUT
  5
504
 10
57.841769
 20
150.123609
 30
0.0
 40
0.3
 50
90.0
 51
180.0
1001
ACAD
1000
RTMaterial
1005
0
  0
ARC
  8
F01_OUT
  5
505
 10
49.491769
 20
150.123609
 30
0.0
 40
0.3
 50
0.0
 51
90.0
1001
ACAD
1000
RTMaterial
1005
0
  0
ARC
  8
F01_OUT
  5
506
 10
49.141769
 20
150.123609
 30
0.0
 40
0.3
 50
90.0
 51
180.0
1001
ACAD
1000
RTMaterial
1005
0
  0
ARC
  8
F01_OUT
  5
507
 10
40.791769
 20
150.123609
 30
0.0
 40
0.3
 50
0.0
 51
90.0
1001
ACAD
1000
RTMaterial
1005
0
  0
ARC
  8
F01_OUT
  5
508
 10
40.166769
 20
150.123609
 30
0.0
 40
0.3
 50
90.0
 51
180.0
1001
ACAD
1000
RTMaterial
1005
0
  0
ARC
  8
F01_OUT
  5
509
 10
83.941769
 20
150.123609
 30
0.0
 40
0.3
 50
90.0
 51
180.0
1001
ACAD
1000
RTMaterial
1005
0
  0
ARC
  8
F01_OUT
  5
50A
 10
84.566769
 20
150.123609
 30
0.0
 40
0.3
 50
0.0
 51
90.0
1001
ACAD
1000
RTMaterial
1005
0
  0
ARC
  8
F01_OUT
  5
50B
 10
66.541769
 20
102.723609
 30
0.0
 40
0.3
 50
180.0
 51
270.0
1001
ACAD
1000
RTMaterial
1005
0
  0
ARC
  8
F01_OUT
  5
50C
 10
75.241769
 20
102.723609
 30
0.0
 40
0.3
 50
180.0
 51
270.0
1001
ACAD
1000
RTMaterial
1005
0
  0
ARC
  8
F01_OUT
  5
50D
 10
83.941769
 20
102.723609
 30
0.0
 40
0.3
 50
180.0
 51
270.0
1001
ACAD
1000
RTMaterial
1005
0
  0
ARC
  8
F01_OUT
  5
50E
 10
84.566769
 20
102.723609
 30
0.0
 40
0.3
 50
270.0
 51
0.0
1001
ACAD
1000
RTMaterial
1005
0
  0
ARC
  8
F01_OUT
  5
50F
 10
66.891769
 20
102.723609
 30
0.0
 40
0.3
 50
270.0
 51
0.0
1001
ACAD
1000
RTMaterial
1005
0
  0
ARC
  8
F01_OUT
  5
510
 10
75.591769
 20
102.723609
 30
0.0
 40
0.3
 50
270.0
 51
0.0
1001
ACAD
1000
RTMaterial
1005
0
  0
ARC
  8
F01_OUT
  5
511
 10
66.541769
 20
150.123609
 30
0.0
 40
0.3
 50
90.0
 51
180.0
1001
ACAD
1000
RTMaterial
1005
0
  0
ARC
  8
F01_OUT
  5
512
 10
66.891769
 20
150.123609
 30
0.0
 40
0.3
 50
0.0
 51
90.0
1001
ACAD
1000
RTMaterial
1005
0
  0
ARC
  8
F01_OUT
  5
513
 10
75.591769
 20
150.123609
 30
0.0
 40
0.3
 50
0.0
 51
90.0
1001
ACAD
1000
RTMaterial
1005
0
  0
ARC
  8
F01_OUT
  5
514
 10
75.241769
 20
150.123609
 30
0.0
 40
0.3
 50
90.0
 51
180.0
1001
ACAD
1000
RTMaterial
1005
0
  0
ARC
  8
F01_OUT
  5
515
 10
49.141769
 20
102.723609
 30
0.0
 40
0.3
 50
180.0
 51
270.0
1001
ACAD
1000
RTMaterial
1005
0
  0
ARC
  8
F01_OUT
  5
516
 10
58.191769
 20
102.723609
 30
0.0
 40
0.3
 50
270.0
 51
0.0
1001
ACAD
1000
RTMaterial
1005
0
  0
ARC
  8
F01_OUT
  5
517
 10
40.791769
 20
102.723609
 30
0.0
 40
0.3
 50
270.0
 51
0.0
1001
ACAD
1000
RTMaterial
1005
0
  0
ARC
  8
F01_OUT
  5
518
 10
40.166769
 20
102.723609
 30
0.0
 40
0.3
 50
180.0
 51
270.0
1001
ACAD
1000
RTMaterial
1005
0
  0
ARC
  8
F01_OUT
  5
519
 10
57.841769
 20
102.723609
 30
0.0
 40
0.3
 50
180.0
 51
270.0
1001
ACAD
1000
RTMaterial
1005
0
  0
ARC
  8
F01_OUT
  5
51A
 10
49.491769
 20
102.723609
 30
0.0
 40
0.3
 50
270.0
 51
0.0
1001
ACAD
1000
RTMaterial
1005
0
  0
LINE
  8
F01_OUT
  5
51B
 10
43.216769
 20
137.923609
 30
0.0
 11
46.716769
 21
137.923609
 31
0.0
1001
ACAD
1000
RTMaterial
1005
0
  0
LINE
  8
F01_OUT
  5
51C
 10
46.716769
 20
137.923609
 30
0.0
 11
46.775378
 21
137.923609
 31
0.0
1001
ACAD
1000
RTMaterial
1005
0
  0
LINE
  8
F01_OUT
  5
51D
 10
42.716769
 20
137.923609
 30
0.0
 11
43.216769
 21
137.923609
 31
0.0
1001
ACAD
1000
RTMaterial
1005
0
  0
LINE
  8
F01_OUT
  5
51E
 10
42.216769
 20
137.923609
 30
0.0
 11
42.716769
 21
137.923609
 31
0.0
1001
ACAD
1000
RTMaterial
1005
0
  0
LINE
  8
F01_OUT
  5
51F
 10
41.091769
 20
137.923609
 30
0.0
 11
42.216769
 21
137.923609
 31
0.0
1001
ACAD
1000
RTMaterial
1005
0
  0
LINE
  8
F01_OUT
  5
520
 10
39.866769
 20
136.923609
 30
0.0
 11
39.866769
 21
137.923609
 31
0.0
1001
ACAD
1000
RTMaterial
1005
0
  0
LINE
  8
F01_OUT
  5
521
 10
39.866769
 20
145.823609
 30
0.0
 11
39.866769
 21
137.923609
 31
0.0
1001
ACAD
1000
RTMaterial
1005
0
  0
LINE
  8
F01_OUT
  5
522
 10
41.091769
 20
145.923609
 30
0.0
 11
41.091769
 21
146.923609
 31
0.0
1001
ACAD
1000
RTMaterial
1005
0
  0
LINE
  8
F01_OUT
  5
523
 10
41.091769
 20
145.823609
 30
0.0
 11
41.091769
 21
145.923609
 31
0.0
1001
ACAD
1000
RTMaterial
1005
0
  0
LINE
  8
F01_OUT
  5
524
 10
40.166769
 20
150.423609
 30
0.0
 11
40.791769
 21
150.423609
 31
0.0
1001
ACAD
1000
RTMaterial
1005
0
  0
LINE
  8
F01_OUT
  5
525
 10
39.866769
 20
150.123609
 30
0.0
 11
39.866769
 21
145.823609
 31
0.0
1001
ACAD
1000
RTMaterial
1005
0
  0
LINE
  8
F01_OUT
  5
526
 10
57.541769
 20
150.123609
 30
0.0
 11
57.541769
 21
146.923609
 31
0.0
1001
ACAD
1000
RTMaterial
1005
0
  0
LINE
  8
F01_OUT
  5
527
 10
58.491769
 20
146.923609
 30
0.0
 11
58.491769
 21
150.123609
 31
0.0
1001
ACAD
1000
RTMaterial
1005
0
  0
LINE
  8
F01_OUT
  5
528
 10
41.091769
 20
150.123609
 30
0.0
 11
41.091769
 21
146.923609
 31
0.0
1001
ACAD
1000
RTMaterial
1005
0
  0
LINE
  8
F01_OUT
  5
529
 10
49.141769
 20
150.423609
 30
0.0
 11
49.491769
 21
150.423609
 31
0.0
1001
ACAD
1000
RTMaterial
1005
0
  0
LINE
  8
F01_OUT
  5
52A
 10
57.841769
 20
150.423609
 30
0.0
 11
58.191769
 21
150.423609
 31
0.0
1001
ACAD
1000
RTMaterial
1005
0
  0
LINE
  8
F01_OUT
  5
52B
 10
84.866769
 20
135.323609
 30
0.0
 11
84.866769
 21
133.323609
 31
0.0
1001
ACAD
1000
RTMaterial
1005
0
  0
LINE
  8
F01_OUT
  5
52C
 10
84.866769
 20
135.423609
 30
0.0
 11
84.866769
 21
135.323609
 31
0.0
1001
ACAD
1000
RTMaterial
1005
0
  0
LINE
  8
F01_OUT
  5
52D
 10
84.866769
 20
145.823609
 30
0.0
 11
84.866769
 21
137.923609
 31
0.0
1001
ACAD
1000
RTMaterial
1005
0
  0
LINE
  8
F01_OUT
  5
52E
 10
82.727149
 20
137.923609
 30
0.0
 11
83.641769
 21
137.923609
 31
0.0
1001
ACAD
1000
RTMaterial
1005
0
  0
LINE
  8
F01_OUT
  5
52F
 10
84.866769
 20
137.923609
 30
0.0
 11
84.866769
 21
135.923609
 31
0.0
1001
ACAD
1000
RTMaterial
1005
0
  0
LINE
  8
F01_OUT
  5
530
 10
84.866769
 20
135.423609
 30
0.0
 11
84.866769
 21
135.923609
 31
0.0
1001
ACAD
1000
RTMaterial
1005
0
  0
LINE
  8
F01_OUT
  5
531
 10
84.232794
 20
117.423609
 30
0.0
 11
84.866769
 21
117.423609
 31
0.0
1001
ACAD
1000
RTMaterial
1005
0
  0
LINE
  8
F01_OUT
  5
532
 10
83.866769
 20
117.423609
 30
0.0
 11
84.232794
 21
117.423609
 31
0.0
1001
ACAD
1000
RTMaterial
1005
0
  0
LINE
  8
F01_OUT
  5
533
 10
84.866769
 20
117.423609
 30
0.0
 11
84.866769
 21
116.923609
 31
0.0
1001
ACAD
1000
RTMaterial
1005
0
  0
LINE
  8
F01_OUT
  5
534
 10
84.366769
 20
115.923609
 30
0.0
 11
84.366769
 21
116.923609
 31
0.0
1001
ACAD
1000
RTMaterial
1005
0
  0
LINE
  8
F01_OUT
  5
535
 10
83.766769
 20
115.923609
 30
0.0
 11
83.866769
 21
115.923609
 31
0.0
1001
ACAD
1000
RTMaterial
1005
0
  0
LINE
  8
F01_OUT
  5
536
 10
83.866769
 20
115.923609
 30
0.0
 11
84.366769
 21
115.923609
 31
0.0
1001
ACAD
1000
RTMaterial
1005
0
  0
LINE
  8
F01_OUT
  5
537
 10
83.641769
 20
145.823609
 30
0.0
 11
83.641769
 21
150.123609
 31
0.0
1001
ACAD
1000
RTMaterial
1005
0
  0
LINE
  8
F01_OUT
  5
538
 10
84.866769
 20
145.823609
 30
0.0
 11
84.866769
 21
150.123609
 31
0.0
1001
ACAD
1000
RTMaterial
1005
0
  0
LINE
  8
F01_OUT
  5
539
 10
84.566769
 20
150.423609
 30
0.0
 11
83.941769
 21
150.423609
 31
0.0
1001
ACAD
1000
RTMaterial
1005
0
  0
LINE
  8
F01_OUT
  5
53A
 10
83.866769
 20
115.923609
 30
0.0
 11
83.866769
 21
117.423609
 31
0.0
1001
ACAD
1000
RTMaterial
1005
0
  0
LINE
  8
F01_OUT
  5
53B
 10
83.866769
 20
117.523609
 30
0.0
 11
83.866769
 21
117.423609
 31
0.0
1001
ACAD
1000
RTMaterial
1005
0
  0
LINE
  8
F01_OUT
  5
53C
 10
83.866769
 20
117.423609
 30
0.0
 11
83.766769
 21
117.423609
 31
0.0
1001
ACAD
1000
RTMaterial
1005
0
  0
LINE
  8
F01_OUT
  5
53D
 10
84.866769
 20
119.523609
 30
0.0
 11
84.866769
 21
117.523609
 31
0.0
1001
ACAD
1000
RTMaterial
1005
0
  0
LINE
  8
F01_OUT
  5
53E
 10
84.866769
 20
117.523609
 30
0.0
 11
84.866769
 21
117.423609
 31
0.0
1001
ACAD
1000
RTMaterial
1005
0
  0
LINE
  8
F01_OUT
  5
53F
 10
83.641769
 20
106.923609
 30
0.0
 11
83.641769
 21
107.023609
 31
0.0
1001
ACAD
1000
RTMaterial
1005
0
  0
LINE
  8
F01_OUT
  5
540
 10
84.866769
 20
107.023609
 30
0.0
 11
84.866769
 21
114.923609
 31
0.0
1001
ACAD
1000
RTMaterial
1005
0
  0
LINE
  8
F01_OUT
  5
541
 10
83.641769
 20
114.923609
 30
0.0
 11
82.727149
 21
114.923609
 31
0.0
1001
ACAD
1000
RTMaterial
1005
0
  0
LINE
  8
F01_OUT
  5
542
 10
81.366769
 20
114.923609
 30
0.0
 11
78.166769
 21
114.923609
 31
0.0
1001
ACAD
1000
RTMaterial
1005
0
  0
LINE
  8
F01_OUT
  5
543
 10
84.866769
 20
114.923609
 30
0.0
 11
84.866769
 21
116.923609
 31
0.0
1001
ACAD
1000
RTMaterial
1005
0
  0
LINE
  8
F01_OUT
  5
544
 10
75.891769
 20
102.723609
 30
0.0
 11
75.891769
 21
105.923609
 31
0.0
1001
ACAD
1000
RTMaterial
1005
0
  0
LINE
  8
F01_OUT
  5
545
 10
74.941769
 20
102.723609
 30
0.0
 11
74.941769
 21
105.923609
 31
0.0
1001
ACAD
1000
RTMaterial
1005
0
  0
LINE
  8
F01_OUT
  5
546
 10
84.866769
 20
102.723609
 30
0.0
 11
84.866769
 21
107.023609
 31
0.0
1001
ACAD
1000
RTMaterial
1005
0
  0
LINE
  8
F01_OUT
  5
547
 10
67.191769
 20
102.723609
 30
0.0
 11
67.191769
 21
105.923609
 31
0.0
1001
ACAD
1000
RTMaterial
1005
0
  0
LINE
  8
F01_OUT
  5
548
 10
66.241769
 20
102.723609
 30
0.0
 11
66.241769
 21
105.923609
 31
0.0
1001
ACAD
1000
RTMaterial
1005
0
  0
LINE
  8
F01_OUT
  5
549
 10
66.891769
 20
102.423609
 30
0.0
 11
66.541769
 21
102.423609
 31
0.0
1001
ACAD
1000
RTMaterial
1005
0
  0
LINE
  8
F01_OUT
  5
54A
 10
83.641769
 20
106.923609
 30
0.0
 11
83.641769
 21
102.723609
 31
0.0
1001
ACAD
1000
RTMaterial
1005
0
  0
LINE
  8
F01_OUT
  5
54B
 10
84.566769
 20
102.423609
 30
0.0
 11
83.941769
 21
102.423609
 31
0.0
1001
ACAD
1000
RTMaterial
1005
0
  0
LINE
  8
F01_OUT
  5
54C
 10
75.591769
 20
102.423609
 30
0.0
 11
75.241769
 21
102.423609
 31
0.0
1001
ACAD
1000
RTMaterial
1005
0
  0
LINE
  8
F01_OUT
  5
54D
 10
78.166769
 20
137.923609
 30
0.0
 11
81.366769
 21
137.923609
 31
0.0
1001
ACAD
1000
RTMaterial
1005
0
  0
LINE
  8
F01_OUT
  5
54E
 10
66.541769
 20
150.423609
 30
0.0
 11
66.891769
 21
150.423609
 31
0.0
1001
ACAD
1000
RTMaterial
1005
0
  0
LINE
  8
F01_OUT
  5
54F
 10
75.241769
 20
150.423609
 30
0.0
 11
75.591769
 21
150.423609
 31
0.0
1001
ACAD
1000
RTMaterial
1005
0
  0
LINE
  8
F01_OUT
  5
550
 10
66.241769
 20
150.123609
 30
0.0
 11
66.241769
 21
146.923609
 31
0.0
1001
ACAD
1000
RTMaterial
1005
0
  0
LINE
  8
F01_OUT
  5
551
 10
67.191769
 20
150.123609
 30
0.0
 11
67.191769
 21
146.923609
 31
0.0
1001
ACAD
1000
RTMaterial
1005
0
  0
LINE
  8
F01_OUT
  5
552
 10
75.891769
 20
150.123609
 30
0.0
 11
75.891769
 21
146.923609
 31
0.0
1001
ACAD
1000
RTMaterial
1005
0
  0
LINE
  8
F01_OUT
  5
553
 10
74.941769
 20
150.123609
 30
0.0
 11
74.941769
 21
146.923609
 31
0.0
1001
ACAD
1000
RTMaterial
1005
0
  0
LINE
  8
F01_OUT
  5
554
 10
46.716769
 20
114.923609
 30
0.0
 11
43.216769
 21
114.923609
 31
0.0
1001
ACAD
1000
RTMaterial
1005
0
  0
LINE
  8
F01_OUT
  5
555
 10
46.775378
 20
114.923609
 30
0.0
 11
46.716769
 21
114.923609
 31
0.0
1001
ACAD
1000
RTMaterial
1005
0
  0
LINE
  8
F01_OUT
  5
556
 10
42.216769
 20
114.923609
 30
0.0
 11
41.091769
 21
114.923609
 31
0.0
1001
ACAD
1000
RTMaterial
1005
0
  0
LINE
  8
F01_OUT
  5
557
 10
43.216769
 20
114.923609
 30
0.0
 11
42.716769
 21
114.923609
 31
0.0
1001
ACAD
1000
RTMaterial
1005
0
  0
LINE
  8
F01_OUT
  5
558
 10
42.716769
 20
114.923609
 30
0.0
 11
42.216769
 21
114.923609
 31
0.0
1001
ACAD
1000
RTMaterial
1005
0
  0
LINE
  8
F01_OUT
  5
559
 10
39.866769
 20
107.023609
 30
0.0
 11
39.866769
 21
114.923609
 31
0.0
1001
ACAD
1000
RTMaterial
1005
0
  0
LINE
  8
F01_OUT
  5
55A
 10
49.366769
 20
102.423609
 30
0.0
 11
49.141769
 21
102.423609
 31
0.0
1001
ACAD
1000
RTMaterial
1005
0
  0
LINE
  8
F01_OUT
  5
55B
 10
49.791769
 20
102.723609
 30
0.0
 11
49.791769
 21
105.923609
 31
0.0
1001
ACAD
1000
RTMaterial
1005
0
  0
LINE
  8
F01_OUT
  5
55C
 10
48.841769
 20
102.723609
 30
0.0
 11
48.841769
 21
105.923609
 31
0.0
1001
ACAD
1000
RTMaterial
1005
0
  0
LINE
  8
F01_OUT
  5
55D
 10
58.191769
 20
102.423609
 30
0.0
 11
57.841769
 21
102.423609
 31
0.0
1001
ACAD
1000
RTMaterial
1005
0
  0
LINE
  8
F01_OUT
  5
55E
 10
41.091769
 20
107.023609
 30
0.0
 11
41.091769
 21
102.723609
 31
0.0
1001
ACAD
1000
RTMaterial
1005
0
  0
LINE
  8
F01_OUT
  5
55F
 10
39.866769
 20
107.023609
 30
0.0
 11
39.866769
 21
102.723609
 31
0.0
1001
ACAD
1000
RTMaterial
1005
0
  0
LINE
  8
F01_OUT
  5
560
 10
40.166769
 20
102.423609
 30
0.0
 11
40.791769
 21
102.423609
 31
0.0
1001
ACAD
1000
RTMaterial
1005
0
  0
LINE
  8
F01_OUT
  5
561
 10
57.541769
 20
102.723609
 30
0.0
 11
57.541769
 21
105.923609
 31
0.0
1001
ACAD
1000
RTMaterial
1005
0
  0
LINE
  8
F01_OUT
  5
562
 10
58.491769
 20
102.723609
 30
0.0
 11
58.491769
 21
105.923609
 31
0.0
1001
ACAD
1000
RTMaterial
1005
0
  0
LINE
  8
F01_OUT
  5
563
 10
49.491769
 20
102.423609
 30
0.0
 11
49.366769
 21
102.423609
 31
0.0
1001
ACAD
1000
RTMaterial
1005
0
  0
LINE
  8
F01_OUT
  5
564
 10
48.841769
 20
150.123609
 30
0.0
 11
48.841769
 21
146.923609
 31
0.0
1001
ACAD
1000
RTMaterial
1005
0
  0
LINE
  8
F01_OUT
  5
565
 10
49.791769
 20
150.123609
 30
0.0
 11
49.791769
 21
146.923609
 31
0.0
1001
ACAD
1000
RTMaterial
1005
0
  0
LINE
  8
F01_OUT
  5
566
 10
66.566769
 20
105.923609
 30
0.0
 11
58.166769
 21
105.923609
 31
0.0
1001
ACAD
1000
RTMaterial
1005
0
  0
LINE
  8
F01_OUT
  5
567
 10
41.266769
 20
106.923609
 30
0.0
 11
41.091769
 21
106.923609
 31
0.0
1001
ACAD
1000
RTMaterial
1005
0
  0
LINE
  8
F01_OUT
  5
568
 10
41.266769
 20
106.923609
 30
0.0
 11
41.266769
 21
107.023609
 31
0.0
1001
ACAD
1000
RTMaterial
1005
0
  0
LINE
  8
F01_OUT
  5
569
 10
41.266769
 20
105.923609
 30
0.0
 11
41.266769
 21
106.923609
 31
0.0
1001
ACAD
1000
RTMaterial
1005
0
  0
LINE
  8
F01_OUT
  5
56A
 10
41.266769
 20
107.023609
 30
0.0
 11
39.866769
 21
107.023609
 31
0.0
1001
ACAD
1000
RTMaterial
1005
0
  0
LINE
  8
F01_OUT
  5
56B
 10
39.866769
 20
107.023609
 30
0.0
 11
39.866769
 21
114.923609
 31
0.0
1001
ACAD
1000
RTMaterial
1005
0
  0
LINE
  8
F01_OUT
  5
56C
 10
49.166769
 20
105.923609
 30
0.0
 11
49.166769
 21
114.923609
 31
0.0
1001
ACAD
1000
RTMaterial
1005
0
  0
LINE
  8
F01_OUT
  5
56D
 10
49.466769
 20
105.923609
 30
0.0
 11
49.466769
 21
114.923609
 31
0.0
1001
ACAD
1000
RTMaterial
1005
0
  0
LINE
  8
F01_OUT
  5
56E
 10
58.166769
 20
105.923609
 30
0.0
 11
58.166769
 21
114.923609
 31
0.0
1001
ACAD
1000
RTMaterial
1005
0
  0
LINE
  8
F01_OUT
  5
56F
 10
57.866769
 20
105.923609
 30
0.0
 11
57.866769
 21
114.923609
 31
0.0
1001
ACAD
1000
RTMaterial
1005
0
  0
LINE
  8
F01_OUT
  5
570
 10
49.166769
 20
105.923609
 30
0.0
 11
49.466769
 21
105.923609
 31
0.0
1001
ACAD
1000
RTMaterial
1005
0
  0
LINE
  8
F01_OUT
  5
571
 10
57.866769
 20
105.923609
 30
0.0
 11
58.166769
 21
105.923609
 31
0.0
1001
ACAD
1000
RTMaterial
1005
0
  0
LINE
  8
F01_OUT
  5
572
 10
57.866769
 20
105.923609
 30
0.0
 11
54.916769
 21
105.923609
 31
0.0
1001
ACAD
1000
RTMaterial
1005
0
  0
LINE
  8
F01_OUT
  5
573
 10
49.866769
 20
105.923609
 30
0.0
 11
49.466769
 21
105.923609
 31
0.0
1001
ACAD
1000
RTMaterial
1005
0
  0
LINE
  8
F01_OUT
  5
574
 10
49.166769
 20
105.923609
 30
0.0
 11
41.266769
 21
105.923609
 31
0.0
1001
ACAD
1000
RTMaterial
1005
0
  0
LINE
  8
F01_OUT
  5
575
 10
54.916769
 20
105.923609
 30
0.0
 11
49.866769
 21
105.923609
 31
0.0
1001
ACAD
1000
RTMaterial
1005
0
  0
LINE
  8
F01_OUT
  5
576
 10
41.091769
 20
105.923609
 30
0.0
 11
41.266769
 21
105.923609
 31
0.0
1001
ACAD
1000
RTMaterial
1005
0
  0
LINE
  8
F01_OUT
  5
577
 10
41.091769
 20
114.923609
 30
0.0
 11
40.966769
 21
114.923609
 31
0.0
1001
ACAD
1000
RTMaterial
1005
0
  0
LINE
  8
F01_OUT
  5
578
 10
40.966769
 20
114.923609
 30
0.0
 11
39.866769
 21
114.923609
 31
0.0
1001
ACAD
1000
RTMaterial
1005
0
  0
LINE
  8
F01_OUT
  5
579
 10
42.716769
 20
114.923609
 30
0.0
 11
42.216769
 21
114.923609
 31
0.0
1001
ACAD
1000
RTMaterial
1005
0
  0
LINE
  8
F01_OUT
  5
57A
 10
43.216769
 20
114.923609
 30
0.0
 11
42.716769
 21
114.923609
 31
0.0
1001
ACAD
1000
RTMaterial
1005
0
  0
LINE
  8
F01_OUT
  5
57B
 10
42.216769
 20
114.923609
 30
0.0
 11
41.091769
 21
114.923609
 31
0.0
1001
ACAD
1000
RTMaterial
1005
0
  0
LINE
  8
F01_OUT
  5
57C
 10
59.616769
 20
114.923609
 30
0.0
 11
58.166769
 21
114.923609
 31
0.0
1001
ACAD
1000
RTMaterial
1005
0
  0
LINE
  8
F01_OUT
  5
57D
 10
53.666769
 20
114.923609
 30
0.0
 11
51.916769
 21
114.923609
 31
0.0
1001
ACAD
1000
RTMaterial
1005
0
  0
LINE
  8
F01_OUT
  5
57E
 10
51.916769
 20
114.923609
 30
0.0
 11
51.666769
 21
114.923609
 31
0.0
1001
ACAD
1000
RTMaterial
1005
0
  0
LINE
  8
F01_OUT
  5
57F
 10
56.416769
 20
114.923609
 30
0.0
 11
55.916769
 21
114.923609
 31
0.0
1001
ACAD
1000
RTMaterial
1005
0
  0
LINE
  8
F01_OUT
  5
580
 10
57.866769
 20
114.923609
 30
0.0
 11
58.166769
 21
114.923609
 31
0.0
1001
ACAD
1000
RTMaterial
1005
0
  0
LINE
  8
F01_OUT
  5
581
 10
47.716769
 20
114.923609
 30
0.0
 11
47.216769
 21
114.923609
 31
0.0
1001
ACAD
1000
RTMaterial
1005
0
  0
LINE
  8
F01_OUT
  5
582
 10
51.416769
 20
114.923609
 30
0.0
 11
50.916769
 21
114.923609
 31
0.0
1001
ACAD
1000
RTMaterial
1005
0
  0
LINE
  8
F01_OUT
  5
583
 10
49.166769
 20
114.923609
 30
0.0
 11
49.466769
 21
114.923609
 31
0.0
1001
ACAD
1000
RTMaterial
1005
0
  0
LINE
  8
F01_OUT
  5
584
 10
46.775378
 20
114.923609
 30
0.0
 11
46.716769
 21
114.923609
 31
0.0
1001
ACAD
1000
RTMaterial
1005
0
  0
LINE
  8
F01_OUT
  5
585
 10
47.216769
 20
114.923609
 30
0.0
 11
46.775378
 21
114.923609
 31
0.0
1001
ACAD
1000
RTMaterial
1005
0
  0
LINE
  8
F01_OUT
  5
586
 10
51.666769
 20
114.923609
 30
0.0
 11
51.416769
 21
114.923609
 31
0.0
1001
ACAD
1000
RTMaterial
1005
0
  0
LINE
  8
F01_OUT
  5
587
 10
50.916769
 20
114.923609
 30
0.0
 11
49.466769
 21
114.923609
 31
0.0
1001
ACAD
1000
RTMaterial
1005
0
  0
LINE
  8
F01_OUT
  5
588
 10
55.916769
 20
114.923609
 30
0.0
 11
55.416769
 21
114.923609
 31
0.0
1001
ACAD
1000
RTMaterial
1005
0
  0
LINE
  8
F01_OUT
  5
589
 10
55.416769
 20
114.923609
 30
0.0
 11
53.666769
 21
114.923609
 31
0.0
1001
ACAD
1000
RTMaterial
1005
0
  0
LINE
  8
F01_OUT
  5
58A
 10
57.866769
 20
114.923609
 30
0.0
 11
56.416769
 21
114.923609
 31
0.0
1001
ACAD
1000
RTMaterial
1005
0
  0
LINE
  8
F01_OUT
  5
58B
 10
49.166769
 20
114.923609
 30
0.0
 11
47.716769
 21
114.923609
 31
0.0
1001
ACAD
1000
RTMaterial
1005
0
  0
LINE
  8
F01_OUT
  5
58C
 10
46.716769
 20
114.923609
 30
0.0
 11
43.216769
 21
114.923609
 31
0.0
1001
ACAD
1000
RTMaterial
1005
0
  0
LINE
  8
F01_OUT
  5
58D
 10
75.566769
 20
105.923609
 30
0.0
 11
75.566769
 21
114.923609
 31
0.0
1001
ACAD
1000
RTMaterial
1005
0
  0
LINE
  8
F01_OUT
  5
58E
 10
83.466769
 20
105.923609
 30
0.0
 11
83.641769
 21
105.923609
 31
0.0
1001
ACAD
1000
RTMaterial
1005
0
  0
LINE
  8
F01_OUT
  5
58F
 10
83.466769
 20
106.923609
 30
0.0
 11
83.466769
 21
107.023609
 31
0.0
1001
ACAD
1000
RTMaterial
1005
0
  0
LINE
  8
F01_OUT
  5
590
 10
83.466769
 20
105.923609
 30
0.0
 11
83.466769
 21
106.923609
 31
0.0
1001
ACAD
1000
RTMaterial
1005
0
  0
LINE
  8
F01_OUT
  5
591
 10
83.466769
 20
105.923609
 30
0.0
 11
81.713118
 21
105.923609
 31
0.0
1001
ACAD
1000
RTMaterial
1005
0
  0
LINE
  8
F01_OUT
  5
592
 10
60.116769
 20
114.923609
 30
0.0
 11
59.616769
 21
114.923609
 31
0.0
1001
ACAD
1000
RTMaterial
1005
0
  0
LINE
  8
F01_OUT
  5
593
 10
64.616769
 20
114.923609
 30
0.0
 11
64.116769
 21
114.923609
 31
0.0
1001
ACAD
1000
RTMaterial
1005
0
  0
LINE
  8
F01_OUT
  5
594
 10
65.116769
 20
114.923609
 30
0.0
 11
64.616769
 21
114.923609
 31
0.0
1001
ACAD
1000
RTMaterial
1005
0
  0
LINE
  8
F01_OUT
  5
595
 10
66.566769
 20
114.923609
 30
0.0
 11
65.116769
 21
114.923609
 31
0.0
1001
ACAD
1000
RTMaterial
1005
0
  0
LINE
  8
F01_OUT
  5
596
 10
60.616769
 20
114.923609
 30
0.0
 11
60.116769
 21
114.923609
 31
0.0
1001
ACAD
1000
RTMaterial
1005
0
  0
LINE
  8
F01_OUT
  5
597
 10
64.116769
 20
114.923609
 30
0.0
 11
60.616769
 21
114.923609
 31
0.0
1001
ACAD
1000
RTMaterial
1005
0
  0
LINE
  8
F01_OUT
  5
598
 10
69.316769
 20
114.923609
 30
0.0
 11
68.816769
 21
114.923609
 31
0.0
1001
ACAD
1000
RTMaterial
1005
0
  0
LINE
  8
F01_OUT
  5
599
 10
71.066769
 20
114.923609
 30
0.0
 11
69.316769
 21
114.923609
 31
0.0
1001
ACAD
1000
RTMaterial
1005
0
  0
LINE
  8
F01_OUT
  5
59A
 10
66.566769
 20
114.923609
 30
0.0
 11
66.866769
 21
114.923609
 31
0.0
1001
ACAD
1000
RTMaterial
1005
0
  0
LINE
  8
F01_OUT
  5
59B
 10
68.816769
 20
114.923609
 30
0.0
 11
68.316769
 21
114.923609
 31
0.0
1001
ACAD
1000
RTMaterial
1005
0
  0
LINE
  8
F01_OUT
  5
59C
 10
68.316769
 20
114.923609
 30
0.0
 11
66.866769
 21
114.923609
 31
0.0
1001
ACAD
1000
RTMaterial
1005
0
  0
LINE
  8
F01_OUT
  5
59D
 10
75.266769
 20
105.923609
 30
0.0
 11
75.266769
 21
114.923609
 31
0.0
1001
ACAD
1000
RTMaterial
1005
0
  0
LINE
  8
F01_OUT
  5
59E
 10
66.566769
 20
105.923609
 30
0.0
 11
66.566769
 21
114.923609
 31
0.0
1001
ACAD
1000
RTMaterial
1005
0
  0
LINE
  8
F01_OUT
  5
59F
 10
66.866769
 20
105.923609
 30
0.0
 11
66.866769
 21
114.923609
 31
0.0
1001
ACAD
1000
RTMaterial
1005
0
  0
LINE
  8
F01_OUT
  5
5A0
 10
75.266769
 20
105.923609
 30
0.0
 11
74.866769
 21
105.923609
 31
0.0
1001
ACAD
1000
RTMaterial
1005
0
  0
LINE
  8
F01_OUT
  5
5A1
 10
74.866769
 20
105.923609
 30
0.0
 11
69.816769
 21
105.923609
 31
0.0
1001
ACAD
1000
RTMaterial
1005
0
  0
LINE
  8
F01_OUT
  5
5A2
 10
75.266769
 20
105.923609
 30
0.0
 11
75.566769
 21
105.923609
 31
0.0
1001
ACAD
1000
RTMaterial
1005
0
  0
LINE
  8
F01_OUT
  5
5A3
 10
66.566769
 20
105.923609
 30
0.0
 11
66.866769
 21
105.923609
 31
0.0
1001
ACAD
1000
RTMaterial
1005
0
  0
LINE
  8
F01_OUT
  5
5A4
 10
69.816769
 20
105.923609
 30
0.0
 11
66.866769
 21
105.923609
 31
0.0
1001
ACAD
1000
RTMaterial
1005
0
  0
LINE
  8
F01_OUT
  5
5A5
 10
81.713118
 20
105.923609
 30
0.0
 11
81.212813
 21
105.923609
 31
0.0
1001
ACAD
1000
RTMaterial
1005
0
  0
LINE
  8
F01_OUT
  5
5A6
 10
81.212813
 20
105.923609
 30
0.0
 11
75.566769
 21
105.923609
 31
0.0
1001
ACAD
1000
RTMaterial
1005
0
  0
LINE
  8
F01_OUT
  5
5A7
 10
82.727149
 20
114.923609
 30
0.0
 11
81.366769
 21
114.923609
 31
0.0
1001
ACAD
1000
RTMaterial
1005
0
  0
LINE
  8
F01_OUT
  5
5A8
 10
81.366769
 20
114.923609
 30
0.0
 11
78.166769
 21
114.923609
 31
0.0
1001
ACAD
1000
RTMaterial
1005
0
  0
LINE
  8
F01_OUT
  5
5A9
 10
83.766769
 20
114.923609
 30
0.0
 11
83.641769
 21
114.923609
 31
0.0
1001
ACAD
1000
RTMaterial
1005
0
  0
LINE
  8
F01_OUT
  5
5AA
 10
83.641769
 20
114.923609
 30
0.0
 11
82.727149
 21
114.923609
 31
0.0
1001
ACAD
1000
RTMaterial
1005
0
  0
LINE
  8
F01_OUT
  5
5AB
 10
84.866769
 20
114.923609
 30
0.0
 11
83.766769
 21
114.923609
 31
0.0
1001
ACAD
1000
RTMaterial
1005
0
  0
LINE
  8
F01_OUT
  5
5AC
 10
84.866769
 20
107.023609
 30
0.0
 11
84.866769
 21
114.923609
 31
0.0
1001
ACAD
1000
RTMaterial
1005
0
  0
LINE
  8
F01_OUT
  5
5AD
 10
72.816769
 20
114.923609
 30
0.0
 11
71.066769
 21
114.923609
 31
0.0
1001
ACAD
1000
RTMaterial
1005
0
  0
LINE
  8
F01_OUT
  5
5AE
 10
73.816769
 20
114.923609
 30
0.0
 11
73.316769
 21
114.923609
 31
0.0
1001
ACAD
1000
RTMaterial
1005
0
  0
LINE
  8
F01_OUT
  5
5AF
 10
75.266769
 20
114.923609
 30
0.0
 11
73.816769
 21
114.923609
 31
0.0
1001
ACAD
1000
RTMaterial
1005
0
  0
LINE
  8
F01_OUT
  5
5B0
 10
75.266769
 20
114.923609
 30
0.0
 11
75.566769
 21
114.923609
 31
0.0
1001
ACAD
1000
RTMaterial
1005
0
  0
LINE
  8
F01_OUT
  5
5B1
 10
73.066769
 20
114.923609
 30
0.0
 11
72.816769
 21
114.923609
 31
0.0
1001
ACAD
1000
RTMaterial
1005
0
  0
LINE
  8
F01_OUT
  5
5B2
 10
73.316769
 20
114.923609
 30
0.0
 11
73.066769
 21
114.923609
 31
0.0
1001
ACAD
1000
RTMaterial
1005
0
  0
LINE
  8
F01_OUT
  5
5B3
 10
78.166769
 20
114.923609
 30
0.0
 11
75.566769
 21
114.923609
 31
0.0
1001
ACAD
1000
RTMaterial
1005
0
  0
LINE
  8
F01_OUT
  5
5B4
 10
84.866769
 20
107.023609
 30
0.0
 11
83.466769
 21
107.023609
 31
0.0
1001
ACAD
1000
RTMaterial
1005
0
  0
LINE
  8
F01_OUT
  5
5B5
 10
83.641769
 20
106.923609
 30
0.0
 11
83.466769
 21
106.923609
 31
0.0
1001
ACAD
1000
RTMaterial
1005
0
  0
LINE
  8
F01_OUT
  5
5B6
 10
109.541769
 20
147.173609
 30
0.0
 11
109.541769
 21
146.923609
 31
0.0
1001
ACAD
1000
RTMaterial
1005
0
  0
LINE
  8
F01_OUT
  5
5B7
 10
111.041769
 20
147.173609
 30
0.0
 11
111.041769
 21
146.923609
 31
0.0
1001
ACAD
1000
RTMaterial
1005
0
  0
LINE
  8
F01_OUT
  5
5B8
 10
66.241769
 20
147.273609
 30
0.0
 11
65.541769
 21
147.273609
 31
0.0
1001
ACAD
1000
RTMaterial
1005
0
  0
LINE
  8
F01_OUT
  5
5B9
 10
85.088781
 20
147.273609
 30
0.0
 11
85.366769
 21
147.273609
 31
0.0
1001
ACAD
1000
RTMaterial
1005
0
  0
LINE
  8
F01_OUT
  5
5BA
 10
75.891769
 20
147.273609
 30
0.0
 11
83.641769
 21
147.273609
 31
0.0
1001
ACAD
1000
RTMaterial
1005
0
  0
LINE
  8
F01_OUT
  5
5BB
 10
87.291769
 20
105.573609
 30
0.0
 11
86.591769
 21
105.573609
 31
0.0
1001
ACAD
1000
RTMaterial
1005
0
  0
LINE
  8
F01_OUT
  5
5BC
 10
67.891769
 20
105.573609
 30
0.0
 11
67.191769
 21
105.573609
 31
0.0
1001
ACAD
1000
RTMaterial
1005
0
  0
LINE
  8
F01_OUT
  5
5BD
 10
85.366769
 20
105.573609
 30
0.0
 11
84.866769
 21
105.573609
 31
0.0
1001
ACAD
1000
RTMaterial
1005
0
  0
LINE
  8
F01_OUT
  5
5BE
 10
89.866769
 20
105.573609
 30
0.0
 11
88.791769
 21
105.573609
 31
0.0
1001
ACAD
1000
RTMaterial
1005
0
  0
LINE
  8
F01_OUT
  5
5BF
 10
94.341769
 20
105.573609
 30
0.0
 11
90.866769
 21
105.573609
 31
0.0
1001
ACAD
1000
RTMaterial
1005
0
  0
LINE
  8
F01_OUT
  5
5C0
 10
87.291769
 20
105.573609
 30
0.0
 11
86.591769
 21
105.573609
 31
0.0
1001
ACAD
1000
RTMaterial
1005
0
  0
LINE
  8
F01_OUT
  5
5C1
 10
67.891769
 20
105.573609
 30
0.0
 11
67.191769
 21
105.573609
 31
0.0
1001
ACAD
1000
RTMaterial
1005
0
  0
LINE
  8
F01_OUT
  5
5C2
 10
76.531195
 20
105.573609
 30
0.0
 11
75.891769
 21
105.573609
 31
0.0
1001
ACAD
1000
RTMaterial
1005
0
  0
LINE
  8
F01_OUT
  5
5C3
 10
85.366769
 20
105.573609
 30
0.0
 11
84.866769
 21
105.573609
 31
0.0
1001
ACAD
1000
RTMaterial
1005
0
  0
LINE
  8
F01_OUT
  5
5C4
 10
83.641769
 20
105.573609
 30
0.0
 11
81.700895
 21
105.573609
 31
0.0
1001
ACAD
1000
RTMaterial
1005
0
  0
LINE
  8
F01_OUT
  5
5C5
 10
81.700895
 20
105.573609
 30
0.0
 11
80.366769
 21
105.573609
 31
0.0
1001
ACAD
1000
RTMaterial
1005
0
  0
LINE
  8
F01_OUT
  5
5C6
 10
74.941769
 20
105.573609
 30
0.0
 11
69.391769
 21
105.573609
 31
0.0
1001
ACAD
1000
RTMaterial
1005
0
  0
LINE
  8
F01_OUT
  5
5C7
 10
95.991769
 20
105.573609
 30
0.0
 11
95.291769
 21
105.573609
 31
0.0
1001
ACAD
1000
RTMaterial
1005
0
  0
LINE
  8
F01_OUT
  5
5C8
 10
52.991769
 20
105.573609
 30
0.0
 11
51.991769
 21
105.573609
 31
0.0
1001
ACAD
1000
RTMaterial
1005
0
  0
LINE
  8
F01_OUT
  5
5C9
 10
57.541769
 20
105.573609
 30
0.0
 11
52.991769
 21
105.573609
 31
0.0
1001
ACAD
1000
RTMaterial
1005
0
  0
LINE
  8
F01_OUT
  5
5CA
 10
89.866769
 20
105.573609
 30
0.0
 11
88.791769
 21
105.573609
 31
0.0
1001
ACAD
1000
RTMaterial
1005
0
  0
LINE
  8
F01_OUT
  5
5CB
 10
94.341769
 20
105.573609
 30
0.0
 11
90.866769
 21
105.573609
 31
0.0
1001
ACAD
1000
RTMaterial
1005
0
  0
LINE
  8
F01_OUT
  5
5CC
 10
67.891769
 20
105.573609
 30
0.0
 11
67.191769
 21
105.573609
 31
0.0
1001
ACAD
1000
RTMaterial
1005
0
  0
LINE
  8
F01_OUT
  5
5CD
 10
76.531195
 20
105.573609
 30
0.0
 11
75.891769
 21
105.573609
 31
0.0
1001
ACAD
1000
RTMaterial
1005
0
  0
LINE
  8
F01_OUT
  5
5CE
 10
85.366769
 20
105.573609
 30
0.0
 11
84.866769
 21
105.573609
 31
0.0
1001
ACAD
1000
RTMaterial
1005
0
  0
LINE
  8
F01_OUT
  5
5CF
 10
81.700895
 20
105.573609
 30
0.0
 11
80.366769
 21
105.573609
 31
0.0
1001
ACAD
1000
RTMaterial
1005
0
  0
LINE
  8
F01_OUT
  5
5D0
 10
74.941769
 20
105.573609
 30
0.0
 11
69.391769
 21
105.573609
 31
0.0
1001
ACAD
1000
RTMaterial
1005
0
  0
LINE
  8
F01_OUT
  5
5D1
 10
95.991769
 20
105.573609
 30
0.0
 11
95.291769
 21
105.573609
 31
0.0
1001
ACAD
1000
RTMaterial
1005
0
  0
CIRCLE
  8
F06_CUT
  5
5D2
 10
44.866769
 20
-0.287716
 30
0.0
 40
2.25
1001
ACAD
1000
RTMaterial
1005
0
  0
CIRCLE
  8
F06_CUT
  5
5D3
 10
125.366769
 20
-0.287716
 30
0.0
 40
2.25
1001
ACAD
1000
RTMaterial
1005
0
  0
CIRCLE
  8
F06_CUT
  5
5D4
 10
125.366769
 20
39.712284
 30
0.0
 40
2.25
1001
ACAD
1000
RTMaterial
1005
0
  0
CIRCLE
  8
F06_CUT
  5
5D5
 10
44.866769
 20
39.712284
 30
0.0
 40
2.25
1001
ACAD
1000
RTMaterial
1005
0
  0
ARC
  8
F07_COO
  5
5D7
 10
40.166769
 20
43.412284
 30
0.0
 40
0.3
 50
90.0
 51
180.0
1001
ACAD
1000
RTMaterial
1005
0
  0
ARC
  8
F07_COO
  5
5D8
 10
130.066769
 20
43.412284
 30
0.0
 40
0.3
 50
0.0
 51
90.0
1001
ACAD
1000
RTMaterial
1005
0
  0
ARC
  8
F07_COO
  5
5D9
 10
130.066769
 20
-3.987716
 30
0.0
 40
0.3
 50
270.0
 51
0.0
1001
ACAD
1000
RTMaterial
1005
0
  0
ARC
  8
F07_COO
  5
5DA
 10
40.166769
 20
-3.987716
 30
0.0
 40
0.3
 50
180.0
 51
270.0
1001
ACAD
1000
RTMaterial
1005
0
  0
LINE
  8
F07_COO
  5
5DB
 10
130.066769
 20
-4.287716
 30
0.0
 11
40.166769
 21
-4.287716
 31
0.0
1001
ACAD
1000
RTMaterial
1005
0
  0
LINE
  8
F07_COO
  5
5DC
 10
40.166769
 20
43.712284
 30
0.0
 11
130.066769
 21
43.712284
 31
0.0
1001
ACAD
1000
RTMaterial
1005
0
  0
LINE
  8
F07_COO
  5
5DD
 10
130.366769
 20
-3.987716
 30
0.0
 11
130.366769
 21
43.412284
 31
0.0
1001
ACAD
1000
RTMaterial
1005
0
  0
LINE
  8
F07_COO
  5
5DE
 10
39.866769
 20
-3.987716
 30
0.0
 11
39.866769
 21
43.412284
 31
0.0
1001
ACAD
1000
RTMaterial
1005
0
  0
LINE
  8
F03_CNT
  5
5E0
 10
-1.499519
 20
126.423609
 30
0.0
 11
-107.84078
 21
126.423609
 31
0.0
1001
ACAD
1000
RTMaterial
1005
0
  0
LINE
  8
F03_CNT
  5
5E1
 10
-53.887417
 20
110.923609
 30
0.0
 11
-60.007178
 21
110.923609
 31
0.0
1001
ACAD
1000
RTMaterial
1005
0
  0
LINE
  8
F03_CNT
  5
5E2
 10
133.146313
 20
126.423609
 30
0.0
 11
37.963468
 21
126.423609
 31
0.0
1001
ACAD
1000
RTMaterial
1005
0
  0
LINE
  8
F03_CNT
  5
5E3
 10
-53.887417
 20
141.923609
 30
0.0
 11
-60.007178
 21
141.923609
 31
0.0
1001
ACAD
1000
RTMaterial
1005
0
  0
LINE
  8
F03_CNT
  5
5E4
 10
62.366769
 20
147.173609
 30
0.0
 11
62.366769
 21
136.673609
 31
0.0
1001
ACAD
1000
RTMaterial
1005
0
  0
LINE
  8
F03_CNT
  5
5E5
 10
113.116769
 20
141.923609
 30
0.0
 11
102.616769
 21
141.923609
 31
0.0
1001
ACAD
1000
RTMaterial
1005
0
  0
LINE
  8
F03_CNT
  5
5E6
 10
104.416769
 20
141.923609
 30
0.0
 11
93.916769
 21
141.923609
 31
0.0
1001
ACAD
1000
RTMaterial
1005
0
  0
LINE
  8
F03_CNT
  5
5E7
 10
121.816769
 20
141.923609
 30
0.0
 11
111.316769
 21
141.923609
 31
0.0
1001
ACAD
1000
RTMaterial
1005
0
  0
LINE
  8
F03_CNT
  5
5E8
 10
113.116769
 20
110.923609
 30
0.0
 11
102.616769
 21
110.923609
 31
0.0
1001
ACAD
1000
RTMaterial
1005
0
  0
LINE
  8
F03_CNT
  5
5E9
 10
104.416769
 20
110.923609
 30
0.0
 11
93.916769
 21
110.923609
 31
0.0
1001
ACAD
1000
RTMaterial
1005
0
  0
LINE
  8
F03_CNT
  5
5EA
 10
121.816769
 20
110.923609
 30
0.0
 11
111.316769
 21
110.923609
 31
0.0
1001
ACAD
1000
RTMaterial
1005
0
  0
LINE
  8
F03_CNT
  5
5EB
 10
67.616769
 20
110.923609
 30
0.0
 11
57.116769
 21
110.923609
 31
0.0
1001
ACAD
1000
RTMaterial
1005
0
  0
LINE
  8
F03_CNT
  5
5EC
 10
58.916769
 20
110.923609
 30
0.0
 11
48.416769
 21
110.923609
 31
0.0
1001
ACAD
1000
RTMaterial
1005
0
  0
LINE
  8
F03_CNT
  5
5ED
 10
76.316769
 20
110.923609
 30
0.0
 11
65.816769
 21
110.923609
 31
0.0
1001
ACAD
1000
RTMaterial
1005
0
  0
LINE
  8
F03_CNT
  5
5EE
 10
76.316769
 20
141.923609
 30
0.0
 11
65.816769
 21
141.923609
 31
0.0
1001
ACAD
1000
RTMaterial
1005
0
  0
LINE
  8
F03_CNT
  5
5EF
 10
58.916769
 20
141.923609
 30
0.0
 11
48.416769
 21
141.923609
 31
0.0
1001
ACAD
1000
RTMaterial
1005
0
  0
LINE
  8
F03_CNT
  5
5F0
 10
67.616769
 20
141.923609
 30
0.0
 11
57.116769
 21
141.923609
 31
0.0
1001
ACAD
1000
RTMaterial
1005
0
  0
LINE
  8
F03_CNT
  5
5F1
 10
53.666769
 20
147.173609
 30
0.0
 11
53.666769
 21
136.673609
 31
0.0
1001
ACAD
1000
RTMaterial
1005
0
  0
LINE
  8
F03_CNT
  5
5F2
 10
85.016769
 20
141.923609
 30
0.0
 11
74.516769
 21
141.923609
 31
0.0
1001
ACAD
1000
RTMaterial
1005
0
  0
LINE
  8
F03_CNT
  5
5F3
 10
79.766769
 20
147.173609
 30
0.0
 11
79.766769
 21
136.673609
 31
0.0
1001
ACAD
1000
RTMaterial
1005
0
  0
LINE
  8
F03_CNT
  5
5F4
 10
71.066769
 20
147.173609
 30
0.0
 11
71.066769
 21
136.673609
 31
0.0
1001
ACAD
1000
RTMaterial
1005
0
  0
LINE
  8
F03_CNT
  5
5F5
 10
50.216769
 20
141.923609
 30
0.0
 11
39.716769
 21
141.923609
 31
0.0
1001
ACAD
1000
RTMaterial
1005
0
  0
LINE
  8
F03_CNT
  5
5F6
 10
44.966769
 20
147.173609
 30
0.0
 11
44.966769
 21
136.673609
 31
0.0
1001
ACAD
1000
RTMaterial
1005
0
  0
LINE
  8
F03_CNT
  5
5F7
 10
107.866769
 20
116.173609
 30
0.0
 11
107.866769
 21
105.673609
 31
0.0
1001
ACAD
1000
RTMaterial
1005
0
  0
LINE
  8
F03_CNT
  5
5F8
 10
113.116769
 20
110.923609
 30
0.0
 11
102.616769
 21
110.923609
 31
0.0
1001
ACAD
1000
RTMaterial
1005
0
  0
LINE
  8
F03_CNT
  5
5F9
 10
90.466769
 20
116.173609
 30
0.0
 11
90.466769
 21
105.673609
 31
0.0
1001
ACAD
1000
RTMaterial
1005
0
  0
LINE
  8
F03_CNT
  5
5FA
 10
95.716769
 20
110.923609
 30
0.0
 11
85.216769
 21
110.923609
 31
0.0
1001
ACAD
1000
RTMaterial
1005
0
  0
LINE
  8
F03_CNT
  5
5FB
 10
116.566769
 20
116.173609
 30
0.0
 11
116.566769
 21
105.673609
 31
0.0
1001
ACAD
1000
RTMaterial
1005
0
  0
LINE
  8
F03_CNT
  5
5FC
 10
121.816769
 20
110.923609
 30
0.0
 11
111.316769
 21
110.923609
 31
0.0
1001
ACAD
1000
RTMaterial
1005
0
  0
LINE
  8
F03_CNT
  5
5FD
 10
99.166769
 20
116.173609
 30
0.0
 11
99.166769
 21
105.673609
 31
0.0
1001
ACAD
1000
RTMaterial
1005
0
  0
LINE
  8
F03_CNT
  5
5FE
 10
104.416769
 20
110.923609
 30
0.0
 11
93.916769
 21
110.923609
 31
0.0
1001
ACAD
1000
RTMaterial
1005
0
  0
LINE
  8
F03_CNT
  5
5FF
 10
125.266769
 20
116.173609
 30
0.0
 11
125.266769
 21
105.673609
 31
0.0
1001
ACAD
1000
RTMaterial
1005
0
  0
LINE
  8
F03_CNT
  5
600
 10
130.516769
 20
110.923609
 30
0.0
 11
120.016769
 21
110.923609
 31
0.0
1001
ACAD
1000
RTMaterial
1005
0
  0
LINE
  8
F03_CNT
  5
601
 10
125.266769
 20
147.173609
 30
0.0
 11
125.266769
 21
136.673609
 31
0.0
1001
ACAD
1000
RTMaterial
1005
0
  0
LINE
  8
F03_CNT
  5
602
 10
130.516769
 20
141.923609
 30
0.0
 11
120.016769
 21
141.923609
 31
0.0
1001
ACAD
1000
RTMaterial
1005
0
  0
LINE
  8
F03_CNT
  5
603
 10
107.866769
 20
147.173609
 30
0.0
 11
107.866769
 21
136.673609
 31
0.0
1001
ACAD
1000
RTMaterial
1005
0
  0
LINE
  8
F03_CNT
  5
604
 10
113.116769
 20
141.923609
 30
0.0
 11
102.616769
 21
141.923609
 31
0.0
1001
ACAD
1000
RTMaterial
1005
0
  0
LINE
  8
F03_CNT
  5
605
 10
90.466769
 20
147.173609
 30
0.0
 11
90.466769
 21
136.673609
 31
0.0
1001
ACAD
1000
RTMaterial
1005
0
  0
LINE
  8
F03_CNT
  5
606
 10
95.716769
 20
141.923609
 30
0.0
 11
85.216769
 21
141.923609
 31
0.0
1001
ACAD
1000
RTMaterial
1005
0
  0
LINE
  8
F03_CNT
  5
607
 10
116.566769
 20
147.173609
 30
0.0
 11
116.566769
 21
136.673609
 31
0.0
1001
ACAD
1000
RTMaterial
1005
0
  0
LINE
  8
F03_CNT
  5
608
 10
121.816769
 20
141.923609
 30
0.0
 11
111.316769
 21
141.923609
 31
0.0
1001
ACAD
1000
RTMaterial
1005
0
  0
LINE
  8
F03_CNT
  5
609
 10
99.166769
 20
147.173609
 30
0.0
 11
99.166769
 21
136.673609
 31
0.0
1001
ACAD
1000
RTMaterial
1005
0
  0
LINE
  8
F03_CNT
  5
60A
 10
104.416769
 20
141.923609
 30
0.0
 11
93.916769
 21
141.923609
 31
0.0
1001
ACAD
1000
RTMaterial
1005
0
  0
LINE
  8
F03_CNT
  5
60B
 10
53.666769
 20
116.173609
 30
0.0
 11
53.666769
 21
105.673609
 31
0.0
1001
ACAD
1000
RTMaterial
1005
0
  0
LINE
  8
F03_CNT
  5
60C
 10
58.916769
 20
110.923609
 30
0.0
 11
48.416769
 21
110.923609
 31
0.0
1001
ACAD
1000
RTMaterial
1005
0
  0
LINE
  8
F03_CNT
  5
60D
 10
79.766769
 20
116.173609
 30
0.0
 11
79.766769
 21
105.673609
 31
0.0
1001
ACAD
1000
RTMaterial
1005
0
  0
LINE
  8
F03_CNT
  5
60E
 10
85.016769
 20
110.923609
 30
0.0
 11
74.516769
 21
110.923609
 31
0.0
1001
ACAD
1000
RTMaterial
1005
0
  0
LINE
  8
F03_CNT
  5
60F
 10
44.966769
 20
116.173609
 30
0.0
 11
44.966769
 21
105.673609
 31
0.0
1001
ACAD
1000
RTMaterial
1005
0
  0
LINE
  8
F03_CNT
  5
610
 10
50.216769
 20
110.923609
 30
0.0
 11
39.716769
 21
110.923609
 31
0.0
1001
ACAD
1000
RTMaterial
1005
0
  0
LINE
  8
F03_CNT
  5
611
 10
62.366769
 20
116.173609
 30
0.0
 11
62.366769
 21
105.673609
 31
0.0
1001
ACAD
1000
RTMaterial
1005
0
  0
LINE
  8
F03_CNT
  5
612
 10
67.616769
 20
110.923609
 30
0.0
 11
57.116769
 21
110.923609
 31
0.0
1001
ACAD
1000
RTMaterial
1005
0
  0
LINE
  8
F03_CNT
  5
613
 10
71.066769
 20
116.173609
 30
0.0
 11
71.066769
 21
105.673609
 31
0.0
1001
ACAD
1000
RTMaterial
1005
0
  0
LINE
  8
F03_CNT
  5
614
 10
76.316769
 20
110.923609
 30
0.0
 11
65.816769
 21
110.923609
 31
0.0
1001
ACAD
1000
RTMaterial
1005
0
  0
LINE
  8
F03_CNT
  5
615
 10
50.116769
 20
-0.287716
 30
0.0
 11
39.616769
 21
-0.287716
 31
0.0
1001
ACAD
1000
RTMaterial
1005
0
  0
LINE
  8
F03_CNT
  5
616
 10
44.866769
 20
4.962284
 30
0.0
 11
44.866769
 21
-5.537716
 31
0.0
1001
ACAD
1000
RTMaterial
1005
0
  0
LINE
  8
F03_CNT
  5
617
 10
130.616769
 20
-0.287716
 30
0.0
 11
120.116769
 21
-0.287716
 31
0.0
1001
ACAD
1000
RTMaterial
1005
0
  0
LINE
  8
F03_CNT
  5
618
 10
125.366769
 20
4.962284
 30
0.0
 11
125.366769
 21
-5.537716
 31
0.0
1001
ACAD
1000
RTMaterial
1005
0
  0
LINE
  8
F03_CNT
  5
619
 10
130.616769
 20
39.712284
 30
0.0
 11
120.116769
 21
39.712284
 31
0.0
1001
ACAD
1000
RTMaterial
1005
0
  0
LINE
  8
F03_CNT
  5
61A
 10
125.366769
 20
44.962284
 30
0.0
 11
125.366769
 21
34.462284
 31
0.0
1001
ACAD
1000
RTMaterial
1005
0
  0
LINE
  8
F03_CNT
  5
61B
 10
50.116769
 20
39.712284
 30
0.0
 11
39.616769
 21
39.712284
 31
0.0
1001
ACAD
1000
RTMaterial
1005
0
  0
LINE
  8
F03_CNT
  5
61C
 10
44.866769
 20
44.962284
 30
0.0
 11
44.866769
 21
34.462284
 31
0.0
1001
ACAD
1000
RTMaterial
1005
0
  0
LINE
  8
F03_CNT
  5
61D
 10
132.327721
 20
19.712284
 30
0.0
 11
37.724562
 21
19.712284
 31
0.0
1001
ACAD
1000
RTMaterial
1005
0
  0
LINE
  8
F09_IMG2
  5
61E
 10
-4.379386
 20
137.423609
 30
0.0
 11
-3.867194
 21
137.423609
 31
0.0
1001
ACAD
1000
RTMaterial
1005
0
  0
LINE
  8
F09_IMG2
  5
61F
 10
-3.783512
 20
128.823609
 30
0.0
 11
-3.379386
 21
128.823609
 31
0.0
1001
ACAD
1000
RTMaterial
1005
0
  0
LINE
  8
F09_IMG2
  5
620
 10
-3.379386
 20
128.823609
 30
0.0
 11
-3.379386
 21
124.023609
 31
0.0
1001
ACAD
1000
RTMaterial
1005
0
  0
LINE
  8
F09_IMG2
  5
621
 10
-3.379386
 20
124.023609
 30
0.0
 11
-3.783512
 21
124.023609
 31
0.0
1001
ACAD
1000
RTMaterial
1005
0
  0
LINE
  8
F09_IMG2
  5
622
 10
-4.379386
 20
115.423609
 30
0.0
 11
-3.867194
 21
115.423609
 31
0.0
1001
ACAD
1000
RTMaterial
1005
0
  0
ARC
  8
F09_IMG2
  5
623
 10
-24.379386
 20
119.923609
 30
0.0
 40
21.0
 50
347.626375
 51
11.258633
1001
ACAD
1000
RTMaterial
1005
0
  0
ARC
  8
F09_IMG2
  5
624
 10
-24.379386
 20
132.923609
 30
0.0
 40
21.0
 50
348.741367
 51
12.373625
1001
ACAD
1000
RTMaterial
1005
0
  0
LINE
  8
F09_IMG2
  5
625
 10
-28.079386
 20
139.289634
 30
0.0
 11
-27.840162
 21
140.182428
 31
0.0
1001
ACAD
1000
RTMaterial
1005
0
  0
LINE
  8
F09_IMG2
  5
626
 10
-26.874236
 20
140.923609
 30
0.0
 11
-6.084535
 21
140.923609
 31
0.0
1001
ACAD
1000
RTMaterial
1005
0
  0
LINE
  8
F09_IMG2
  5
627
 10
-28.579386
 20
138.223609
 30
0.0
 11
-28.579386
 21
138.423609
 31
0.0
1001
ACAD
1000
RTMaterial
1005
0
  0
LINE
  8
F09_IMG2
  5
628
 10
-4.879386
 20
139.289634
 30
0.0
 11
-5.118609
 21
140.182428
 31
0.0
1001
ACAD
1000
RTMaterial
1005
0
  0
LINE
  8
F09_IMG2
  5
629
 10
-4.379386
 20
137.423609
 30
0.0
 11
-4.379386
 21
138.423609
 31
0.0
1001
ACAD
1000
RTMaterial
1005
0
  0
LINE
  8
F09_IMG2
  5
62A
 10
-5.118609
 20
112.66479
 30
0.0
 11
-4.879386
 21
113.557584
 31
0.0
1001
ACAD
1000
RTMaterial
1005
0
  0
LINE
  8
F09_IMG2
  5
62B
 10
-28.079386
 20
113.557584
 30
0.0
 11
-27.840162
 21
112.66479
 31
0.0
1001
ACAD
1000
RTMaterial
1005
0
  0
LINE
  8
F09_IMG2
  5
62C
 10
-6.084535
 20
111.923609
 30
0.0
 11
-26.874236
 21
111.923609
 31
0.0
1001
ACAD
1000
RTMaterial
1005
0
  0
LINE
  8
F09_IMG2
  5
62D
 10
-28.579386
 20
114.623609
 30
0.0
 11
-28.579386
 21
114.423609
 31
0.0
1001
ACAD
1000
RTMaterial
1005
0
  0
LINE
  8
F09_IMG2
  5
62E
 10
-4.379386
 20
114.423609
 30
0.0
 11
-4.379386
 21
115.423609
 31
0.0
1001
ACAD
1000
RTMaterial
1005
0
  0
ARC
  8
F09_IMG2
  5
62F
 10
-26.874236
 20
139.923609
 30
0.0
 40
1.0
 50
135.572996
 51
165.0
1001
ACAD
1000
RTMaterial
1005
0
  0
ARC
  8
F09_IMG2
  5
630
 10
-26.874236
 20
139.923609
 30
0.0
 40
1.0
 50
90.0
 51
135.572996
1001
ACAD
1000
RTMaterial
1005
0
  0
ARC
  8
F09_IMG2
  5
631
 10
-27.579386
 20
138.423609
 30
0.0
 40
1.0
 50
120.0
 51
180.0
1001
ACAD
1000
RTMaterial
1005
0
  0
ARC
  8
F09_IMG2
  5
632
 10
-5.379386
 20
138.423609
 30
0.0
 40
1.0
 50
0.0
 51
60.0
1001
ACAD
1000
RTMaterial
1005
0
  0
ARC
  8
F09_IMG2
  5
633
 10
-6.084535
 20
139.923609
 30
0.0
 40
1.0
 50
15.0
 51
44.427004
1001
ACAD
1000
RTMaterial
1005
0
  0
ARC
  8
F09_IMG2
  5
634
 10
-6.084535
 20
139.923609
 30
0.0
 40
1.0
 50
44.427004
 51
90.0
1001
ACAD
1000
RTMaterial
1005
0
  0
ARC
  8
F09_IMG2
  5
635
 10
-6.084535
 20
112.923609
 30
0.0
 40
1.0
 50
315.572996
 51
345.0
1001
ACAD
1000
RTMaterial
1005
0
  0
ARC
  8
F09_IMG2
  5
636
 10
-26.874236
 20
112.923609
 30
0.0
 40
1.0
 50
195.0
 51
224.427004
1001
ACAD
1000
RTMaterial
1005
0
  0
ARC
  8
F09_IMG2
  5
637
 10
-26.874236
 20
112.923609
 30
0.0
 40
1.0
 50
224.427004
 51
270.0
1001
ACAD
1000
RTMaterial
1005
0
  0
ARC
  8
F09_IMG2
  5
638
 10
-6.084535
 20
112.923609
 30
0.0
 40
1.0
 50
270.0
 51
315.572996
1001
ACAD
1000
RTMaterial
1005
0
  0
ARC
  8
F09_IMG2
  5
639
 10
-5.379386
 20
114.423609
 30
0.0
 40
1.0
 50
300.0
 51
0.0
1001
ACAD
1000
RTMaterial
1005
0
  0
ARC
  8
F09_IMG2
  5
63A
 10
-27.579386
 20
114.423609
 30
0.0
 40
1.0
 50
180.0
 51
240.0
1001
ACAD
1000
RTMaterial
1005
0
  0
LINE
  8
F09_IMG2
  5
63B
 10
-28.579386
 20
114.623609
 30
0.0
 11
-32.879386
 21
114.623609
 31
0.0
1001
ACAD
1000
RTMaterial
1005
0
  0
LINE
  8
F09_IMG2
  5
63C
 10
-36.379386
 20
118.123609
 30
0.0
 11
-36.379386
 21
136.123609
 31
0.0
1001
ACAD
1000
RTMaterial
1005
0
  0
LINE
  8
F09_IMG2
  5
63D
 10
-36.379386
 20
118.123609
 30
0.0
 11
-32.879386
 21
114.623609
 31
0.0
1001
ACAD
1000
RTMaterial
1005
0
  0
LINE
  8
F09_IMG2
  5
63E
 10
-36.179386
 20
136.323609
 30
0.0
 11
-36.379386
 21
136.123609
 31
0.0
1001
ACAD
1000
RTMaterial
1005
0
  0
LINE
  8
F09_IMG2
  5
63F
 10
-32.879386
 20
138.223609
 30
0.0
 11
-36.379386
 21
134.723609
 31
0.0
1001
ACAD
1000
RTMaterial
1005
0
  0
LINE
  8
F09_IMG2
  5
640
 10
-28.579386
 20
138.223609
 30
0.0
 11
-32.879386
 21
138.223609
 31
0.0
1001
ACAD
1000
RTMaterial
1005
0
  0
LINE
  8
F09_IMG2
  5
641
 10
-34.979386
 20
140.623609
 30
0.0
 11
-35.179386
 21
140.423609
 31
0.0
1001
ACAD
1000
RTMaterial
1005
0
  0
LINE
  8
F09_IMG2
  5
642
 10
-35.579386
 20
140.623609
 30
0.0
 11
-35.779386
 21
140.423609
 31
0.0
1001
ACAD
1000
RTMaterial
1005
0
  0
LINE
  8
F09_IMG2
  5
643
 10
-36.179386
 20
136.323609
 30
0.0
 11
-36.179386
 21
139.423609
 31
0.0
1001
ACAD
1000
RTMaterial
1005
0
  0
LINE
  8
F09_IMG2
  5
644
 10
-36.179386
 20
139.423609
 30
0.0
 11
-36.179386
 21
140.623609
 31
0.0
1001
ACAD
1000
RTMaterial
1005
0
  0
LINE
  8
F09_IMG2
  5
645
 10
-35.579386
 20
140.623609
 30
0.0
 11
-35.379386
 21
140.623609
 31
0.0
1001
ACAD
1000
RTMaterial
1005
0
  0
LINE
  8
F09_IMG2
  5
646
 10
-35.779386
 20
140.423609
 30
0.0
 11
-35.979386
 21
140.623609
 31
0.0
1001
ACAD
1000
RTMaterial
1005
0
  0
LINE
  8
F09_IMG2
  5
647
 10
-36.179386
 20
140.623609
 30
0.0
 11
-35.979386
 21
140.623609
 31
0.0
1001
ACAD
1000
RTMaterial
1005
0
  0
LINE
  8
F09_IMG2
  5
648
 10
-35.179386
 20
140.423609
 30
0.0
 11
-35.379386
 21
140.623609
 31
0.0
1001
ACAD
1000
RTMaterial
1005
0
  0
LINE
  8
F09_IMG2
  5
649
 10
-33.379386
 20
140.423609
 30
0.0
 11
-33.579386
 21
140.623609
 31
0.0
1001
ACAD
1000
RTMaterial
1005
0
  0
LINE
  8
F09_IMG2
  5
64A
 10
-33.779386
 20
140.623609
 30
0.0
 11
-33.579386
 21
140.623609
 31
0.0
1001
ACAD
1000
RTMaterial
1005
0
  0
LINE
  8
F09_IMG2
  5
64B
 10
-33.779386
 20
140.623609
 30
0.0
 11
-33.979386
 21
140.423609
 31
0.0
1001
ACAD
1000
RTMaterial
1005
0
  0
LINE
  8
F09_IMG2
  5
64C
 10
-33.979386
 20
140.423609
 30
0.0
 11
-34.179386
 21
140.623609
 31
0.0
1001
ACAD
1000
RTMaterial
1005
0
  0
LINE
  8
F09_IMG2
  5
64D
 10
-34.379386
 20
140.623609
 30
0.0
 11
-34.179386
 21
140.623609
 31
0.0
1001
ACAD
1000
RTMaterial
1005
0
  0
LINE
  8
F09_IMG2
  5
64E
 10
-34.379386
 20
140.623609
 30
0.0
 11
-34.579386
 21
140.423609
 31
0.0
1001
ACAD
1000
RTMaterial
1005
0
  0
LINE
  8
F09_IMG2
  5
64F
 10
-34.579386
 20
140.423609
 30
0.0
 11
-34.779386
 21
140.623609
 31
0.0
1001
ACAD
1000
RTMaterial
1005
0
  0
LINE
  8
F09_IMG2
  5
650
 10
-34.979386
 20
140.623609
 30
0.0
 11
-34.779386
 21
140.623609
 31
0.0
1001
ACAD
1000
RTMaterial
1005
0
  0
LINE
  8
F09_IMG2
  5
651
 10
-33.179386
 20
140.623609
 30
0.0
 11
-33.379386
 21
140.423609
 31
0.0
1001
ACAD
1000
RTMaterial
1005
0
  0
LINE
  8
F09_IMG2
  5
652
 10
-33.179386
 20
140.623609
 30
0.0
 11
-32.979386
 21
140.623609
 31
0.0
1001
ACAD
1000
RTMaterial
1005
0
  0
LINE
  8
F09_IMG2
  5
653
 10
-32.779386
 20
140.423609
 30
0.0
 11
-32.979386
 21
140.623609
 31
0.0
1001
ACAD
1000
RTMaterial
1005
0
  0
LINE
  8
F09_IMG2
  5
654
 10
-32.579386
 20
140.623609
 30
0.0
 11
-32.779386
 21
140.423609
 31
0.0
1001
ACAD
1000
RTMaterial
1005
0
  0
LINE
  8
F09_IMG2
  5
655
 10
-32.579386
 20
140.623609
 30
0.0
 11
-32.379386
 21
140.623609
 31
0.0
1001
ACAD
1000
RTMaterial
1005
0
  0
LINE
  8
F09_IMG2
  5
656
 10
-32.179386
 20
140.423609
 30
0.0
 11
-32.379386
 21
140.623609
 31
0.0
1001
ACAD
1000
RTMaterial
1005
0
  0
LINE
  8
F09_IMG2
  5
657
 10
-31.979386
 20
140.623609
 30
0.0
 11
-32.179386
 21
140.423609
 31
0.0
1001
ACAD
1000
RTMaterial
1005
0
  0
LINE
  8
F09_IMG2
  5
658
 10
-31.979386
 20
140.623609
 30
0.0
 11
-31.779386
 21
140.623609
 31
0.0
1001
ACAD
1000
RTMaterial
1005
0
  0
LINE
  8
F09_IMG2
  5
659
 10
-31.579386
 20
140.423609
 30
0.0
 11
-31.779386
 21
140.623609
 31
0.0
1001
ACAD
1000
RTMaterial
1005
0
  0
LINE
  8
F09_IMG2
  5
65A
 10
-31.179386
 20
139.423609
 30
0.0
 11
-31.179386
 21
140.623609
 31
0.0
1001
ACAD
1000
RTMaterial
1005
0
  0
LINE
  8
F09_IMG2
  5
65B
 10
-31.379386
 20
140.623609
 30
0.0
 11
-31.179386
 21
140.623609
 31
0.0
1001
ACAD
1000
RTMaterial
1005
0
  0
LINE
  8
F09_IMG2
  5
65C
 10
-31.379386
 20
140.623609
 30
0.0
 11
-31.579386
 21
140.423609
 31
0.0
1001
ACAD
1000
RTMaterial
1005
0
  0
LINE
  8
F09_IMG2
  5
65D
 10
-31.179386
 20
139.423609
 30
0.0
 11
-32.379386
 21
138.223609
 31
0.0
1001
ACAD
1000
RTMaterial
1005
0
  0
LINE
  8
F09_IMG2
  5
65E
 10
-3.379386
 20
125.623609
 30
0.0
 11
-2.579386
 21
125.623609
 31
0.0
1001
ACAD
1000
RTMaterial
1005
0
  0
LINE
  8
F09_IMG2
  5
65F
 10
-2.579386
 20
127.223609
 30
0.0
 11
-3.379386
 21
127.223609
 31
0.0
1001
ACAD
1000
RTMaterial
1005
0
  0
LINE
  8
F09_IMG2
  5
660
 10
-2.579386
 20
125.623609
 30
0.0
 11
-2.579386
 21
127.223609
 31
0.0
1001
ACAD
1000
RTMaterial
1005
0
  0
LINE
  8
F04_HID
  5
662
 10
-56.379386
 20
114.823609
 30
0.0
 11
-56.379386
 21
107.223609
 31
0.0
1001
ACAD
1000
RTMaterial
1005
0
  0
LINE
  8
F04_HID
  5
663
 10
-57.379386
 20
107.223609
 30
0.0
 11
-56.379386
 21
107.223609
 31
0.0
1001
ACAD
1000
RTMaterial
1005
0
  0
LINE
  8
F04_HID
  5
664
 10
-57.379386
 20
114.823609
 30
0.0
 11
-57.379386
 21
107.223609
 31
0.0
1001
ACAD
1000
RTMaterial
1005
0
  0
LINE
  8
F04_HID
  5
665
 10
-57.379386
 20
114.823609
 30
0.0
 11
-56.379386
 21
114.823609
 31
0.0
1001
ACAD
1000
RTMaterial
1005
0
  0
LINE
  8
F04_HID
  5
666
 10
-57.379386
 20
138.023609
 30
0.0
 11
-56.379386
 21
138.023609
 31
0.0
1001
ACAD
1000
RTMaterial
1005
0
  0
LINE
  8
F04_HID
  5
667
 10
-57.379386
 20
138.023609
 30
0.0
 11
-57.379386
 21
145.623609
 31
0.0
1001
ACAD
1000
RTMaterial
1005
0
  0
LINE
  8
F04_HID
  5
668
 10
-57.379386
 20
145.623609
 30
0.0
 11
-56.379386
 21
145.623609
 31
0.0
1001
ACAD
1000
RTMaterial
1005
0
  0
LINE
  8
F04_HID
  5
669
 10
-56.379386
 20
138.023609
 30
0.0
 11
-56.379386
 21
145.623609
 31
0.0
1001
ACAD
1000
RTMaterial
1005
0
  0
LINE
  8
F01_OUT
  5
717
 10
-43.379386
 20
135.423609
 30
0.0
 11
-43.379386
 21
117.423609
 31
0.0
1001
ACAD
1000
RTMaterial
1005
0
  0
ARC
  8
F01_OUT
  5
718
 10
115.666769
 20
127.623609
 30
0.0
 40
0.3
 50
90.0
 51
180.0
1001
ACAD
1000
RTMaterial
1005
0
  0
ARC
  8
F01_OUT
  5
719
 10
116.566769
 20
127.623609
 30
0.0
 40
0.3
 50
0.0
 51
90.0
1001
ACAD
1000
RTMaterial
1005
0
  0
ARC
  8
F01_OUT
  5
71A
 10
115.666769
 20
125.223609
 30
0.0
 40
0.3
 50
180.0
 51
270.0
1001
ACAD
1000
RTMaterial
1005
0
  0
ARC
  8
F01_OUT
  5
71B
 10
116.566769
 20
125.223609
 30
0.0
 40
0.3
 50
270.0
 51
0.0
1001
ACAD
1000
RTMaterial
1005
0
  0
LINE
  8
F01_OUT
  5
71C
 10
116.566769
 20
127.923609
 30
0.0
 11
115.666769
 21
127.923609
 31
0.0
1001
ACAD
1000
RTMaterial
1005
0
  0
LINE
  8
F01_OUT
  5
71D
 10
115.366769
 20
127.623609
 30
0.0
 11
115.366769
 21
125.223609
 31
0.0
1001
ACAD
1000
RTMaterial
1005
0
  0
LINE
  8
F01_OUT
  5
71E
 10
116.866769
 20
125.223609
 30
0.0
 11
116.866769
 21
127.623609
 31
0.0
1001
ACAD
1000
RTMaterial
1005
0
  0
LINE
  8
F01_OUT
  5
71F
 10
115.666769
 20
124.923609
 30
0.0
 11
116.566769
 21
124.923609
 31
0.0
1001
ACAD
1000
RTMaterial
1005
0
  0
ARC
  8
F01_OUT
  5
720
 10
71.066769
 20
125.223609
 30
0.0
 40
0.3
 50
270.0
 51
0.0
1001
ACAD
1000
RTMaterial
1005
0
  0
ARC
  8
F01_OUT
  5
721
 10
71.066769
 20
127.623609
 30
0.0
 40
0.3
 50
0.0
 51
90.0
1001
ACAD
1000
RTMaterial
1005
0
  0
ARC
  8
F01_OUT
  5
722
 10
70.166769
 20
125.223609
 30
0.0
 40
0.3
 50
180.0
 51
270.0
1001
ACAD
1000
RTMaterial
1005
0
  0
ARC
  8
F01_OUT
  5
723
 10
70.166769
 20
127.623609
 30
0.0
 40
0.3
 50
90.0
 51
180.0
1001
ACAD
1000
RTMaterial
1005
0
  0
LINE
  8
F01_OUT
  5
724
 10
70.166769
 20
124.923609
 30
0.0
 11
71.066769
 21
124.923609
 31
0.0
1001
ACAD
1000
RTMaterial
1005
0
  0
LINE
  8
F01_OUT
  5
725
 10
71.366769
 20
125.223609
 30
0.0
 11
71.366769
 21
127.623609
 31
0.0
1001
ACAD
1000
RTMaterial
1005
0
  0
LINE
  8
F01_OUT
  5
726
 10
71.066769
 20
127.923609
 30
0.0
 11
70.166769
 21
127.923609
 31
0.0
1001
ACAD
1000
RTMaterial
1005
0
  0
LINE
  8
F01_OUT
  5
727
 10
69.866769
 20
127.623609
 30
0.0
 11
69.866769
 21
125.223609
 31
0.0
1001
ACAD
1000
RTMaterial
1005
0
  0
LINE
  8
F01_OUT
  5
728
 10
95.616769
 20
117.423609
 30
0.0
 11
96.116769
 21
117.423609
 31
0.0
1001
ACAD
1000
RTMaterial
1005
0
  0
LINE
  8
F01_OUT
  5
729
 10
67.116769
 20
117.423609
 30
0.0
 11
70.616769
 21
117.423609
 31
0.0
1001
ACAD
1000
RTMaterial
1005
0
  0
LINE
  8
F01_OUT
  5
72A
 10
95.616769
 20
117.623609
 30
0.0
 11
95.616769
 21
117.423609
 31
0.0
1001
ACAD
1000
RTMaterial
1005
0
  0
LINE
  8
F01_OUT
  5
72B
 10
50.116769
 20
117.423609
 30
0.0
 11
53.616769
 21
117.423609
 31
0.0
1001
ACAD
1000
RTMaterial
1005
0
  0
LINE
  8
F01_OUT
  5
72C
 10
59.366769
 20
119.723609
 30
0.0
 11
61.366769
 21
119.723609
 31
0.0
1001
ACAD
1000
RTMaterial
1005
0
  0
LINE
  8
F01_OUT
  5
72D
 10
95.616769
 20
120.423609
 30
0.0
 11
95.616769
 21
117.623609
 31
0.0
1001
ACAD
1000
RTMaterial
1005
0
  0
LINE
  8
F01_OUT
  5
72E
 10
112.616769
 20
117.423609
 30
0.0
 11
116.116769
 21
117.423609
 31
0.0
1001
ACAD
1000
RTMaterial
1005
0
  0
LINE
  8
F01_OUT
  5
72F
 10
96.116769
 20
117.423609
 30
0.0
 11
99.116769
 21
117.423609
 31
0.0
1001
ACAD
1000
RTMaterial
1005
0
  0
LINE
  8
F01_OUT
  5
730
 10
104.866769
 20
119.723609
 30
0.0
 11
106.866769
 21
119.723609
 31
0.0
1001
ACAD
1000
RTMaterial
1005
0
  0
LINE
  8
F01_OUT
  5
731
 10
107.616769
 20
135.423609
 30
0.0
 11
104.116769
 21
135.423609
 31
0.0
1001
ACAD
1000
RTMaterial
1005
0
  0
LINE
  8
F01_OUT
  5
732
 10
62.116769
 20
135.423609
 30
0.0
 11
58.616769
 21
135.423609
 31
0.0
1001
ACAD
1000
RTMaterial
1005
0
  0
ARC
  8
F01_OUT
  5
733
 10
40.366769
 20
115.923609
 30
0.0
 40
0.5
 50
180.0
 51
270.0
1001
ACAD
1000
RTMaterial
1005
0
  0
ARC
  8
F01_OUT
  5
734
 10
123.166769
 20
115.923609
 30
0.0
 40
0.5
 50
270.0
 51
0.0
1001
ACAD
1000
RTMaterial
1005
0
  0
ARC
  8
F01_OUT
  5
735
 10
85.566769
 20
115.923609
 30
0.0
 40
0.5
 50
180.0
 51
270.0
1001
ACAD
1000
RTMaterial
1005
0
  0
ARC
  8
F01_OUT
  5
736
 10
77.666769
 20
115.923609
 30
0.0
 40
0.5
 50
270.0
 51
0.0
1001
ACAD
1000
RTMaterial
1005
0
  0
ARC
  8
F01_OUT
  5
737
 10
78.666769
 20
119.123609
 30
0.0
 40
0.5
 50
90.0
 51
180.0
1001
ACAD
1000
RTMaterial
1005
0
  0
ARC
  8
F01_OUT
  5
738
 10
71.666769
 20
124.723609
 30
0.0
 40
0.3
 50
270.0
 51
0.0
1001
ACAD
1000
RTMaterial
1005
0
  0
ARC
  8
F01_OUT
  5
739
 10
66.766769
 20
124.723609
 30
0.0
 40
0.3
 50
180.0
 51
270.0
1001
ACAD
1000
RTMaterial
1005
0
  0
ARC
  8
F01_OUT
  5
73A
 10
71.666769
 20
128.123609
 30
0.0
 40
0.3
 50
0.0
 51
90.0
1001
ACAD
1000
RTMaterial
1005
0
  0
ARC
  8
F01_OUT
  5
73B
 10
66.766769
 20
128.123609
 30
0.0
 40
0.3
 50
90.0
 51
180.0
1001
ACAD
1000
RTMaterial
1005
0
  0
ARC
  8
F01_OUT
  5
73C
 10
78.666769
 20
133.723609
 30
0.0
 40
0.5
 50
180.0
 51
270.0
1001
ACAD
1000
RTMaterial
1005
0
  0
ARC
  8
F01_OUT
  5
73D
 10
85.566769
 20
124.916503
 30
0.0
 40
0.5
 50
135.0
 51
180.0
1001
ACAD
1000
RTMaterial
1005
0
  0
ARC
  8
F01_OUT
  5
73E
 10
84.566769
 20
119.123609
 30
0.0
 40
0.5
 50
0.0
 51
90.0
1001
ACAD
1000
RTMaterial
1005
0
  0
ARC
  8
F01_OUT
  5
73F
 10
85.566769
 20
127.930716
 30
0.0
 40
0.5
 50
180.0
 51
225.0
1001
ACAD
1000
RTMaterial
1005
0
  0
ARC
  8
F01_OUT
  5
740
 10
84.566769
 20
133.723609
 30
0.0
 40
0.5
 50
270.0
 51
0.0
1001
ACAD
1000
RTMaterial
1005
0
  0
ARC
  8
F01_OUT
  5
741
 10
85.659662
 20
126.423609
 30
0.0
 40
0.5
 50
315.0
 51
45.0
1001
ACAD
1000
RTMaterial
1005
0
  0
ARC
  8
F01_OUT
  5
742
 10
117.166769
 20
128.123609
 30
0.0
 40
0.3
 50
0.0
 51
90.0
1001
ACAD
1000
RTMaterial
1005
0
  0
ARC
  8
F01_OUT
  5
743
 10
112.266769
 20
124.723609
 30
0.0
 40
0.3
 50
180.0
 51
270.0
1001
ACAD
1000
RTMaterial
1005
0
  0
ARC
  8
F01_OUT
  5
744
 10
117.166769
 20
124.723609
 30
0.0
 40
0.3
 50
270.0
 51
0.0
1001
ACAD
1000
RTMaterial
1005
0
  0
ARC
  8
F01_OUT
  5
745
 10
112.266769
 20
128.123609
 30
0.0
 40
0.3
 50
90.0
 51
180.0
1001
ACAD
1000
RTMaterial
1005
0
  0
ARC
  8
F01_OUT
  5
746
 10
40.366769
 20
136.923609
 30
0.0
 40
0.5
 50
90.0
 51
180.0
1001
ACAD
1000
RTMaterial
1005
0
  0
ARC
  8
F01_OUT
  5
747
 10
123.166769
 20
136.923609
 30
0.0
 40
0.5
 50
0.0
 51
90.0
1001
ACAD
1000
RTMaterial
1005
0
  0
ARC
  8
F01_OUT
  5
748
 10
85.566769
 20
136.923609
 30
0.0
 40
0.5
 50
90.0
 51
180.0
1001
ACAD
1000
RTMaterial
1005
0
  0
ARC
  8
F01_OUT
  5
749
 10
77.666769
 20
136.923609
 30
0.0
 40
0.5
 50
0.0
 51
90.0
1001
ACAD
1000
RTMaterial
1005
0
  0
LINE
  8
F01_OUT
  5
74A
 10
39.866769
 20
136.923609
 30
0.0
 11
39.866769
 21
115.923609
 31
0.0
1001
ACAD
1000
RTMaterial
1005
0
  0
LINE
  8
F01_OUT
  5
74B
 10
43.066769
 20
122.373609
 30
0.0
 11
43.066769
 21
120.373609
 31
0.0
1001
ACAD
1000
RTMaterial
1005
0
  0
LINE
  8
F01_OUT
  5
74C
 10
43.066769
 20
132.473609
 30
0.0
 11
43.066769
 21
130.473609
 31
0.0
1001
ACAD
1000
RTMaterial
1005
0
  0
LINE
  8
F01_OUT
  5
74D
 10
41.566769
 20
120.373609
 30
0.0
 11
41.566769
 21
122.373609
 31
0.0
1001
ACAD
1000
RTMaterial
1005
0
  0
LINE
  8
F01_OUT
  5
74E
 10
41.566769
 20
130.473609
 30
0.0
 11
41.566769
 21
132.473609
 31
0.0
1001
ACAD
1000
RTMaterial
1005
0
  0
LINE
  8
F01_OUT
  5
74F
 10
41.566769
 20
132.473609
 30
0.0
 11
43.066769
 21
132.473609
 31
0.0
1001
ACAD
1000
RTMaterial
1005
0
  0
LINE
  8
F01_OUT
  5
750
 10
43.066769
 20
130.473609
 30
0.0
 11
41.566769
 21
130.473609
 31
0.0
1001
ACAD
1000
RTMaterial
1005
0
  0
LINE
  8
F01_OUT
  5
751
 10
43.066769
 20
120.373609
 30
0.0
 11
41.566769
 21
120.373609
 31
0.0
1001
ACAD
1000
RTMaterial
1005
0
  0
LINE
  8
F01_OUT
  5
752
 10
41.566769
 20
122.373609
 30
0.0
 11
43.066769
 21
122.373609
 31
0.0
1001
ACAD
1000
RTMaterial
1005
0
  0
LINE
  8
F01_OUT
  5
753
 10
95.616769
 20
117.423609
 30
0.0
 11
96.116769
 21
117.423609
 31
0.0
1001
ACAD
1000
RTMaterial
1005
0
  0
LINE
  8
F01_OUT
  5
754
 10
53.616769
 20
117.423609
 30
0.0
 11
53.616769
 21
117.623609
 31
0.0
1001
ACAD
1000
RTMaterial
1005
0
  0
LINE
  8
F01_OUT
  5
755
 10
67.116769
 20
117.423609
 30
0.0
 11
70.616769
 21
117.423609
 31
0.0
1001
ACAD
1000
RTMaterial
1005
0
  0
LINE
  8
F01_OUT
  5
756
 10
50.116769
 20
117.623609
 30
0.0
 11
50.116769
 21
117.423609
 31
0.0
1001
ACAD
1000
RTMaterial
1005
0
  0
LINE
  8
F01_OUT
  5
757
 10
95.616769
 20
117.623609
 30
0.0
 11
95.616769
 21
117.423609
 31
0.0
1001
ACAD
1000
RTMaterial
1005
0
  0
LINE
  8
F01_OUT
  5
758
 10
40.366769
 20
115.423609
 30
0.0
 11
77.666769
 21
115.423609
 31
0.0
1001
ACAD
1000
RTMaterial
1005
0
  0
LINE
  8
F01_OUT
  5
759
 10
50.116769
 20
117.423609
 30
0.0
 11
53.616769
 21
117.423609
 31
0.0
1001
ACAD
1000
RTMaterial
1005
0
  0
LINE
  8
F01_OUT
  5
75A
 10
85.566769
 20
115.423609
 30
0.0
 11
123.166769
 21
115.423609
 31
0.0
1001
ACAD
1000
RTMaterial
1005
0
  0
LINE
  8
F01_OUT
  5
75B
 10
59.366769
 20
119.723609
 30
0.0
 11
61.366769
 21
119.723609
 31
0.0
1001
ACAD
1000
RTMaterial
1005
0
  0
LINE
  8
F01_OUT
  5
75C
 10
59.366769
 20
121.523609
 30
0.0
 11
59.366769
 21
119.723609
 31
0.0
1001
ACAD
1000
RTMaterial
1005
0
  0
LINE
  8
F01_OUT
  5
75D
 10
61.366769
 20
119.723609
 30
0.0
 11
61.366769
 21
121.523609
 31
0.0
1001
ACAD
1000
RTMaterial
1005
0
  0
LINE
  8
F01_OUT
  5
75E
 10
73.466769
 20
123.423609
 30
0.0
 11
64.966769
 21
123.423609
 31
0.0
1001
ACAD
1000
RTMaterial
1005
0
  0
LINE
  8
F01_OUT
  5
75F
 10
66.766769
 20
124.423609
 30
0.0
 11
71.666769
 21
124.423609
 31
0.0
1001
ACAD
1000
RTMaterial
1005
0
  0
LINE
  8
F01_OUT
  5
760
 10
61.366769
 20
121.523609
 30
0.0
 11
59.366769
 21
121.523609
 31
0.0
1001
ACAD
1000
RTMaterial
1005
0
  0
LINE
  8
F01_OUT
  5
761
 10
71.966769
 20
124.723609
 30
0.0
 11
71.966769
 21
128.123609
 31
0.0
1001
ACAD
1000
RTMaterial
1005
0
  0
LINE
  8
F01_OUT
  5
762
 10
66.466769
 20
128.123609
 30
0.0
 11
66.466769
 21
124.723609
 31
0.0
1001
ACAD
1000
RTMaterial
1005
0
  0
LINE
  8
F01_OUT
  5
763
 10
71.666769
 20
128.423609
 30
0.0
 11
66.766769
 21
128.423609
 31
0.0
1001
ACAD
1000
RTMaterial
1005
0
  0
LINE
  8
F01_OUT
  5
764
 10
64.966769
 20
130.023609
 30
0.0
 11
64.966769
 21
123.423609
 31
0.0
1001
ACAD
1000
RTMaterial
1005
0
  0
LINE
  8
F01_OUT
  5
765
 10
73.466769
 20
123.423609
 30
0.0
 11
73.466769
 21
130.023609
 31
0.0
1001
ACAD
1000
RTMaterial
1005
0
  0
LINE
  8
F01_OUT
  5
766
 10
64.966769
 20
130.023609
 30
0.0
 11
73.466769
 21
130.023609
 31
0.0
1001
ACAD
1000
RTMaterial
1005
0
  0
LINE
  8
F01_OUT
  5
767
 10
95.616769
 20
120.423609
 30
0.0
 11
95.616769
 21
117.623609
 31
0.0
1001
ACAD
1000
RTMaterial
1005
0
  0
LINE
  8
F01_OUT
  5
768
 10
88.366769
 20
122.373609
 30
0.0
 11
87.066769
 21
122.373609
 31
0.0
1001
ACAD
1000
RTMaterial
1005
0
  0
LINE
  8
F01_OUT
  5
769
 10
88.566769
 20
122.373609
 30
0.0
 11
88.366769
 21
122.373609
 31
0.0
1001
ACAD
1000
RTMaterial
1005
0
  0
LINE
  8
F01_OUT
  5
76A
 10
88.566769
 20
122.373609
 30
0.0
 11
88.566769
 21
120.373609
 31
0.0
1001
ACAD
1000
RTMaterial
1005
0
  0
LINE
  8
F01_OUT
  5
76B
 10
88.566769
 20
120.373609
 30
0.0
 11
88.366769
 21
120.373609
 31
0.0
1001
ACAD
1000
RTMaterial
1005
0
  0
LINE
  8
F01_OUT
  5
76C
 10
88.366769
 20
120.373609
 30
0.0
 11
87.066769
 21
120.373609
 31
0.0
1001
ACAD
1000
RTMaterial
1005
0
  0
LINE
  8
F01_OUT
  5
76D
 10
87.066769
 20
120.373609
 30
0.0
 11
87.066769
 21
122.373609
 31
0.0
1001
ACAD
1000
RTMaterial
1005
0
  0
LINE
  8
F01_OUT
  5
76E
 10
116.116769
 20
117.623609
 30
0.0
 11
116.116769
 21
120.423609
 31
0.0
1001
ACAD
1000
RTMaterial
1005
0
  0
LINE
  8
F01_OUT
  5
76F
 10
116.116769
 20
117.423609
 30
0.0
 11
116.116769
 21
117.623609
 31
0.0
1001
ACAD
1000
RTMaterial
1005
0
  0
LINE
  8
F01_OUT
  5
770
 10
112.616769
 20
117.423609
 30
0.0
 11
116.116769
 21
117.423609
 31
0.0
1001
ACAD
1000
RTMaterial
1005
0
  0
LINE
  8
F01_OUT
  5
771
 10
112.616769
 20
120.423609
 30
0.0
 11
112.616769
 21
117.623609
 31
0.0
1001
ACAD
1000
RTMaterial
1005
0
  0
LINE
  8
F01_OUT
  5
772
 10
112.616769
 20
117.623609
 30
0.0
 11
112.616769
 21
117.423609
 31
0.0
1001
ACAD
1000
RTMaterial
1005
0
  0
LINE
  8
F01_OUT
  5
773
 10
96.116769
 20
117.423609
 30
0.0
 11
99.116769
 21
117.423609
 31
0.0
1001
ACAD
1000
RTMaterial
1005
0
  0
LINE
  8
F01_OUT
  5
774
 10
99.116769
 20
117.423609
 30
0.0
 11
99.116769
 21
117.623609
 31
0.0
1001
ACAD
1000
RTMaterial
1005
0
  0
LINE
  8
F01_OUT
  5
775
 10
104.866769
 20
119.723609
 30
0.0
 11
106.866769
 21
119.723609
 31
0.0
1001
ACAD
1000
RTMaterial
1005
0
  0
LINE
  8
F01_OUT
  5
776
 10
99.116769
 20
117.623609
 30
0.0
 11
99.116769
 21
120.423609
 31
0.0
1001
ACAD
1000
RTMaterial
1005
0
  0
LINE
  8
F01_OUT
  5
777
 10
78.666769
 20
119.623609
 30
0.0
 11
84.566769
 21
119.623609
 31
0.0
1001
ACAD
1000
RTMaterial
1005
0
  0
LINE
  8
F01_OUT
  5
778
 10
78.166769
 20
119.123609
 30
0.0
 11
78.166769
 21
133.723609
 31
0.0
1001
ACAD
1000
RTMaterial
1005
0
  0
LINE
  8
F01_OUT
  5
779
 10
78.166769
 20
115.923609
 30
0.0
 11
78.166769
 21
119.123609
 31
0.0
1001
ACAD
1000
RTMaterial
1005
0
  0
LINE
  8
F01_OUT
  5
77A
 10
84.566769
 20
133.223609
 30
0.0
 11
78.666769
 21
133.223609
 31
0.0
1001
ACAD
1000
RTMaterial
1005
0
  0
LINE
  8
F01_OUT
  5
77B
 10
85.066769
 20
124.916503
 30
0.0
 11
85.066769
 21
120.123609
 31
0.0
1001
ACAD
1000
RTMaterial
1005
0
  0
LINE
  8
F01_OUT
  5
77C
 10
85.066769
 20
119.123609
 30
0.0
 11
85.066769
 21
115.923609
 31
0.0
1001
ACAD
1000
RTMaterial
1005
0
  0
LINE
  8
F01_OUT
  5
77D
 10
85.066769
 20
120.123609
 30
0.0
 11
85.066769
 21
119.123609
 31
0.0
1001
ACAD
1000
RTMaterial
1005
0
  0
LINE
  8
F01_OUT
  5
77E
 10
85.066769
 20
132.723609
 30
0.0
 11
85.066769
 21
127.930716
 31
0.0
1001
ACAD
1000
RTMaterial
1005
0
  0
LINE
  8
F01_OUT
  5
77F
 10
85.066769
 20
136.923609
 30
0.0
 11
85.066769
 21
133.723609
 31
0.0
1001
ACAD
1000
RTMaterial
1005
0
  0
LINE
  8
F01_OUT
  5
780
 10
85.066769
 20
133.723609
 30
0.0
 11
85.066769
 21
132.723609
 31
0.0
1001
ACAD
1000
RTMaterial
1005
0
  0
LINE
  8
F01_OUT
  5
781
 10
99.116769
 20
120.423609
 30
0.0
 11
95.616769
 21
120.423609
 31
0.0
1001
ACAD
1000
RTMaterial
1005
0
  0
LINE
  8
F01_OUT
  5
782
 10
86.013215
 20
126.777163
 30
0.0
 11
85.213215
 21
127.577163
 31
0.0
1001
ACAD
1000
RTMaterial
1005
0
  0
LINE
  8
F01_OUT
  5
783
 10
85.213215
 20
125.270056
 30
0.0
 11
86.013215
 21
126.070056
 31
0.0
1001
ACAD
1000
RTMaterial
1005
0
  0
LINE
  8
F01_OUT
  5
784
 10
107.616769
 20
132.423609
 30
0.0
 11
107.616769
 21
135.223609
 31
0.0
1001
ACAD
1000
RTMaterial
1005
0
  0
LINE
  8
F01_OUT
  5
785
 10
107.616769
 20
135.223609
 30
0.0
 11
107.616769
 21
135.423609
 31
0.0
1001
ACAD
1000
RTMaterial
1005
0
  0
LINE
  8
F01_OUT
  5
786
 10
104.866769
 20
121.523609
 30
0.0
 11
104.866769
 21
119.723609
 31
0.0
1001
ACAD
1000
RTMaterial
1005
0
  0
LINE
  8
F01_OUT
  5
787
 10
106.866769
 20
119.723609
 30
0.0
 11
106.866769
 21
121.523609
 31
0.0
1001
ACAD
1000
RTMaterial
1005
0
  0
LINE
  8
F01_OUT
  5
788
 10
112.266769
 20
128.423609
 30
0.0
 11
117.166769
 21
128.423609
 31
0.0
1001
ACAD
1000
RTMaterial
1005
0
  0
LINE
  8
F01_OUT
  5
789
 10
123.666769
 20
115.923609
 30
0.0
 11
123.666769
 21
136.923609
 31
0.0
1001
ACAD
1000
RTMaterial
1005
0
  0
LINE
  8
F01_OUT
  5
78A
 10
117.466769
 20
128.123609
 30
0.0
 11
117.466769
 21
124.723609
 31
0.0
1001
ACAD
1000
RTMaterial
1005
0
  0
LINE
  8
F01_OUT
  5
78B
 10
111.966769
 20
124.723609
 30
0.0
 11
111.966769
 21
128.123609
 31
0.0
1001
ACAD
1000
RTMaterial
1005
0
  0
LINE
  8
F01_OUT
  5
78C
 10
117.166769
 20
124.423609
 30
0.0
 11
112.266769
 21
124.423609
 31
0.0
1001
ACAD
1000
RTMaterial
1005
0
  0
LINE
  8
F01_OUT
  5
78D
 10
118.966769
 20
123.423609
 30
0.0
 11
110.466769
 21
123.423609
 31
0.0
1001
ACAD
1000
RTMaterial
1005
0
  0
LINE
  8
F01_OUT
  5
78E
 10
110.466769
 20
130.023609
 30
0.0
 11
118.966769
 21
130.023609
 31
0.0
1001
ACAD
1000
RTMaterial
1005
0
  0
LINE
  8
F01_OUT
  5
78F
 10
107.616769
 20
135.423609
 30
0.0
 11
104.116769
 21
135.423609
 31
0.0
1001
ACAD
1000
RTMaterial
1005
0
  0
LINE
  8
F01_OUT
  5
790
 10
104.116769
 20
135.423609
 30
0.0
 11
104.116769
 21
135.223609
 31
0.0
1001
ACAD
1000
RTMaterial
1005
0
  0
LINE
  8
F01_OUT
  5
791
 10
118.966769
 20
123.423609
 30
0.0
 11
118.966769
 21
130.023609
 31
0.0
1001
ACAD
1000
RTMaterial
1005
0
  0
LINE
  8
F01_OUT
  5
792
 10
110.466769
 20
130.023609
 30
0.0
 11
110.466769
 21
123.423609
 31
0.0
1001
ACAD
1000
RTMaterial
1005
0
  0
LINE
  8
F01_OUT
  5
793
 10
116.116769
 20
120.423609
 30
0.0
 11
112.616769
 21
120.423609
 31
0.0
1001
ACAD
1000
RTMaterial
1005
0
  0
LINE
  8
F01_OUT
  5
794
 10
106.866769
 20
121.523609
 30
0.0
 11
104.866769
 21
121.523609
 31
0.0
1001
ACAD
1000
RTMaterial
1005
0
  0
LINE
  8
F01_OUT
  5
795
 10
104.116769
 20
135.223609
 30
0.0
 11
104.116769
 21
132.423609
 31
0.0
1001
ACAD
1000
RTMaterial
1005
0
  0
LINE
  8
F01_OUT
  5
796
 10
104.116769
 20
132.423609
 30
0.0
 11
107.616769
 21
132.423609
 31
0.0
1001
ACAD
1000
RTMaterial
1005
0
  0
LINE
  8
F01_OUT
  5
797
 10
88.566769
 20
130.473609
 30
0.0
 11
88.566769
 21
132.473609
 31
0.0
1001
ACAD
1000
RTMaterial
1005
0
  0
LINE
  8
F01_OUT
  5
798
 10
88.366769
 20
130.473609
 30
0.0
 11
88.566769
 21
130.473609
 31
0.0
1001
ACAD
1000
RTMaterial
1005
0
  0
LINE
  8
F01_OUT
  5
799
 10
88.566769
 20
132.473609
 30
0.0
 11
88.366769
 21
132.473609
 31
0.0
1001
ACAD
1000
RTMaterial
1005
0
  0
LINE
  8
F01_OUT
  5
79A
 10
88.366769
 20
132.473609
 30
0.0
 11
87.066769
 21
132.473609
 31
0.0
1001
ACAD
1000
RTMaterial
1005
0
  0
LINE
  8
F01_OUT
  5
79B
 10
87.066769
 20
132.473609
 30
0.0
 11
87.066769
 21
130.473609
 31
0.0
1001
ACAD
1000
RTMaterial
1005
0
  0
LINE
  8
F01_OUT
  5
79C
 10
87.066769
 20
130.473609
 30
0.0
 11
88.366769
 21
130.473609
 31
0.0
1001
ACAD
1000
RTMaterial
1005
0
  0
LINE
  8
F01_OUT
  5
79D
 10
40.366769
 20
137.423609
 30
0.0
 11
77.666769
 21
137.423609
 31
0.0
1001
ACAD
1000
RTMaterial
1005
0
  0
LINE
  8
F01_OUT
  5
79E
 10
85.566769
 20
137.423609
 30
0.0
 11
123.166769
 21
137.423609
 31
0.0
1001
ACAD
1000
RTMaterial
1005
0
  0
LINE
  8
F01_OUT
  5
79F
 10
70.616769
 20
120.423609
 30
0.0
 11
67.116769
 21
120.423609
 31
0.0
1001
ACAD
1000
RTMaterial
1005
0
  0
LINE
  8
F01_OUT
  5
7A0
 10
53.616769
 20
120.423609
 30
0.0
 11
50.116769
 21
120.423609
 31
0.0
1001
ACAD
1000
RTMaterial
1005
0
  0
LINE
  8
F01_OUT
  5
7A1
 10
50.116769
 20
120.423609
 30
0.0
 11
50.116769
 21
117.623609
 31
0.0
1001
ACAD
1000
RTMaterial
1005
0
  0
LINE
  8
F01_OUT
  5
7A2
 10
53.616769
 20
117.623609
 30
0.0
 11
53.616769
 21
120.423609
 31
0.0
1001
ACAD
1000
RTMaterial
1005
0
  0
LINE
  8
F01_OUT
  5
7A3
 10
70.616769
 20
117.623609
 30
0.0
 11
70.616769
 21
120.423609
 31
0.0
1001
ACAD
1000
RTMaterial
1005
0
  0
LINE
  8
F01_OUT
  5
7A4
 10
67.116769
 20
120.423609
 30
0.0
 11
67.116769
 21
117.623609
 31
0.0
1001
ACAD
1000
RTMaterial
1005
0
  0
LINE
  8
F01_OUT
  5
7A5
 10
67.116769
 20
117.623609
 30
0.0
 11
67.116769
 21
117.423609
 31
0.0
1001
ACAD
1000
RTMaterial
1005
0
  0
LINE
  8
F01_OUT
  5
7A6
 10
70.616769
 20
117.423609
 30
0.0
 11
70.616769
 21
117.623609
 31
0.0
1001
ACAD
1000
RTMaterial
1005
0
  0
LINE
  8
F01_OUT
  5
7A7
 10
78.166769
 20
133.723609
 30
0.0
 11
78.166769
 21
136.923609
 31
0.0
1001
ACAD
1000
RTMaterial
1005
0
  0
LINE
  8
F01_OUT
  5
7A8
 10
62.116769
 20
135.223609
 30
0.0
 11
62.116769
 21
135.423609
 31
0.0
1001
ACAD
1000
RTMaterial
1005
0
  0
LINE
  8
F01_OUT
  5
7A9
 10
58.616769
 20
135.423609
 30
0.0
 11
58.616769
 21
135.223609
 31
0.0
1001
ACAD
1000
RTMaterial
1005
0
  0
LINE
  8
F01_OUT
  5
7AA
 10
62.116769
 20
135.423609
 30
0.0
 11
58.616769
 21
135.423609
 31
0.0
1001
ACAD
1000
RTMaterial
1005
0
  0
LINE
  8
F01_OUT
  5
7AB
 10
58.616769
 20
132.423609
 30
0.0
 11
62.116769
 21
132.423609
 31
0.0
1001
ACAD
1000
RTMaterial
1005
0
  0
LINE
  8
F01_OUT
  5
7AC
 10
62.116769
 20
132.423609
 30
0.0
 11
62.116769
 21
135.223609
 31
0.0
1001
ACAD
1000
RTMaterial
1005
0
  0
LINE
  8
F01_OUT
  5
7AD
 10
58.616769
 20
135.223609
 30
0.0
 11
58.616769
 21
132.423609
 31
0.0
1001
ACAD
1000
RTMaterial
1005
0
  0
LINE
  8
F01_OUT
  5
7AE
 10
-39.755122
 20
137.423609
 30
0.0
 11
-36.879386
 21
137.423609
 31
0.0
1001
ACAD
1000
RTMaterial
1005
0
  0
LINE
  8
F01_OUT
  5
7AF
 10
-36.879386
 20
115.423609
 30
0.0
 11
-39.755122
 21
115.423609
 31
0.0
1001
ACAD
1000
RTMaterial
1005
0
  0
LINE
  8
F01_OUT
  5
7B0
 10
-40.791518
 20
116.335741
 30
0.0
 11
-40.167254
 21
115.711477
 31
0.0
1001
ACAD
1000
RTMaterial
1005
0
  0
LINE
  8
F01_OUT
  5
7B1
 10
-40.791518
 20
136.511477
 30
0.0
 11
-40.167254
 21
137.135741
 31
0.0
1001
ACAD
1000
RTMaterial
1005
0
  0
LINE
  8
F01_OUT
  5
7B2
 10
-40.167254
 20
137.135741
 30
0.0
 11
-39.967254
 21
137.335741
 31
0.0
1001
ACAD
1000
RTMaterial
1005
0
  0
LINE
  8
F01_OUT
  5
7B3
 10
-40.879386
 20
135.223609
 30
0.0
 11
-43.379386
 21
135.223609
 31
0.0
1001
ACAD
1000
RTMaterial
1005
0
  0
LINE
  8
F01_OUT
  5
7B4
 10
-43.379386
 20
117.623609
 30
0.0
 11
-40.879386
 21
117.623609
 31
0.0
1001
ACAD
1000
RTMaterial
1005
0
  0
LINE
  8
F01_OUT
  5
7B5
 10
-40.879386
 20
117.623609
 30
0.0
 11
-40.879386
 21
117.423609
 31
0.0
1001
ACAD
1000
RTMaterial
1005
0
  0
LINE
  8
F01_OUT
  5
7B6
 10
-40.879386
 20
117.423609
 30
0.0
 11
-40.879386
 21
116.547873
 31
0.0
1001
ACAD
1000
RTMaterial
1005
0
  0
LINE
  8
F01_OUT
  5
7B7
 10
-40.879386
 20
135.423609
 30
0.0
 11
-40.879386
 21
135.223609
 31
0.0
1001
ACAD
1000
RTMaterial
1005
0
  0
LINE
  8
F01_OUT
  5
7B8
 10
-40.879386
 20
136.299345
 30
0.0
 11
-40.879386
 21
135.423609
 31
0.0
1001
ACAD
1000
RTMaterial
1005
0
  0
LINE
  8
F01_OUT
  5
7B9
 10
-39.967254
 20
115.511477
 30
0.0
 11
-40.167254
 21
115.711477
 31
0.0
1001
ACAD
1000
RTMaterial
1005
0
  0
LINE
  8
F01_OUT
  5
7BA
 10
-36.379386
 20
136.923609
 30
0.0
 11
-36.379386
 21
115.923609
 31
0.0
1001
ACAD
1000
RTMaterial
1005
0
  0
ARC
  8
F01_OUT
  5
7BB
 10
-39.755122
 20
137.123609
 30
0.0
 40
0.3
 50
90.0
 51
135.0
1001
ACAD
1000
RTMaterial
1005
0
  0
ARC
  8
F01_OUT
  5
7BC
 10
-36.879386
 20
136.923609
 30
0.0
 40
0.5
 50
0.0
 51
90.0
1001
ACAD
1000
RTMaterial
1005
0
  0
ARC
  8
F01_OUT
  5
7BD
 10
-40.579386
 20
116.547873
 30
0.0
 40
0.3
 50
180.0
 51
225.0
1001
ACAD
1000
RTMaterial
1005
0
  0
ARC
  8
F01_OUT
  5
7BE
 10
-39.755122
 20
115.723609
 30
0.0
 40
0.3
 50
225.0
 51
270.0
1001
ACAD
1000
RTMaterial
1005
0
  0
ARC
  8
F01_OUT
  5
7BF
 10
-40.579386
 20
136.299345
 30
0.0
 40
0.3
 50
135.0
 51
180.0
1001
ACAD
1000
RTMaterial
1005
0
  0
ARC
  8
F01_OUT
  5
7C0
 10
-36.879386
 20
115.923609
 30
0.0
 40
0.5
 50
270.0
 51
0.0
1001
ACAD
1000
RTMaterial
1005
0
  0
LINE
  8
F01_OUT
  5
7C1
 10
-42.279386
 20
117.423609
 30
0.0
 11
-43.379386
 21
117.423609
 31
0.0
1001
ACAD
1000
RTMaterial
1005
0
  0
LINE
  8
F01_OUT
  5
7C2
 10
-43.379386
 20
135.423609
 30
0.0
 11
-42.279386
 21
135.423609
 31
0.0
1001
ACAD
1000
RTMaterial
1005
0
  0
LINE
  8
F01_OUT
  5
7C3
 10
-42.279386
 20
117.423609
 30
0.0
 11
-40.879386
 21
117.423609
 31
0.0
1001
ACAD
1000
RTMaterial
1005
0
  0
LINE
  8
F01_OUT
  5
7C4
 10
-42.279386
 20
117.423609
 30
0.0
 11
-42.479386
 21
117.623609
 31
0.0
1001
ACAD
1000
RTMaterial
1005
0
  0
LINE
  8
F01_OUT
  5
7C5
 10
-42.279386
 20
135.423609
 30
0.0
 11
-40.879386
 21
135.423609
 31
0.0
1001
ACAD
1000
RTMaterial
1005
0
  0
LINE
  8
F01_OUT
  5
7C6
 10
-42.479386
 20
135.223609
 30
0.0
 11
-42.279386
 21
135.423609
 31
0.0
1001
ACAD
1000
RTMaterial
1005
0
  0
LINE
  8
F01_OUT
  5
7C7
 10
-40.879386
 20
117.623609
 30
0.0
 11
-40.879386
 21
117.423609
 31
0.0
1001
ACAD
1000
RTMaterial
1005
0
  0
LINE
  8
F01_OUT
  5
7C8
 10
-40.879386
 20
135.423609
 30
0.0
 11
-40.879386
 21
135.223609
 31
0.0
1001
ACAD
1000
RTMaterial
1005
0
  0
LINE
  8
F01_OUT
  5
7C9
 10
75.088781
 20
98.973609
 30
0.0
 11
82.588781
 21
98.973609
 31
0.0
1001
ACAD
1000
RTMaterial
1005
0
  0
LINE
  8
F01_OUT
  5
7CA
 10
72.588781
 20
102.273609
 30
0.0
 11
61.691769
 21
102.273609
 31
0.0
1001
ACAD
1000
RTMaterial
1005
0
  0
LINE
  8
F01_OUT
  5
7CB
 10
85.088781
 20
98.973609
 30
0.0
 11
94.991769
 21
98.973609
 31
0.0
1001
ACAD
1000
RTMaterial
1005
0
  0
LINE
  8
F01_OUT
  5
7CC
 10
-62.785603
 20
105.573609
 30
0.0
 11
-57.381601
 21
105.573609
 31
0.0
1001
ACAD
1000
RTMaterial
1005
0
  0
ARC
  8
F01_OUT
  5
7CD
 10
42.541769
 20
103.923609
 30
0.0
 40
1.65
 50
0.0
 51
62.964308
1001
ACAD
1000
RTMaterial
1005
0
  0
ARC
  8
F01_OUT
  5
7CE
 10
42.541769
 20
103.923609
 30
0.0
 40
1.65
 50
117.035692
 51
151.49649
1001
ACAD
1000
RTMaterial
1005
0
  0
ARC
  8
F01_OUT
  5
7CF
 10
42.541769
 20
103.923609
 30
0.0
 40
1.65
 50
208.50351
 51
270.0
1001
ACAD
1000
RTMaterial
1005
0
  0
ARC
  8
F01_OUT
  5
7D0
 10
42.541769
 20
103.923609
 30
0.0
 40
1.65
 50
270.0
 51
0.0
1001
ACAD
1000
RTMaterial
1005
0
  0
ARC
  8
F01_OUT
  5
7D1
 10
42.541769
 20
103.923609
 30
0.0
 40
0.75
 50
180.0
 51
0.0
1001
ACAD
1000
RTMaterial
1005
0
  0
LINE
  8
F01_OUT
  5
7D2
 10
61.691769
 20
105.573609
 30
0.0
 11
60.691769
 21
105.573609
 31
0.0
1001
ACAD
1000
RTMaterial
1005
0
  0
LINE
  8
F01_OUT
  5
7D3
 10
43.291769
 20
105.673609
 30
0.0
 11
43.291769
 21
105.923609
 31
0.0
1001
ACAD
1000
RTMaterial
1005
0
  0
LINE
  8
F01_OUT
  5
7D4
 10
44.291769
 20
105.573609
 30
0.0
 11
43.291769
 21
105.573609
 31
0.0
1001
ACAD
1000
RTMaterial
1005
0
  0
LINE
  8
F01_OUT
  5
7D5
 10
41.791769
 20
105.673609
 30
0.0
 11
41.791769
 21
105.923609
 31
0.0
1001
ACAD
1000
RTMaterial
1005
0
  0
LINE
  8
F01_OUT
  5
7D6
 10
43.291769
 20
103.923609
 30
0.0
 11
43.291769
 21
105.673609
 31
0.0
1001
ACAD
1000
RTMaterial
1005
0
  0
LINE
  8
F01_OUT
  5
7D7
 10
41.791769
 20
103.923609
 30
0.0
 11
41.791769
 21
105.673609
 31
0.0
1001
ACAD
1000
RTMaterial
1005
0
  0
LINE
  8
F01_OUT
  5
7D8
 10
59.191769
 20
105.573609
 30
0.0
 11
58.491769
 21
105.573609
 31
0.0
1001
ACAD
1000
RTMaterial
1005
0
  0
LINE
  8
F01_OUT
  5
7D9
 10
44.291769
 20
102.273609
 30
0.0
 11
42.541769
 21
102.273609
 31
0.0
1001
ACAD
1000
RTMaterial
1005
0
  0
LINE
  8
F01_OUT
  5
7DA
 10
61.691769
 20
102.273609
 30
0.0
 11
59.941769
 21
102.273609
 31
0.0
1001
ACAD
1000
RTMaterial
1005
0
  0
LINE
  8
F01_OUT
  5
7DB
 10
50.491769
 20
105.573609
 30
0.0
 11
49.791769
 21
105.573609
 31
0.0
1001
ACAD
1000
RTMaterial
1005
0
  0
LINE
  8
F01_OUT
  5
7DC
 10
48.841769
 20
105.573609
 30
0.0
 11
44.291769
 21
105.573609
 31
0.0
1001
ACAD
1000
RTMaterial
1005
0
  0
LINE
  8
F01_OUT
  5
7DD
 10
49.591769
 20
102.273609
 30
0.0
 11
44.291769
 21
102.273609
 31
0.0
1001
ACAD
1000
RTMaterial
1005
0
  0
LINE
  8
F01_OUT
  5
7DE
 10
59.941769
 20
102.273609
 30
0.0
 11
52.991769
 21
102.273609
 31
0.0
1001
ACAD
1000
RTMaterial
1005
0
  0
ARC
  8
F01_OUT
  5
7DF
 10
51.241769
 20
103.923609
 30
0.0
 40
1.65
 50
0.0
 51
62.964308
1001
ACAD
1000
RTMaterial
1005
0
  0
ARC
  8
F01_OUT
  5
7E0
 10
51.241769
 20
103.923609
 30
0.0
 40
1.65
 50
117.035692
 51
151.49649
1001
ACAD
1000
RTMaterial
1005
0
  0
ARC
  8
F01_OUT
  5
7E1
 10
51.241769
 20
103.923609
 30
0.0
 40
0.75
 50
180.0
 51
0.0
1001
ACAD
1000
RTMaterial
1005
0
  0
ARC
  8
F01_OUT
  5
7E2
 10
51.241769
 20
103.923609
 30
0.0
 40
1.65
 50
270.0
 51
0.0
1001
ACAD
1000
RTMaterial
1005
0
  0
ARC
  8
F01_OUT
  5
7E3
 10
51.241769
 20
103.923609
 30
0.0
 40
1.65
 50
208.50351
 51
270.0
1001
ACAD
1000
RTMaterial
1005
0
  0
LINE
  8
F01_OUT
  5
7E4
 10
61.691769
 20
105.573609
 30
0.0
 11
60.691769
 21
105.573609
 31
0.0
1001
ACAD
1000
RTMaterial
1005
0
  0
LINE
  8
F01_OUT
  5
7E5
 10
57.541769
 20
105.573609
 30
0.0
 11
52.991769
 21
105.573609
 31
0.0
1001
ACAD
1000
RTMaterial
1005
0
  0
LINE
  8
F01_OUT
  5
7E6
 10
51.991769
 20
105.673609
 30
0.0
 11
51.991769
 21
105.923609
 31
0.0
1001
ACAD
1000
RTMaterial
1005
0
  0
LINE
  8
F01_OUT
  5
7E7
 10
50.491769
 20
105.673609
 30
0.0
 11
50.491769
 21
105.923609
 31
0.0
1001
ACAD
1000
RTMaterial
1005
0
  0
LINE
  8
F01_OUT
  5
7E8
 10
52.991769
 20
105.573609
 30
0.0
 11
51.991769
 21
105.573609
 31
0.0
1001
ACAD
1000
RTMaterial
1005
0
  0
LINE
  8
F01_OUT
  5
7E9
 10
50.491769
 20
105.673609
 30
0.0
 11
50.491769
 21
103.923609
 31
0.0
1001
ACAD
1000
RTMaterial
1005
0
  0
LINE
  8
F01_OUT
  5
7EA
 10
51.991769
 20
105.673609
 30
0.0
 11
51.991769
 21
103.923609
 31
0.0
1001
ACAD
1000
RTMaterial
1005
0
  0
LINE
  8
F01_OUT
  5
7EB
 10
59.191769
 20
105.573609
 30
0.0
 11
58.491769
 21
105.573609
 31
0.0
1001
ACAD
1000
RTMaterial
1005
0
  0
LINE
  8
F01_OUT
  5
7EC
 10
52.991769
 20
102.273609
 30
0.0
 11
52.891769
 21
102.273609
 31
0.0
1001
ACAD
1000
RTMaterial
1005
0
  0
LINE
  8
F01_OUT
  5
7ED
 10
61.691769
 20
102.273609
 30
0.0
 11
59.941769
 21
102.273609
 31
0.0
1001
ACAD
1000
RTMaterial
1005
0
  0
LINE
  8
F01_OUT
  5
7EE
 10
59.941769
 20
102.273609
 30
0.0
 11
52.991769
 21
102.273609
 31
0.0
1001
ACAD
1000
RTMaterial
1005
0
  0
ARC
  8
F01_OUT
  5
7EF
 10
59.941769
 20
103.923609
 30
0.0
 40
1.65
 50
0.0
 51
62.964308
1001
ACAD
1000
RTMaterial
1005
0
  0
ARC
  8
F01_OUT
  5
7F0
 10
59.941769
 20
103.923609
 30
0.0
 40
1.65
 50
270.0
 51
0.0
1001
ACAD
1000
RTMaterial
1005
0
  0
ARC
  8
F01_OUT
  5
7F1
 10
59.941769
 20
103.923609
 30
0.0
 40
1.65
 50
117.035692
 51
151.49649
1001
ACAD
1000
RTMaterial
1005
0
  0
ARC
  8
F01_OUT
  5
7F2
 10
59.941769
 20
103.923609
 30
0.0
 40
0.75
 50
180.0
 51
0.0
1001
ACAD
1000
RTMaterial
1005
0
  0
ARC
  8
F01_OUT
  5
7F3
 10
59.941769
 20
103.923609
 30
0.0
 40
1.65
 50
208.50351
 51
270.0
1001
ACAD
1000
RTMaterial
1005
0
  0
LINE
  8
F01_OUT
  5
7F4
 10
60.691769
 20
105.673609
 30
0.0
 11
60.691769
 21
103.923609
 31
0.0
1001
ACAD
1000
RTMaterial
1005
0
  0
LINE
  8
F01_OUT
  5
7F5
 10
60.691769
 20
105.673609
 30
0.0
 11
60.691769
 21
105.923609
 31
0.0
1001
ACAD
1000
RTMaterial
1005
0
  0
LINE
  8
F01_OUT
  5
7F6
 10
61.691769
 20
105.573609
 30
0.0
 11
60.691769
 21
105.573609
 31
0.0
1001
ACAD
1000
RTMaterial
1005
0
  0
LINE
  8
F01_OUT
  5
7F7
 10
59.191769
 20
105.673609
 30
0.0
 11
59.191769
 21
105.923609
 31
0.0
1001
ACAD
1000
RTMaterial
1005
0
  0
LINE
  8
F01_OUT
  5
7F8
 10
59.191769
 20
105.673609
 30
0.0
 11
59.191769
 21
103.923609
 31
0.0
1001
ACAD
1000
RTMaterial
1005
0
  0
LINE
  8
F01_OUT
  5
7F9
 10
61.691769
 20
102.273609
 30
0.0
 11
59.941769
 21
102.273609
 31
0.0
1001
ACAD
1000
RTMaterial
1005
0
  0
LINE
  8
F01_OUT
  5
7FA
 10
52.891769
 20
103.923609
 30
0.0
 11
52.891769
 21
102.273609
 31
0.0
1001
ACAD
1000
RTMaterial
1005
0
  0
LINE
  8
F01_OUT
  5
7FB
 10
49.591769
 20
102.440766
 30
0.0
 11
49.591769
 21
101.861046
 31
0.0
1001
ACAD
1000
RTMaterial
1005
0
  0
POLYLINE
  8
F01_OUT
  5
7FC
 66
     1
 10
0.0
 20
0.0
 30
0.0
 70
   128
210
0.0
220
0.0
230
-1.0
1001
ACAD
1000
RTMaterial
1005
E83E8D0400000000
  0
VERTEX
  8
F01_OUT
  5
1930
 10
-52.991769
 20
98.973609
 30
0.0
  0
VERTEX
  8
F01_OUT
  5
1931
 10
-51.772103
 20
99.160628
 30
0.0
  0
VERTEX
  8
F01_OUT
  5
1932
 10
-50.67914
 20
99.729913
 30
0.0
  0
VERTEX
  8
F01_OUT
  5
1933
 10
-49.886787
 20
100.670029
 30
0.0
  0
VERTEX
  8
F01_OUT
  5
1934
 10
-49.591769
 20
101.861046
 30
0.0
  0
SEQEND
  8
F01_OUT
  5
1935
  0
LINE
  8
F01_OUT
  5
7FD
 10
52.991769
 20
98.973609
 30
0.0
 11
72.588781
 21
98.973609
 31
0.0
1001
ACAD
1000
RTMaterial
1005
0
  0
LINE
  8
F01_OUT
  5
7FE
 10
82.588781
 20
102.273609
 30
0.0
 11
75.088781
 21
102.273609
 31
0.0
1001
ACAD
1000
RTMaterial
1005
0
  0
LINE
  8
F01_OUT
  5
7FF
 10
66.241769
 20
105.573609
 30
0.0
 11
61.691769
 21
105.573609
 31
0.0
1001
ACAD
1000
RTMaterial
1005
0
  0
LINE
  8
F01_OUT
  5
800
 10
66.991769
 20
102.273609
 30
0.0
 11
61.691769
 21
102.273609
 31
0.0
1001
ACAD
1000
RTMaterial
1005
0
  0
LINE
  8
F01_OUT
  5
801
 10
66.241769
 20
105.573609
 30
0.0
 11
61.691769
 21
105.573609
 31
0.0
1001
ACAD
1000
RTMaterial
1005
0
  0
LINE
  8
F01_OUT
  5
802
 10
66.991769
 20
102.273609
 30
0.0
 11
61.691769
 21
102.273609
 31
0.0
1001
ACAD
1000
RTMaterial
1005
0
  0
LINE
  8
F01_OUT
  5
803
 10
66.241769
 20
105.573609
 30
0.0
 11
61.691769
 21
105.573609
 31
0.0
1001
ACAD
1000
RTMaterial
1005
0
  0
LINE
  8
F01_OUT
  5
804
 10
74.941769
 20
105.573609
 30
0.0
 11
69.391769
 21
105.573609
 31
0.0
1001
ACAD
1000
RTMaterial
1005
0
  0
ARC
  8
F01_OUT
  5
805
 10
105.441769
 20
103.923609
 30
0.0
 40
1.65
 50
0.0
 51
62.964308
1001
ACAD
1000
RTMaterial
1005
0
  0
ARC
  8
F01_OUT
  5
806
 10
105.441769
 20
103.923609
 30
0.0
 40
1.65
 50
117.035692
 51
151.49649
1001
ACAD
1000
RTMaterial
1005
0
  0
ARC
  8
F01_OUT
  5
807
 10
105.441769
 20
103.923609
 30
0.0
 40
0.75
 50
180.0
 51
0.0
1001
ACAD
1000
RTMaterial
1005
0
  0
ARC
  8
F01_OUT
  5
808
 10
105.441769
 20
103.923609
 30
0.0
 40
1.65
 50
208.50351
 51
270.0
1001
ACAD
1000
RTMaterial
1005
0
  0
ARC
  8
F01_OUT
  5
809
 10
105.441769
 20
103.923609
 30
0.0
 40
1.65
 50
270.0
 51
0.0
1001
ACAD
1000
RTMaterial
1005
0
  0
LINE
  8
F01_OUT
  5
80A
 10
103.991769
 20
105.573609
 30
0.0
 11
104.691769
 21
105.573609
 31
0.0
1001
ACAD
1000
RTMaterial
1005
0
  0
LINE
  8
F01_OUT
  5
80B
 10
103.041769
 20
105.573609
 30
0.0
 11
97.491769
 21
105.573609
 31
0.0
1001
ACAD
1000
RTMaterial
1005
0
  0
LINE
  8
F01_OUT
  5
80C
 10
104.691769
 20
103.923609
 30
0.0
 11
104.691769
 21
105.673609
 31
0.0
1001
ACAD
1000
RTMaterial
1005
0
  0
LINE
  8
F01_OUT
  5
80D
 10
106.191769
 20
103.923609
 30
0.0
 11
106.191769
 21
105.673609
 31
0.0
1001
ACAD
1000
RTMaterial
1005
0
  0
LINE
  8
F01_OUT
  5
80E
 10
104.691769
 20
105.673609
 30
0.0
 11
104.691769
 21
105.923609
 31
0.0
1001
ACAD
1000
RTMaterial
1005
0
  0
LINE
  8
F01_OUT
  5
80F
 10
106.191769
 20
105.673609
 30
0.0
 11
106.191769
 21
105.923609
 31
0.0
1001
ACAD
1000
RTMaterial
1005
0
  0
LINE
  8
F01_OUT
  5
810
 10
103.691769
 20
102.273609
 30
0.0
 11
98.391769
 21
102.273609
 31
0.0
1001
ACAD
1000
RTMaterial
1005
0
  0
LINE
  8
F01_OUT
  5
811
 10
94.991769
 20
102.273609
 30
0.0
 11
85.088781
 21
102.273609
 31
0.0
1001
ACAD
1000
RTMaterial
1005
0
  0
LINE
  8
F01_OUT
  5
812
 10
88.041769
 20
102.273609
 30
0.0
 11
86.291769
 21
102.273609
 31
0.0
1001
ACAD
1000
RTMaterial
1005
0
  0
LINE
  8
F01_OUT
  5
813
 10
103.691769
 20
102.273609
 30
0.0
 11
105.441769
 21
102.273609
 31
0.0
1001
ACAD
1000
RTMaterial
1005
0
  0
ARC
  8
F01_OUT
  5
814
 10
96.741769
 20
103.923609
 30
0.0
 40
1.65
 50
0.0
 51
62.964308
1001
ACAD
1000
RTMaterial
1005
0
  0
ARC
  8
F01_OUT
  5
815
 10
96.741769
 20
103.923609
 30
0.0
 40
1.65
 50
117.035692
 51
151.49649
1001
ACAD
1000
RTMaterial
1005
0
  0
ARC
  8
F01_OUT
  5
816
 10
96.741769
 20
103.923609
 30
0.0
 40
0.75
 50
180.0
 51
0.0
1001
ACAD
1000
RTMaterial
1005
0
  0
ARC
  8
F01_OUT
  5
817
 10
96.741769
 20
103.923609
 30
0.0
 40
1.65
 50
270.0
 51
0.0
1001
ACAD
1000
RTMaterial
1005
0
  0
ARC
  8
F01_OUT
  5
818
 10
96.741769
 20
103.923609
 30
0.0
 40
1.65
 50
208.50351
 51
270.0
1001
ACAD
1000
RTMaterial
1005
0
  0
LINE
  8
F01_OUT
  5
819
 10
95.991769
 20
105.673609
 30
0.0
 11
95.991769
 21
103.923609
 31
0.0
1001
ACAD
1000
RTMaterial
1005
0
  0
LINE
  8
F01_OUT
  5
81A
 10
97.491769
 20
105.673609
 30
0.0
 11
97.491769
 21
103.923609
 31
0.0
1001
ACAD
1000
RTMaterial
1005
0
  0
LINE
  8
F01_OUT
  5
81B
 10
95.991769
 20
105.673609
 30
0.0
 11
95.991769
 21
105.923609
 31
0.0
1001
ACAD
1000
RTMaterial
1005
0
  0
LINE
  8
F01_OUT
  5
81C
 10
97.491769
 20
105.673609
 30
0.0
 11
97.491769
 21
105.923609
 31
0.0
1001
ACAD
1000
RTMaterial
1005
0
  0
LINE
  8
F01_OUT
  5
81D
 10
95.091769
 20
102.273609
 30
0.0
 11
88.041769
 21
102.273609
 31
0.0
1001
ACAD
1000
RTMaterial
1005
0
  0
LINE
  8
F01_OUT
  5
81E
 10
88.041769
 20
102.273609
 30
0.0
 11
86.291769
 21
102.273609
 31
0.0
1001
ACAD
1000
RTMaterial
1005
0
  0
ARC
  8
F01_OUT
  5
81F
 10
88.041769
 20
103.923609
 30
0.0
 40
1.65
 50
0.0
 51
62.964308
1001
ACAD
1000
RTMaterial
1005
0
  0
ARC
  8
F01_OUT
  5
820
 10
88.041769
 20
103.923609
 30
0.0
 40
1.65
 50
117.035692
 51
151.49649
1001
ACAD
1000
RTMaterial
1005
0
  0
ARC
  8
F01_OUT
  5
821
 10
88.041769
 20
103.923609
 30
0.0
 40
0.75
 50
180.0
 51
0.0
1001
ACAD
1000
RTMaterial
1005
0
  0
ARC
  8
F01_OUT
  5
822
 10
88.041769
 20
103.923609
 30
0.0
 40
1.65
 50
208.50351
 51
270.0
1001
ACAD
1000
RTMaterial
1005
0
  0
ARC
  8
F01_OUT
  5
823
 10
88.041769
 20
103.923609
 30
0.0
 40
1.65
 50
270.0
 51
0.0
1001
ACAD
1000
RTMaterial
1005
0
  0
LINE
  8
F01_OUT
  5
824
 10
83.641769
 20
105.573609
 30
0.0
 11
81.700895
 21
105.573609
 31
0.0
1001
ACAD
1000
RTMaterial
1005
0
  0
LINE
  8
F01_OUT
  5
825
 10
87.291769
 20
105.673609
 30
0.0
 11
87.291769
 21
103.923609
 31
0.0
1001
ACAD
1000
RTMaterial
1005
0
  0
LINE
  8
F01_OUT
  5
826
 10
88.791769
 20
105.673609
 30
0.0
 11
88.791769
 21
103.923609
 31
0.0
1001
ACAD
1000
RTMaterial
1005
0
  0
LINE
  8
F01_OUT
  5
827
 10
88.791769
 20
105.673609
 30
0.0
 11
88.791769
 21
105.923609
 31
0.0
1001
ACAD
1000
RTMaterial
1005
0
  0
LINE
  8
F01_OUT
  5
828
 10
87.291769
 20
105.673609
 30
0.0
 11
87.291769
 21
105.923609
 31
0.0
1001
ACAD
1000
RTMaterial
1005
0
  0
LINE
  8
F01_OUT
  5
829
 10
98.391769
 20
103.923609
 30
0.0
 11
98.391769
 21
101.861046
 31
0.0
1001
ACAD
1000
RTMaterial
1005
0
  0
LINE
  8
F01_OUT
  5
82A
 10
95.091769
 20
102.440766
 30
0.0
 11
95.091769
 21
102.273609
 31
0.0
1001
ACAD
1000
RTMaterial
1005
0
  0
POLYLINE
  8
F01_OUT
  5
82B
 66
     1
 10
0.0
 20
0.0
 30
0.0
 70
   128
1001
ACAD
1000
RTMaterial
1005
DC3E8D0400000000
  0
VERTEX
  8
F01_OUT
  5
1936
 10
94.991769
 20
98.973609
 30
0.0
  0
VERTEX
  8
F01_OUT
  5
1937
 10
96.211435
 20
99.160628
 30
0.0
  0
VERTEX
  8
F01_OUT
  5
1938
 10
97.304397
 20
99.729913
 30
0.0
  0
VERTEX
  8
F01_OUT
  5
1939
 10
98.09675
 20
100.670029
 30
0.0
  0
VERTEX
  8
F01_OUT
  5
193A
 10
98.391769
 20
101.861046
 30
0.0
  0
SEQEND
  8
F01_OUT
  5
193B
  0
LINE
  8
F01_OUT
  5
82C
 10
81.700895
 20
105.573609
 30
0.0
 11
75.891769
 21
105.573609
 31
0.0
1001
ACAD
1000
RTMaterial
1005
0
  0
ARC
  8
F01_OUT
  5
82D
 10
-57.379386
 20
105.64837
 30
0.0
 40
2.5
 50
270.0
 51
0.0
1001
ACAD
1000
RTMaterial
1005
0
  0
ARC
  8
F01_OUT
  5
82E
 10
-57.379386
 20
105.64837
 30
0.0
 40
1.0
 50
270.0
 51
0.0
1001
ACAD
1000
RTMaterial
1005
0
  0
LINE
  8
F01_OUT
  5
82F
 10
-54.879386
 20
114.823609
 30
0.0
 11
-56.379386
 21
114.823609
 31
0.0
1001
ACAD
1000
RTMaterial
1005
0
  0
LINE
  8
F01_OUT
  5
830
 10
-54.879386
 20
105.64837
 30
0.0
 11
-54.879386
 21
114.823609
 31
0.0
1001
ACAD
1000
RTMaterial
1005
0
  0
LINE
  8
F01_OUT
  5
831
 10
-56.379386
 20
105.64837
 30
0.0
 11
-56.379386
 21
114.823609
 31
0.0
1001
ACAD
1000
RTMaterial
1005
0
  0
LINE
  8
F01_OUT
  5
832
 10
-54.879386
 20
105.64837
 30
0.0
 11
-54.879386
 21
114.823609
 31
0.0
1001
ACAD
1000
RTMaterial
1005
0
  0
LINE
  8
F01_OUT
  5
833
 10
-56.379386
 20
105.64837
 30
0.0
 11
-56.379386
 21
114.823609
 31
0.0
1001
ACAD
1000
RTMaterial
1005
0
  0
LINE
  8
F01_OUT
  5
834
 10
-78.889485
 20
100.623609
 30
0.0
 11
-77.678986
 21
100.716474
 31
0.0
1001
ACAD
1000
RTMaterial
1005
0
  0
LINE
  8
F01_OUT
  5
835
 10
-77.678722
 20
104.021043
 30
0.0
 11
-79.015329
 21
103.918803
 31
0.0
1001
ACAD
1000
RTMaterial
1005
0
  0
ARC
  8
F01_OUT
  5
836
 10
-78.889485
 20
102.273609
 30
0.0
 40
1.65
 50
94.374148
 51
270.0
1001
ACAD
1000
RTMaterial
1005
0
  0
LINE
  8
F01_OUT
  5
837
 10
-75.74411
 20
98.998848
 30
0.0
 11
-57.379386
 21
102.24837
 31
0.0
1001
ACAD
1000
RTMaterial
1005
0
  0
ARC
  8
F01_OUT
  5
838
 10
-76.031601
 20
100.623609
 30
0.0
 40
1.65
 50
100.034266
 51
280.034266
1001
ACAD
1000
RTMaterial
1005
0
  0
LINE
  8
F01_OUT
  5
839
 10
-57.381601
 20
105.573609
 30
0.0
 11
-57.381601
 21
102.273609
 31
0.0
1001
ACAD
1000
RTMaterial
1005
0
  0
ARC
  8
F01_OUT
  5
83A
 10
-76.031601
 20
103.923609
 30
0.0
 40
1.65
 50
90.0
 51
270.0
1001
ACAD
1000
RTMaterial
1005
0
  0
LINE
  8
F01_OUT
  5
83B
 10
-76.031601
 20
105.573609
 30
0.0
 11
-62.785603
 21
105.573609
 31
0.0
1001
ACAD
1000
RTMaterial
1005
0
  0
LINE
  8
F01_OUT
  5
83C
 10
-76.031601
 20
102.273609
 30
0.0
 11
-57.381601
 21
102.273609
 31
0.0
1001
ACAD
1000
RTMaterial
1005
0
  0
LINE
  8
F01_OUT
  5
83D
 10
85.088781
 20
150.573609
 30
0.0
 11
91.241769
 21
150.573609
 31
0.0
1001
ACAD
1000
RTMaterial
1005
0
  0
LINE
  8
F01_OUT
  5
83E
 10
85.088781
 20
153.873609
 30
0.0
 11
91.141769
 21
153.873609
 31
0.0
1001
ACAD
1000
RTMaterial
1005
0
  0
LINE
  8
F01_OUT
  5
83F
 10
101.353006
 20
153.869264
 30
0.0
 11
93.682396
 21
153.311474
 31
0.0
1001
ACAD
1000
RTMaterial
1005
0
  0
ARC
  8
F01_OUT
  5
840
 10
101.472674
 20
152.223609
 30
0.0
 40
1.65
 50
2.891494
 51
94.159103
1001
ACAD
1000
RTMaterial
1005
0
  0
POLYLINE
  8
F01_OUT
  5
841
 66
     1
 10
0.0
 20
0.0
 30
0.0
 70
   128
1001
ACAD
1000
RTMaterial
1005
D03E8D0400000000
  0
VERTEX
  8
F01_OUT
  5
193C
 10
94.541769
 20
151.770676
 30
0.0
  0
VERTEX
  8
F01_OUT
  5
193D
 10
94.201065
 20
152.817908
 30
0.0
  0
VERTEX
  8
F01_OUT
  5
193E
 10
93.332597
 20
153.502628
 30
0.0
  0
VERTEX
  8
F01_OUT
  5
193F
 10
91.141769
 20
153.873609
 30
0.0
  0
SEQEND
  8
F01_OUT
  5
1940
  0
LINE
  8
F01_OUT
  5
842
 10
-55.816692
 20
150.423609
 30
0.0
 11
-55.75822
 21
150.641831
 31
0.0
1001
ACAD
1000
RTMaterial
1005
0
  0
LINE
  8
F01_OUT
  5
843
 10
-62.552152
 20
148.144863
 30
0.0
 11
-72.418594
 21
149.291973
 31
0.0
1001
ACAD
1000
RTMaterial
1005
0
  0
LINE
  8
F01_OUT
  5
844
 10
-62.727434
 20
147.490701
 30
0.0
 11
-69.440277
 21
147.530686
 31
0.0
1001
ACAD
1000
RTMaterial
1005
0
  0
LINE
  8
F01_OUT
  5
845
 10
-62.326905
 20
148.985494
 30
0.0
 11
-69.79721
 21
150.987156
 31
0.0
1001
ACAD
1000
RTMaterial
1005
0
  0
ARC
  8
F01_OUT
  5
846
 10
110.291769
 20
148.923609
 30
0.0
 40
1.65
 50
28.50351
 51
90.0
1001
ACAD
1000
RTMaterial
1005
0
  0
ARC
  8
F01_OUT
  5
847
 10
110.291769
 20
148.923609
 30
0.0
 40
1.65
 50
90.0
 51
180.0
1001
ACAD
1000
RTMaterial
1005
0
  0
ARC
  8
F01_OUT
  5
848
 10
110.291769
 20
148.923609
 30
0.0
 40
1.65
 50
180.0
 51
242.964308
1001
ACAD
1000
RTMaterial
1005
0
  0
ARC
  8
F01_OUT
  5
849
 10
110.291769
 20
148.923609
 30
0.0
 40
1.65
 50
297.035692
 51
331.49649
1001
ACAD
1000
RTMaterial
1005
0
  0
ARC
  8
F01_OUT
  5
84A
 10
110.291769
 20
148.923609
 30
0.0
 40
0.75
 50
0.0
 51
180.0
1001
ACAD
1000
RTMaterial
1005
0
  0
LINE
  8
F01_OUT
  5
84B
 10
103.257134
 20
150.573609
 30
0.0
 11
108.541769
 21
150.573609
 31
0.0
1001
ACAD
1000
RTMaterial
1005
0
  0
LINE
  8
F01_OUT
  5
84C
 10
94.541769
 20
150.573609
 30
0.0
 11
99.947003
 21
150.573609
 31
0.0
1001
ACAD
1000
RTMaterial
1005
0
  0
LINE
  8
F01_OUT
  5
84D
 10
108.541769
 20
150.573609
 30
0.0
 11
110.291769
 21
150.573609
 31
0.0
1001
ACAD
1000
RTMaterial
1005
0
  0
LINE
  8
F01_OUT
  5
84E
 10
98.237077
 20
150.573609
 30
0.0
 11
99.836857
 21
150.699065
 31
0.0
1001
ACAD
1000
RTMaterial
1005
0
  0
POLYLINE
  8
F01_OUT
  5
84F
 66
     1
 10
0.0
 20
0.0
 30
0.0
 70
   128
210
0.0
220
0.0
230
-1.0
1001
ACAD
1000
RTMaterial
1005
C43E8D0400000000
  0
VERTEX
  8
F01_OUT
  5
1941
 10
-92.141769
 20
148.073446
 30
0.0
  0
VERTEX
  8
F01_OUT
  5
1942
 10
-91.488361
 20
148.654962
 30
0.0
  0
VERTEX
  8
F01_OUT
  5
1943
 10
-91.241769
 20
149.493068
 30
0.0
  0
SEQEND
  8
F01_OUT
  5
1944
  0
POLYLINE
  8
F01_OUT
  5
850
 66
     1
 10
0.0
 20
0.0
 30
0.0
 70
   128
1001
ACAD
1000
RTMaterial
1005
B83E8D0400000000
  0
VERTEX
  8
F01_OUT
  5
1945
 10
93.641769
 20
149.506887
 30
0.0
  0
VERTEX
  8
F01_OUT
  5
1946
 10
93.419012
 20
150.027492
 30
0.0
  0
VERTEX
  8
F01_OUT
  5
1947
 10
92.8918
 20
150.238361
 30
0.0
  0
VERTEX
  8
F01_OUT
  5
1948
 10
92.364521
 20
150.027487
 30
0.0
  0
VERTEX
  8
F01_OUT
  5
1949
 10
92.141769
 20
149.506887
 30
0.0
  0
SEQEND
  8
F01_OUT
  5
194A
  0
LINE
  8
F01_OUT
  5
851
 10
94.341769
 20
148.732553
 30
0.0
 11
93.641769
 21
148.073446
 31
0.0
1001
ACAD
1000
RTMaterial
1005
AC3E8D0400000000
  0
POLYLINE
  8
F01_OUT
  5
852
 66
     1
 10
0.0
 20
0.0
 30
0.0
 70
   128
210
0.0
220
0.0
230
-1.0
1001
ACAD
1000
RTMaterial
1005
A03E8D0400000000
  0
VERTEX
  8
F01_OUT
  5
194B
 10
-91.241769
 20
149.493068
 30
0.0
  0
VERTEX
  8
F01_OUT
  5
194C
 10
-91.605423
 20
150.491201
 30
0.0
  0
VERTEX
  8
F01_OUT
  5
194D
 10
-92.514953
 20
151.044742
 30
0.0
  0
VERTEX
  8
F01_OUT
  5
194E
 10
-93.575842
 20
150.943436
 30
0.0
  0
VERTEX
  8
F01_OUT
  5
194F
 10
-94.358636
 20
150.222784
 30
0.0
  0
SEQEND
  8
F01_OUT
  5
1950
  0
POLYLINE
  8
F01_OUT
  5
853
 66
     1
 10
0.0
 20
0.0
 30
0.0
 70
   128
210
0.0
220
0.0
230
-1.0
1001
ACAD
1000
RTMaterial
1005
943E8D0400000000
  0
VERTEX
  8
F01_OUT
  5
1951
 10
-100.841769
 20
148.626201
 30
0.0
  0
VERTEX
  8
F01_OUT
  5
1952
 10
-100.255818
 20
149.165959
 30
0.0
  0
VERTEX
  8
F01_OUT
  5
1953
 10
-99.998295
 20
149.919543
 30
0.0
  0
SEQEND
  8
F01_OUT
  5
1954
  0
LINE
  8
F01_OUT
  5
854
 10
103.041769
 20
149.189707
 30
0.0
 11
102.341769
 21
148.577912
 31
0.0
1001
ACAD
1000
RTMaterial
1005
883E8D0400000000
  0
POLYLINE
  8
F01_OUT
  5
855
 66
     1
 10
0.0
 20
0.0
 30
0.0
 70
   128
210
0.0
220
0.0
230
-1.0
1001
ACAD
1000
RTMaterial
1005
7C3E8D0400000000
  0
VERTEX
  8
F01_OUT
  5
1955
 10
-99.998295
 20
149.919543
 30
0.0
  0
VERTEX
  8
F01_OUT
  5
1956
 10
-100.356431
 20
151.062566
 30
0.0
  0
VERTEX
  8
F01_OUT
  5
1957
 10
-101.399277
 20
151.655162
 30
0.0
  0
VERTEX
  8
F01_OUT
  5
1958
 10
-102.570406
 20
151.394952
 30
0.0
  0
VERTEX
  8
F01_OUT
  5
1959
 10
-103.252646
 20
150.410065
 30
0.0
  0
SEQEND
  8
F01_OUT
  5
195A
  0
POLYLINE
  8
F01_OUT
  5
856
 66
     1
 10
0.0
 20
0.0
 30
0.0
 70
   128
210
0.0
220
0.0
230
-1.0
1001
ACAD
1000
RTMaterial
1005
703E8D0400000000
  0
VERTEX
  8
F01_OUT
  5
195B
 10
-100.841769
 20
150.01421
 30
0.0
  0
VERTEX
  8
F01_OUT
  5
195C
 10
-101.057508
 20
150.552823
 30
0.0
  0
VERTEX
  8
F01_OUT
  5
195D
 10
-101.589225
 20
150.782397
 30
0.0
  0
VERTEX
  8
F01_OUT
  5
195E
 10
-102.124013
 20
150.560937
 30
0.0
  0
VERTEX
  8
F01_OUT
  5
195F
 10
-102.341769
 20
150.023609
 30
0.0
  0
SEQEND
  8
F01_OUT
  5
1960
  0
LINE
  8
F01_OUT
  5
857
 10
99.936598
 20
150.706291
 30
0.0
 11
99.836857
 21
150.699065
 31
0.0
1001
ACAD
1000
RTMaterial
1005
643E8D0400000000
  0
LINE
  8
F01_OUT
  5
858
 10
103.269589
 20
150.414796
 30
0.0
 11
103.12121
 21
152.306875
 31
0.0
1001
ACAD
1000
RTMaterial
1005
0
  0
LINE
  8
F01_OUT
  5
859
 10
99.998295
 20
149.919543
 30
0.0
 11
99.831311
 21
152.048879
 31
0.0
1001
ACAD
1000
RTMaterial
1005
0
  0
LINE
  8
F01_OUT
  5
85A
 10
91.241769
 20
149.493068
 30
0.0
 11
91.241769
 21
151.770676
 31
0.0
1001
ACAD
1000
RTMaterial
1005
0
  0
LINE
  8
F01_OUT
  5
85B
 10
94.541769
 20
150.406452
 30
0.0
 11
94.541769
 21
151.770676
 31
0.0
1001
ACAD
1000
RTMaterial
1005
0
  0
LINE
  8
F01_OUT
  5
85C
 10
95.291769
 20
147.273609
 30
0.0
 11
100.841769
 21
147.273609
 31
0.0
1001
ACAD
1000
RTMaterial
1005
0
  0
LINE
  8
F01_OUT
  5
85D
 10
86.591769
 20
147.273609
 30
0.0
 11
92.141769
 21
147.273609
 31
0.0
1001
ACAD
1000
RTMaterial
1005
0
  0
LINE
  8
F01_OUT
  5
85E
 10
93.641769
 20
147.273609
 30
0.0
 11
94.341769
 21
147.273609
 31
0.0
1001
ACAD
1000
RTMaterial
1005
0
  0
LINE
  8
F01_OUT
  5
85F
 10
102.341769
 20
147.273609
 30
0.0
 11
103.041769
 21
147.273609
 31
0.0
1001
ACAD
1000
RTMaterial
1005
0
  0
LINE
  8
F01_OUT
  5
860
 10
108.541769
 20
147.273609
 30
0.0
 11
109.541769
 21
147.273609
 31
0.0
1001
ACAD
1000
RTMaterial
1005
0
  0
LINE
  8
F01_OUT
  5
861
 10
103.991769
 20
147.273609
 30
0.0
 11
108.541769
 21
147.273609
 31
0.0
1001
ACAD
1000
RTMaterial
1005
0
  0
LINE
  8
F01_OUT
  5
862
 10
93.641769
 20
147.173609
 30
0.0
 11
93.641769
 21
146.923609
 31
0.0
1001
ACAD
1000
RTMaterial
1005
0
  0
LINE
  8
F01_OUT
  5
863
 10
92.141769
 20
147.173609
 30
0.0
 11
92.141769
 21
146.923609
 31
0.0
1001
ACAD
1000
RTMaterial
1005
0
  0
LINE
  8
F01_OUT
  5
864
 10
102.341769
 20
147.173609
 30
0.0
 11
102.341769
 21
146.923609
 31
0.0
1001
ACAD
1000
RTMaterial
1005
0
  0
LINE
  8
F01_OUT
  5
865
 10
100.841769
 20
147.173609
 30
0.0
 11
100.841769
 21
146.923609
 31
0.0
1001
ACAD
1000
RTMaterial
1005
0
  0
LINE
  8
F01_OUT
  5
866
 10
85.088781
 20
147.273609
 30
0.0
 11
85.366769
 21
147.273609
 31
0.0
1001
ACAD
1000
RTMaterial
1005
0
  0
LINE
  8
F01_OUT
  5
867
 10
100.841769
 20
147.173609
 30
0.0
 11
100.841769
 21
150.01421
 31
0.0
1001
ACAD
1000
RTMaterial
1005
0
  0
LINE
  8
F01_OUT
  5
868
 10
102.341769
 20
147.173609
 30
0.0
 11
102.341769
 21
150.023609
 31
0.0
1001
ACAD
1000
RTMaterial
1005
0
  0
LINE
  8
F01_OUT
  5
869
 10
93.641769
 20
147.173609
 30
0.0
 11
93.641769
 21
149.506887
 31
0.0
1001
ACAD
1000
RTMaterial
1005
0
  0
LINE
  8
F01_OUT
  5
86A
 10
92.141769
 20
147.173609
 30
0.0
 11
92.141769
 21
149.506887
 31
0.0
1001
ACAD
1000
RTMaterial
1005
0
  0
LINE
  8
F01_OUT
  5
86B
 10
109.541769
 20
147.173609
 30
0.0
 11
109.541769
 21
148.923609
 31
0.0
1001
ACAD
1000
RTMaterial
1005
0
  0
LINE
  8
F01_OUT
  5
86C
 10
111.041769
 20
147.173609
 30
0.0
 11
111.041769
 21
148.923609
 31
0.0
1001
ACAD
1000
RTMaterial
1005
0
  0
ARC
  8
F01_OUT
  5
86D
 10
64.791769
 20
148.923609
 30
0.0
 40
1.65
 50
180.0
 51
242.964308
1001
ACAD
1000
RTMaterial
1005
0
  0
ARC
  8
F01_OUT
  5
86E
 10
64.791769
 20
148.923609
 30
0.0
 40
0.75
 50
0.0
 51
180.0
1001
ACAD
1000
RTMaterial
1005
0
  0
ARC
  8
F01_OUT
  5
86F
 10
64.791769
 20
148.923609
 30
0.0
 40
1.65
 50
297.035692
 51
331.49649
1001
ACAD
1000
RTMaterial
1005
0
  0
ARC
  8
F01_OUT
  5
870
 10
64.791769
 20
148.923609
 30
0.0
 40
1.65
 50
28.50351
 51
90.0
1001
ACAD
1000
RTMaterial
1005
0
  0
ARC
  8
F01_OUT
  5
871
 10
64.791769
 20
148.923609
 30
0.0
 40
1.65
 50
90.0
 51
180.0
1001
ACAD
1000
RTMaterial
1005
0
  0
LINE
  8
F01_OUT
  5
872
 10
66.541769
 20
150.573609
 30
0.0
 11
72.588781
 21
150.573609
 31
0.0
1001
ACAD
1000
RTMaterial
1005
0
  0
LINE
  8
F01_OUT
  5
873
 10
64.041769
 20
147.173609
 30
0.0
 11
64.041769
 21
146.923609
 31
0.0
1001
ACAD
1000
RTMaterial
1005
0
  0
LINE
  8
F01_OUT
  5
874
 10
65.541769
 20
147.173609
 30
0.0
 11
65.541769
 21
146.923609
 31
0.0
1001
ACAD
1000
RTMaterial
1005
0
  0
LINE
  8
F01_OUT
  5
875
 10
64.041769
 20
147.173609
 30
0.0
 11
64.041769
 21
148.923609
 31
0.0
1001
ACAD
1000
RTMaterial
1005
0
  0
LINE
  8
F01_OUT
  5
876
 10
65.541769
 20
147.173609
 30
0.0
 11
65.541769
 21
148.923609
 31
0.0
1001
ACAD
1000
RTMaterial
1005
0
  0
LINE
  8
F01_OUT
  5
877
 10
66.541769
 20
150.573609
 30
0.0
 11
64.791769
 21
150.573609
 31
0.0
1001
ACAD
1000
RTMaterial
1005
0
  0
LINE
  8
F01_OUT
  5
878
 10
48.141769
 20
147.173609
 30
0.0
 11
48.141769
 21
146.923609
 31
0.0
1001
ACAD
1000
RTMaterial
1005
0
  0
LINE
  8
F01_OUT
  5
879
 10
46.641769
 20
147.173609
 30
0.0
 11
46.641769
 21
146.923609
 31
0.0
1001
ACAD
1000
RTMaterial
1005
0
  0
LINE
  8
F01_OUT
  5
87A
 10
46.641769
 20
147.173609
 30
0.0
 11
46.641769
 21
149.506887
 31
0.0
1001
ACAD
1000
RTMaterial
1005
0
  0
LINE
  8
F01_OUT
  5
87B
 10
48.141769
 20
147.173609
 30
0.0
 11
48.141769
 21
149.506887
 31
0.0
1001
ACAD
1000
RTMaterial
1005
0
  0
LINE
  8
F01_OUT
  5
87C
 10
45.741769
 20
149.493068
 30
0.0
 11
45.741769
 21
151.770676
 31
0.0
1001
ACAD
1000
RTMaterial
1005
0
  0
LINE
  8
F01_OUT
  5
87D
 10
49.041769
 20
150.406452
 30
0.0
 11
49.041769
 21
151.770676
 31
0.0
1001
ACAD
1000
RTMaterial
1005
0
  0
LINE
  8
F01_OUT
  5
87E
 10
66.541769
 20
150.573609
 30
0.0
 11
64.791769
 21
150.573609
 31
0.0
1001
ACAD
1000
RTMaterial
1005
0
  0
LINE
  8
F01_OUT
  5
87F
 10
49.141769
 20
153.873609
 30
0.0
 11
72.588781
 21
153.873609
 31
0.0
1001
ACAD
1000
RTMaterial
1005
0
  0
LINE
  8
F01_OUT
  5
880
 10
49.141769
 20
150.573609
 30
0.0
 11
64.791769
 21
150.573609
 31
0.0
1001
ACAD
1000
RTMaterial
1005
0
  0
ARC
  8
F01_OUT
  5
881
 10
56.091769
 20
148.923609
 30
0.0
 40
1.65
 50
28.50351
 51
94.484
1001
ACAD
1000
RTMaterial
1005
0
  0
ARC
  8
F01_OUT
  5
882
 10
56.091769
 20
148.923609
 30
0.0
 40
1.65
 50
184.484
 51
242.964308
1001
ACAD
1000
RTMaterial
1005
0
  0
ARC
  8
F01_OUT
  5
883
 10
56.091769
 20
148.923609
 30
0.0
 40
0.75
 50
0.0
 51
180.0
1001
ACAD
1000
RTMaterial
1005
0
  0
ARC
  8
F01_OUT
  5
884
 10
56.091769
 20
148.923609
 30
0.0
 40
1.65
 50
297.035692
 51
331.49649
1001
ACAD
1000
RTMaterial
1005
0
  0
ARC
  8
F01_OUT
  5
885
 10
56.091769
 20
148.923609
 30
0.0
 40
1.65
 50
94.484
 51
184.484
1001
ACAD
1000
RTMaterial
1005
0
  0
LINE
  8
F01_OUT
  5
886
 10
56.027171
 20
150.573609
 30
0.0
 11
55.962771
 21
150.568559
 31
0.0
1001
ACAD
1000
RTMaterial
1005
0
  0
LINE
  8
F01_OUT
  5
887
 10
57.541769
 20
147.382253
 30
0.0
 11
56.841769
 21
147.327359
 31
0.0
1001
ACAD
1000
RTMaterial
1005
0
  0
LINE
  8
F01_OUT
  5
888
 10
55.341769
 20
147.173609
 30
0.0
 11
55.341769
 21
146.923609
 31
0.0
1001
ACAD
1000
RTMaterial
1005
0
  0
LINE
  8
F01_OUT
  5
889
 10
56.841769
 20
147.173609
 30
0.0
 11
56.841769
 21
146.923609
 31
0.0
1001
ACAD
1000
RTMaterial
1005
0
  0
LINE
  8
F01_OUT
  5
88A
 10
55.341769
 20
147.173609
 30
0.0
 11
55.341769
 21
148.923609
 31
0.0
1001
ACAD
1000
RTMaterial
1005
0
  0
LINE
  8
F01_OUT
  5
88B
 10
56.841769
 20
147.173609
 30
0.0
 11
56.841769
 21
148.923609
 31
0.0
1001
ACAD
1000
RTMaterial
1005
0
  0
LINE
  8
F01_OUT
  5
88C
 10
58.491769
 20
147.456753
 30
0.0
 11
63.536786
 21
147.852387
 31
0.0
1001
ACAD
1000
RTMaterial
1005
0
  0
POLYLINE
  8
F01_OUT
  5
88D
 66
     1
 10
0.0
 20
0.0
 30
0.0
 70
   128
210
0.0
220
0.0
230
-1.0
1001
ACAD
1000
RTMaterial
1005
583E8D0400000000
  0
VERTEX
  8
F01_OUT
  5
1961
 10
-45.741769
 20
151.770676
 30
0.0
  0
VERTEX
  8
F01_OUT
  5
1962
 10
-46.082473
 20
152.817908
 30
0.0
  0
VERTEX
  8
F01_OUT
  5
1963
 10
-46.950941
 20
153.502628
 30
0.0
  0
VERTEX
  8
F01_OUT
  5
1964
 10
-49.141769
 20
153.873609
 30
0.0
  0
SEQEND
  8
F01_OUT
  5
1965
  0
POLYLINE
  8
F01_OUT
  5
88E
 66
     1
 10
0.0
 20
0.0
 30
0.0
 70
   128
210
0.0
220
0.0
230
-1.0
1001
ACAD
1000
RTMaterial
1005
4C3E8D0400000000
  0
VERTEX
  8
F01_OUT
  5
1966
 10
-45.741769
 20
149.493068
 30
0.0
  0
VERTEX
  8
F01_OUT
  5
1967
 10
-46.105423
 20
150.491201
 30
0.0
  0
VERTEX
  8
F01_OUT
  5
1968
 10
-47.014953
 20
151.044742
 30
0.0
  0
VERTEX
  8
F01_OUT
  5
1969
 10
-48.075842
 20
150.943436
 30
0.0
  0
VERTEX
  8
F01_OUT
  5
196A
 10
-48.858636
 20
150.222784
 30
0.0
  0
SEQEND
  8
F01_OUT
  5
196B
  0
LINE
  8
F01_OUT
  5
88F
 10
48.841769
 20
148.732553
 30
0.0
 11
48.141769
 21
148.073446
 31
0.0
1001
ACAD
1000
RTMaterial
1005
403E8D0400000000
  0
LINE
  8
F01_OUT
  5
890
 10
49.141769
 20
150.573609
 30
0.0
 11
49.041769
 21
150.572629
 31
0.0
1001
ACAD
1000
RTMaterial
1005
343E8D0400000000
  0
POLYLINE
  8
F01_OUT
  5
891
 66
     1
 10
0.0
 20
0.0
 30
0.0
 70
   128
210
0.0
220
0.0
230
-1.0
1001
ACAD
1000
RTMaterial
1005
283E8D0400000000
  0
VERTEX
  8
F01_OUT
  5
196C
 10
-46.641769
 20
148.073446
 30
0.0
  0
VERTEX
  8
F01_OUT
  5
196D
 10
-45.988361
 20
148.654962
 30
0.0
  0
VERTEX
  8
F01_OUT
  5
196E
 10
-45.741769
 20
149.493068
 30
0.0
  0
SEQEND
  8
F01_OUT
  5
196F
  0
POLYLINE
  8
F01_OUT
  5
892
 66
     1
 10
0.0
 20
0.0
 30
0.0
 70
   128
210
0.0
220
0.0
230
-1.0
1001
ACAD
1000
RTMaterial
1005
1C3E8D0400000000
  0
VERTEX
  8
F01_OUT
  5
1970
 10
-46.641769
 20
149.506887
 30
0.0
  0
VERTEX
  8
F01_OUT
  5
1971
 10
-46.864605
 20
150.027558
 30
0.0
  0
VERTEX
  8
F01_OUT
  5
1972
 10
-47.391763
 20
150.23835
 30
0.0
  0
VERTEX
  8
F01_OUT
  5
1973
 10
-47.91894
 20
150.027551
 30
0.0
  0
VERTEX
  8
F01_OUT
  5
1974
 10
-48.141769
 20
149.506887
 30
0.0
  0
SEQEND
  8
F01_OUT
  5
1975
  0
LINE
  8
F01_OUT
  5
893
 10
67.191769
 20
147.273609
 30
0.0
 11
72.588781
 21
147.273609
 31
0.0
1001
ACAD
1000
RTMaterial
1005
0
  0
LINE
  8
F01_OUT
  5
894
 10
66.241769
 20
147.273609
 30
0.0
 11
65.541769
 21
147.273609
 31
0.0
1001
ACAD
1000
RTMaterial
1005
0
  0
LINE
  8
F01_OUT
  5
895
 10
75.088781
 20
153.873609
 30
0.0
 11
82.588781
 21
153.873609
 31
0.0
1001
ACAD
1000
RTMaterial
1005
0
  0
LINE
  8
F01_OUT
  5
896
 10
75.088781
 20
150.573609
 30
0.0
 11
82.588781
 21
150.573609
 31
0.0
1001
ACAD
1000
RTMaterial
1005
0
  0
LINE
  8
F01_OUT
  5
897
 10
-56.612323
 20
147.454276
 30
0.0
 11
-62.552152
 21
148.144863
 31
0.0
1001
ACAD
1000
RTMaterial
1005
0
  0
LINE
  8
F01_OUT
  5
898
 10
-71.015036
 20
152.451019
 30
0.0
 11
-72.037491
 21
152.569893
 31
0.0
1001
ACAD
1000
RTMaterial
1005
0
  0
LINE
  8
F01_OUT
  5
899
 10
-56.612323
 20
147.454276
 30
0.0
 11
-62.727434
 21
147.490701
 31
0.0
1001
ACAD
1000
RTMaterial
1005
0
  0
ARC
  8
F01_OUT
  5
89A
 10
-57.979386
 20
147.095886
 30
0.0
 40
3.1
 50
0.0
 51
51.669164
1001
ACAD
1000
RTMaterial
1005
0
  0
ARC
  8
F01_OUT
  5
89B
 10
-57.879386
 20
147.172619
 30
0.0
 40
1.5
 50
0.0
 51
24.885542
1001
ACAD
1000
RTMaterial
1005
0
  0
ARC
  8
F01_OUT
  5
89C
 10
-69.430449
 20
149.180656
 30
0.0
 40
1.65
 50
181.539542
 51
269.658721
1001
ACAD
1000
RTMaterial
1005
0
  0
ARC
  8
F01_OUT
  5
89D
 10
-72.228043
 20
150.930933
 30
0.0
 40
1.65
 50
83.368347
 51
263.368347
1001
ACAD
1000
RTMaterial
1005
0
  0
LINE
  8
F01_OUT
  5
89E
 10
-56.379386
 20
138.023609
 30
0.0
 11
-54.879386
 21
138.023609
 31
0.0
1001
ACAD
1000
RTMaterial
1005
0
  0
LINE
  8
F01_OUT
  5
89F
 10
-56.612323
 20
147.454276
 30
0.0
 11
-55.816692
 21
150.423609
 31
0.0
1001
ACAD
1000
RTMaterial
1005
0
  0
LINE
  8
F01_OUT
  5
8A0
 10
-54.879386
 20
147.095886
 30
0.0
 11
-54.879386
 21
138.023609
 31
0.0
1001
ACAD
1000
RTMaterial
1005
0
  0
ARC
  8
F01_OUT
  5
8A1
 10
-69.370159
 20
152.580933
 30
0.0
 40
1.65
 50
75.0
 51
255.0
1001
ACAD
1000
RTMaterial
1005
0
  0
LINE
  8
F01_OUT
  5
8A2
 10
-56.612323
 20
147.454276
 30
0.0
 11
-62.326905
 21
148.985494
 31
0.0
1001
ACAD
1000
RTMaterial
1005
0
  0
LINE
  8
F01_OUT
  5
8A3
 10
-56.379386
 20
147.172619
 30
0.0
 11
-56.379386
 21
138.023609
 31
0.0
1001
ACAD
1000
RTMaterial
1005
0
  0
LINE
  8
F01_OUT
  5
8A4
 10
-55.75822
 20
150.641831
 30
0.0
 11
-68.943107
 21
154.174711
 31
0.0
1001
ACAD
1000
RTMaterial
1005
0
  0
LINE
  8
F01_OUT
  5
8A5
 10
82.588781
 20
97.616285
 30
0.0
 11
85.088781
 21
97.616285
 31
0.0
1001
ACAD
1000
RTMaterial
1005
0
  0
LINE
  8
F01_OUT
  5
8A6
 10
82.588781
 20
105.573609
 30
0.0
 11
82.588781
 21
97.616285
 31
0.0
1001
ACAD
1000
RTMaterial
1005
0
  0
LINE
  8
F01_OUT
  5
8A7
 10
85.088781
 20
107.413609
 30
0.0
 11
85.088781
 21
97.616285
 31
0.0
1001
ACAD
1000
RTMaterial
1005
0
  0
LINE
  8
F01_OUT
  5
8A8
 10
75.088781
 20
102.465549
 30
0.0
 11
75.088781
 21
97.616285
 31
0.0
1001
ACAD
1000
RTMaterial
1005
0
  0
LINE
  8
F01_OUT
  5
8A9
 10
72.588781
 20
97.616285
 30
0.0
 11
75.088781
 21
97.616285
 31
0.0
1001
ACAD
1000
RTMaterial
1005
0
  0
LINE
  8
F01_OUT
  5
8AA
 10
72.588781
 20
105.923609
 30
0.0
 11
72.588781
 21
97.616285
 31
0.0
1001
ACAD
1000
RTMaterial
1005
0
  0
LINE
  8
F01_OUT
  5
8AB
 10
82.588781
 20
155.230933
 30
0.0
 11
85.088781
 21
155.230933
 31
0.0
1001
ACAD
1000
RTMaterial
1005
0
  0
LINE
  8
F01_OUT
  5
8AC
 10
82.588781
 20
147.273609
 30
0.0
 11
82.588781
 21
155.230933
 31
0.0
1001
ACAD
1000
RTMaterial
1005
0
  0
LINE
  8
F01_OUT
  5
8AD
 10
-80.471737
 20
105.275907
 30
0.0
 11
-76.143385
 21
105.569818
 31
0.0
1001
ACAD
1000
RTMaterial
1005
0
  0
LINE
  8
F01_OUT
  5
8AE
 10
-80.539485
 20
106.273609
 30
0.0
 11
-76.211133
 21
106.567521
 31
0.0
1001
ACAD
1000
RTMaterial
1005
0
  0
ARC
  8
F01_OUT
  5
8AF
 10
-76.031601
 20
103.923609
 30
0.0
 40
2.65
 50
38.509289
 51
93.884638
1001
ACAD
1000
RTMaterial
1005
0
  0
ARC
  8
F01_OUT
  5
8B0
 10
-76.031601
 20
100.623609
 30
0.0
 40
2.65
 50
240.0
 51
331.524977
1001
ACAD
1000
RTMaterial
1005
0
  0
ARC
  8
F01_OUT
  5
8B1
 10
-78.889485
 20
102.273609
 30
0.0
 40
2.65
 50
180.0
 51
240.0
1001
ACAD
1000
RTMaterial
1005
0
  0
LINE
  8
F01_OUT
  5
8B2
 10
-81.539485
 20
102.273609
 30
0.0
 11
-81.539485
 21
102.416466
 31
0.0
1001
ACAD
1000
RTMaterial
1005
0
  0
ARC
  8
F01_OUT
  5
8B3
 10
-78.939485
 20
102.244741
 30
0.0
 40
1.6
 50
180.0
 51
240.0
1001
ACAD
1000
RTMaterial
1005
0
  0
LINE
  8
F01_OUT
  5
8B4
 10
-84.039485
 20
102.773609
 30
0.0
 11
-80.539485
 21
102.273609
 31
0.0
1001
ACAD
1000
RTMaterial
1005
0
  0
LINE
  8
F01_OUT
  5
8B5
 10
-84.039485
 20
106.773609
 30
0.0
 11
-80.539485
 21
107.273609
 31
0.0
1001
ACAD
1000
RTMaterial
1005
0
  0
LINE
  8
F01_OUT
  5
8B6
 10
-84.039485
 20
102.773609
 30
0.0
 11
-84.039485
 21
106.773609
 31
0.0
1001
ACAD
1000
RTMaterial
1005
0
  0
LINE
  8
F01_OUT
  5
8B7
 10
-80.539485
 20
102.244741
 30
0.0
 11
-80.539485
 21
107.273609
 31
0.0
1001
ACAD
1000
RTMaterial
1005
0
  0
LINE
  8
F01_OUT
  5
8B8
 10
-80.214485
 20
99.978642
 30
0.0
 11
-77.356601
 21
98.328642
 31
0.0
1001
ACAD
1000
RTMaterial
1005
0
  0
LINE
  8
F01_OUT
  5
8B9
 10
-79.739485
 20
100.859101
 30
0.0
 11
-76.856601
 21
99.194667
 31
0.0
1001
ACAD
1000
RTMaterial
1005
0
  0
LINE
  8
F01_OUT
  5
8BA
 10
-77.378043
 20
150.500933
 30
0.0
 11
-73.870855
 21
150.012421
 31
0.0
1001
ACAD
1000
RTMaterial
1005
0
  0
LINE
  8
F01_OUT
  5
8BB
 10
-77.378043
 20
154.500933
 30
0.0
 11
-73.878043
 21
155.000933
 31
0.0
1001
ACAD
1000
RTMaterial
1005
0
  0
LINE
  8
F01_OUT
  5
8BC
 10
-77.378043
 20
154.500933
 30
0.0
 11
-77.378043
 21
150.500933
 31
0.0
1001
ACAD
1000
RTMaterial
1005
0
  0
ARC
  8
F01_OUT
  5
8BD
 10
-69.430449
 20
149.180656
 30
0.0
 40
2.65
 50
237.968397
 51
321.149432
1001
ACAD
1000
RTMaterial
1005
0
  0
ARC
  8
F01_OUT
  5
8BE
 10
-69.370159
 20
152.580933
 30
0.0
 40
2.65
 50
23.509289
 51
107.269491
1001
ACAD
1000
RTMaterial
1005
0
  0
LINE
  8
F01_OUT
  5
8BF
 10
-73.878043
 20
153.954621
 30
0.0
 11
-70.156855
 21
155.111469
 31
0.0
1001
ACAD
1000
RTMaterial
1005
0
  0
LINE
  8
F01_OUT
  5
8C0
 10
-73.878043
 20
152.907412
 30
0.0
 11
-69.859989
 21
154.15655
 31
0.0
1001
ACAD
1000
RTMaterial
1005
0
  0
ARC
  8
F01_OUT
  5
8C1
 10
-72.878043
 20
150.570867
 30
0.0
 40
2.0
 50
193.758865
 51
237.968397
1001
ACAD
1000
RTMaterial
1005
0
  0
LINE
  8
F01_OUT
  5
8C2
 10
-73.938817
 20
148.875355
 30
0.0
 11
-70.835974
 21
146.934104
 31
0.0
1001
ACAD
1000
RTMaterial
1005
0
  0
LINE
  8
F01_OUT
  5
8C3
 10
-73.870855
 20
150.012421
 30
0.0
 11
-70.305587
 21
147.78186
 31
0.0
1001
ACAD
1000
RTMaterial
1005
0
  0
LINE
  8
F01_OUT
  5
8C4
 10
-73.878043
 20
155.000933
 30
0.0
 11
-73.878043
 21
150.000933
 31
0.0
1001
ACAD
1000
RTMaterial
1005
0
  0
LINE
  8
F01_OUT
  5
8C5
 10
85.088781
 20
145.433609
 30
0.0
 11
84.866769
 21
145.433609
 31
0.0
1001
ACAD
1000
RTMaterial
1005
0
  0
LINE
  8
F01_OUT
  5
8C6
 10
85.088781
 20
145.433609
 30
0.0
 11
85.088781
 21
155.230933
 31
0.0
1001
ACAD
1000
RTMaterial
1005
0
  0
LINE
  8
F01_OUT
  5
8C7
 10
72.588781
 20
155.230933
 30
0.0
 11
75.088781
 21
155.230933
 31
0.0
1001
ACAD
1000
RTMaterial
1005
0
  0
LINE
  8
F01_OUT
  5
8C8
 10
72.588781
 20
146.923609
 30
0.0
 11
72.588781
 21
155.230933
 31
0.0
1001
ACAD
1000
RTMaterial
1005
0
  0
LINE
  8
F01_OUT
  5
8C9
 10
75.088781
 20
150.381668
 30
0.0
 11
75.088781
 21
155.230933
 31
0.0
1001
ACAD
1000
RTMaterial
1005
0
  0
LINE
  8
F05_PRO
  5
953
 10
-16.795304
 20
114.918239
 30
0.0
 11
-12.029534
 21
101.063355
 31
0.0
1001
ACAD
1000
RTMaterial
1005
0
  0
LINE
  8
F08_IMG
  5
DB1
 10
-103.379386
 20
114.223609
 30
0.0
 11
-89.379386
 21
114.223609
 31
0.0
1001
ACAD
1000
RTMaterial
1005
0
  0
LINE
  8
F08_IMG
  5
DB2
 10
-90.379386
 20
113.223609
 30
0.0
 11
-90.379386
 21
109.373609
 31
0.0
1001
ACAD
1000
RTMaterial
1005
0
  0
LINE
  8
F08_IMG
  5
DB3
 10
-90.379386
 20
142.983817
 30
0.0
 11
-90.379386
 21
140.223609
 31
0.0
1001
ACAD
1000
RTMaterial
1005
0
  0
LINE
  8
F08_IMG
  5
DB4
 10
-104.379386
 20
113.223609
 30
0.0
 11
-90.379386
 21
113.223609
 31
0.0
1001
ACAD
1000
RTMaterial
1005
0
  0
LINE
  8
F08_IMG
  5
DB5
 10
-104.379386
 20
140.223609
 30
0.0
 11
-90.379386
 21
140.223609
 31
0.0
1001
ACAD
1000
RTMaterial
1005
0
  0
LINE
  8
F08_IMG
  5
DB6
 10
-104.379386
 20
140.223609
 30
0.0
 11
-104.379386
 21
113.223609
 31
0.0
1001
ACAD
1000
RTMaterial
1005
0
  0
LINE
  8
F08_IMG
  5
DB7
 10
-103.379386
 20
139.223609
 30
0.0
 11
-103.379386
 21
114.223609
 31
0.0
1001
ACAD
1000
RTMaterial
1005
0
  0
LINE
  8
F08_IMG
  5
DB8
 10
-103.379386
 20
139.223609
 30
0.0
 11
-89.379386
 21
139.223609
 31
0.0
1001
ACAD
1000
RTMaterial
1005
0
  0
LINE
  8
F08_IMG
  5
DB9
 10
-89.379386
 20
114.223609
 30
0.0
 11
-89.379386
 21
110.349096
 31
0.0
1001
ACAD
1000
RTMaterial
1005
0
  0
LINE
  8
F08_IMG
  5
DBA
 10
-89.379386
 20
142.826746
 30
0.0
 11
-89.379386
 21
141.943224
 31
0.0
1001
ACAD
1000
RTMaterial
1005
0
  0
TEXT
  8
F05_PRO
  5
15AD
 10
-68.08133
 20
-20.639916
 30
0.0
 40
4.0
  1
SK06AHR, SK06GHR, SK06LHR
 41
0.8
  7
FSTD1
  0
TEXT
  8
F05_PRO
  5
15AF
 10
114.823101
 20
-21.013891
 30
0.0
 40
2.0
  1
図面番号
  7
FSTD1
  0
LINE
  8
F05_PRO
  5
15B0
 10
63.890827
 20
-17.95894
 30
0.0
 11
139.883227
 21
-17.95894
 31
0.0
  0
LINE
  8
F05_PRO
  5
15B1
 10
63.890827
 20
-21.95854
 30
0.0
 11
139.883227
 21
-21.95854
 31
0.0
  0
LINE
  8
F05_PRO
  5
15B2
 10
63.890827
 20
-25.95814
 30
0.0
 11
139.883227
 21
-25.95814
 31
0.0
  0
LINE
  8
F05_PRO
  5
15B3
 10
63.890827
 20
-29.95774
 30
0.0
 11
139.883227
 21
-29.95774
 31
0.0
  0
LINE
  8
F05_PRO
  5
15B4
 10
63.890827
 20
-33.95734
 30
0.0
 11
139.883227
 21
-33.95734
 31
0.0
  0
LINE
  8
F05_PRO
  5
15B5
 10
87.888427
 20
-17.95894
 30
0.0
 11
87.888427
 21
-33.95734
 31
0.0
  0
LINE
  8
F05_PRO
  5
15B6
 10
107.886427
 20
-17.95894
 30
0.0
 11
107.886427
 21
-33.95734
 31
0.0
  0
LINE
  8
F05_PRO
  5
15B7
 10
63.890827
 20
-17.95894
 30
0.0
 11
63.890827
 21
-33.95734
 31
0.0
  0
LINE
  8
F05_PRO
  5
15B8
 10
71.890027
 20
-17.95894
 30
0.0
 11
71.890027
 21
-33.95734
 31
0.0
  0
TEXT
  8
F05_PRO
  5
15B9
 10
65.838144
 20
-28.852304
 30
0.0
 40
2.0
  1
変更
  7
FSTD1
  0
TEXT
  8
F05_PRO
  5
15BA
 10
65.838144
 20
-25.074182
 30
0.0
 40
2.0
  1
作成
  7
FSTD1
  0
TEXT
  8
F05_PRO
  5
15BB
 10
89.252885
 20
-25.074182
 30
0.0
 40
2.0
  1
SK06AR
  7
FSTD1
  0
TEXT
  8
F05_PRO
  5
15BC
 10
94.77696
 20
-21.013891
 30
0.0
 40
2.0
  1
ﾌｧｲﾙ名
  7
FSTD1
  0
TEXT
  8
F05_PRO
  5
15BD
 10
73.964775
 20
-25.074182
 30
0.0
 40
2.0
  1
2011-10
  7
FSTD1
  0
TEXT
  8
F05_PRO
  5
15BE
 10
77.461471
 20
-21.013891
 30
0.0
 40
2.0
  1
日付
  7
FSTD1
  0
LINE
  8
F05_PRO
  5
15BF
 10
139.883227
 20
-17.95894
 30
0.0
 11
139.883227
 21
-33.95734
 31
0.0
  0
LINE
  8
F05_PRO
  5
15C0
 10
131.884027
 20
-17.95894
 30
0.0
 11
131.884027
 21
-33.95734
 31
0.0
  0
TEXT
  8
F05_PRO
  5
15C1
 10
133.971001
 20
-21.013891
 30
0.0
 40
2.0
  1
変更
  7
FSTD1
  0
TEXT
  8
F05_PRO
  5
15C2
 10
-106.388862
 20
76.097342
 30
0.0
 40
3.0
  1
※1 : 補助接点ユニット(ヘッドオン)を取り付けた場合
  7
FSTD1
  0
TEXT
  8
F02_DIM
  5
15CB
 10
-65.873091
 20
180.486841
 30
0.0
 40
2.5
  1
(レール高さ15の場合)
 41
0.8
  7
FSTD1
  0
TEXT
  8
F02_DIM
  5
15CE
 10
-13.838529
 20
173.870896
 30
0.0
 40
2.5
  1
※1
  7
FSTD1
  0
TEXT
  8
F05_PRO
  5
15D6
 10
45.093114
 20
185.133639
 30
0.0
 40
3.0
  1
補助端子
  7
FSTD1
  0
TEXT
  8
F05_PRO
  5
15D7
 10
45.503516
 20
181.005202
 30
0.0
 40
3.0
  1
M3.5
  7
FSTD1
  0
TEXT
  8
F05_PRO
  5
15E3
 10
-68.08133
 20
-27.140227
 30
0.0
 40
4.0
  1
SK09AHR, SK09GHR, SK09LHR
 41
0.8
  7
FSTD1
  0
TEXT
  8
F05_PRO
  5
15E4
 10
-68.08133
 20
-33.408384
 30
0.0
 40
4.0
  1
SK12AHR, SK12GHR, SK12LHR
 41
0.8
  7
FSTD1
  0
TEXT
  8
F05_PRO
  5
1679
 10
109.250885
 20
-25.074182
 30
0.0
 40
2.0
  1
F0A0 03 21(5)
  7
FSTD1
  0
DIMENSION
  8
F02_DIM
  5
171C
  2
*D1
 10
-86.379386
 20
157.427655
 30
0.0
 11
-89.379386
 21
159.927655
 31
0.0
 13
-92.379386
 23
150.423609
 33
0.0
 14
-86.379386
 24
149.923609
 34
0.0
  3
FSTD1
1001
ACAD
1000
DSTYLE
1002
{
1070
    40
1040
1.0
1002
}
  0
DIMENSION
  8
F02_DIM
  5
1729
  2
*D2
 10
-56.379386
 20
164.795493
 30
0.0
 11
-74.379386
 21
167.295493
 31
0.0
 13
-92.379386
 23
150.423609
 33
0.0
 14
-56.379386
 24
145.623609
 34
0.0
  3
FSTD1
1001
ACAD
1000
DSTYLE
1002
{
1070
    40
1040
1.0
1002
}
  0
DIMENSION
  8
F02_DIM
  5
1736
  2
*D3
 10
-36.379386
 20
172.543849
 30
0.0
 11
-64.379386
 21
175.043849
 31
0.0
 13
-92.379386
 23
150.423609
 33
0.0
 14
-36.379386
 24
136.923609
 34
0.0
  3
FSTD1
1001
ACAD
1000
DSTYLE
1002
{
1070
    40
1040
1.0
1002
}
  0
DIMENSION
  8
F02_DIM
  5
1743
  2
*D4
 10
-36.379386
 20
179.176754
 30
0.0
 11
-70.379386
 21
181.676754
 31
0.0
 13
-104.379386
 23
140.223609
 33
0.0
 14
-36.379386
 24
136.923609
 34
0.0
  3
FSTD1
1001
ACAD
1000
DSTYLE
1002
{
1070
    40
1040
1.0
1002
}
  0
DIMENSION
  8
F02_DIM
  5
1750
  2
*D5
 10
-2.579386
 20
172.543849
 30
0.0
 11
-19.479386
 21
175.043849
 31
0.0
  1
(34)
 13
-36.379386
 23
136.923609
 33
0.0
 14
-2.579386
 24
127.223609
 34
0.0
  3
FSTD1
1001
ACAD
1000
DSTYLE
1002
{
1070
    40
1040
1.0
1002
}
  0
TEXT
  8
F02_DIM
  5
175D
 10
-12.070245
 20
96.475921
 30
0.0
 40
2.5
  1
※1
  7
FSTD1
  0
DIMENSION
  8
F02_DIM
  5
176A
  2
*D6
 10
53.666769
 20
89.099857
 30
0.0
 11
49.316769
 21
91.599857
 31
0.0
 12
16.403618
 22
0.0
 32
0.0
 13
44.966769
 23
105.673609
 33
0.0
 14
53.666769
 24
105.673609
 34
0.0
  3
FSTD1
1001
ACAD
1000
DSTYLE
1002
{
1070
    40
1040
1.0
1002
}
  0
DIMENSION
  8
F02_DIM
  5
1779
  2
*D7
 10
66.241769
 20
82.748729
 30
0.0
 11
62.366769
 21
82.748729
 31
0.0
 12
16.403618
 22
0.0
 32
0.0
 70
   128
  1
7.7
 13
58.491769
 23
102.723609
 33
0.0
 14
66.241769
 24
102.723609
 34
0.0
  3
FSTD1
1001
ACAD
1000
DSTYLE
1002
{
1070
    40
1040
1.0
1002
}
  0
DIMENSION
  8
F02_DIM
  5
17A0
  2
*D8
 10
90.466769
 20
89.099857
 30
0.0
 11
85.116769
 21
91.599857
 31
0.0
 12
16.403618
 22
0.0
 32
0.0
 13
79.766769
 23
105.673609
 33
0.0
 14
90.466769
 24
105.673609
 34
0.0
  3
FSTD1
1001
ACAD
1000
DSTYLE
1002
{
1070
    40
1040
1.0
1002
}
  0
DIMENSION
  8
F02_DIM
  5
17AD
  2
*D9
 10
33.20479
 20
110.923609
 30
0.0
 11
30.70479
 21
126.423609
 31
0.0
 12
16.403618
 22
0.0
 32
0.0
 13
39.716769
 23
141.923609
 33
0.0
 14
39.716769
 24
110.923609
 34
0.0
 50
90.0
  3
FSTD1
1001
ACAD
1000
DSTYLE
1002
{
1070
    40
1040
1.0
1002
}
  0
DIMENSION
  8
F02_DIM
  5
17BA
  2
*D10
 10
148.89968
 20
150.423609
 30
0.0
 11
148.89968
 21
126.318474
 31
0.0
 70
   128
 13
130.066769
 23
102.423609
 33
0.0
 14
130.066769
 24
150.423609
 34
0.0
 50
90.0
  3
FSTD1
1001
ACAD
1000
DSTYLE
1002
{
1070
    40
1040
1.0
1002
}
  0
DIMENSION
  8
F02_DIM
  5
17C9
  2
*D11
 10
148.89968
 20
97.616285
 30
0.0
 11
148.89968
 21
84.666285
 31
0.0
 70
   128
  1
about5
 13
130.066769
 23
102.423609
 33
0.0
 14
85.088781
 24
97.616285
 34
0.0
 50
90.0
  3
FSTD3
1001
ACAD
1000
DSTYLE
1002
{
1070
    40
1040
1.0
1002
}
  0
DIMENSION
  8
F02_DIM
  5
17E5
  2
*D12
 10
148.89968
 20
155.230933
 30
0.0
 11
146.39968
 21
168.180933
 31
0.0
  1
about5
 13
130.066769
 23
150.423609
 33
0.0
 14
85.088781
 24
155.230933
 34
0.0
 50
90.0
  3
FSTD3
1001
ACAD
1000
DSTYLE
1002
{
1070
    40
1040
1.0
1002
}
  0
DIMENSION
  8
F02_DIM
  5
17FF
  2
*D13
 10
99.166769
 20
160.32351
 30
0.0
 11
76.416769
 21
162.82351
 31
0.0
 12
16.403618
 22
0.0
 32
0.0
 13
53.666769
 23
146.923609
 33
0.0
 14
99.166769
 24
146.923609
 34
0.0
  3
FSTD1
1001
ACAD
1000
DSTYLE
1002
{
1070
    40
1040
1.0
1002
}
  0
DIMENSION
  8
F02_DIM
  5
180C
  2
*D14
 10
130.366769
 20
168.391834
 30
0.0
 11
85.116769
 21
170.891834
 31
0.0
 12
16.403618
 22
0.0
 32
0.0
 13
39.866769
 23
150.123609
 33
0.0
 14
130.366769
 24
150.123609
 34
0.0
  3
FSTD1
1001
ACAD
1000
DSTYLE
1002
{
1070
    40
1040
1.0
1002
}
  0
INSERT
  8
F05_PRO
  5
180D
  2
_DOTSMALL
 10
43.306155
 20
144.532247
 30
0.0
 41
3.0
 42
3.0
 50
289.211815
 43
3.0
1001
ACAD
1000
DSTYLE
1002
{
1070
    40
1040
1.0
1002
}
  0
LINE
  8
F05_PRO
  5
1976
 10
43.306155
 20
144.532247
 30
0.0
 11
31.205963
 21
179.256207
 31
0.0
1001
ACAD
1000
R13OBJECT
1002
{
1005
180D
1002
}
  0
INSERT
  8
F05_PRO
  5
180E
  2
_DOTSMALL
 10
52.106295
 20
144.68937
 30
0.0
 41
3.0
 42
3.0
 50
301.158642
 43
3.0
1001
ACAD
1000
DSTYLE
1002
{
1070
    40
1040
1.0
1002
}
  0
LINE
  8
F05_PRO
  5
1977
 10
52.106295
 20
144.68937
 30
0.0
 11
31.205963
 21
179.256207
 31
0.0
1001
ACAD
1000
R13OBJECT
1002
{
1005
180E
1002
}
  0
INSERT
  8
F05_PRO
  5
180F
  2
_DOTSMALL
 10
60.434999
 20
144.375126
 30
0.0
 41
3.0
 42
3.0
 50
309.961743
 43
3.0
1001
ACAD
1000
DSTYLE
1002
{
1070
    40
1040
1.0
1002
}
  0
LINE
  8
F05_PRO
  5
1978
 10
60.434999
 20
144.375126
 30
0.0
 11
31.205963
 21
179.256207
 31
0.0
1001
ACAD
1000
R13OBJECT
1002
{
1005
180F
1002
}
  0
TEXT
  8
F05_PRO
  5
1810
 10
11.075365
 20
185.698208
 30
0.0
 40
3.0
  1
主端子
  7
FSTD1
  0
TEXT
  8
F05_PRO
  5
1811
 10
11.562794
 20
180.998355
 30
0.0
 40
3.0
  1
M3.5
  7
FSTD1
  0
LINE
  8
F05_PRO
  5
1812
 10
31.205963
 20
179.256207
 30
0.0
 11
8.577032
 21
179.256207
 31
0.0
  0
LINE
  8
F05_PRO
  5
1814
 10
61.291459
 20
179.578489
 30
0.0
 11
42.010394
 21
179.578489
 31
0.0
  0
INSERT
  8
F05_PRO
  5
1815
  2
_DOTSMALL
 10
81.563271
 20
144.326229
 30
0.0
 41
3.0
 42
3.0
 50
242.586604
 43
3.0
1001
ACAD
1000
DSTYLE
1002
{
1070
    40
1040
1.0
1002
}
  0
LINE
  8
F05_PRO
  5
1979
 10
81.563271
 20
144.326229
 30
0.0
 11
99.636003
 21
179.172121
 31
0.0
1001
ACAD
1000
R13OBJECT
1002
{
1005
1815
1002
}
  0
TEXT
  8
F05_PRO
  5
1816
 10
102.621765
 20
185.614122
 30
0.0
 40
3.0
  1
コイル端子
  7
FSTD1
  0
TEXT
  8
F05_PRO
  5
1817
 10
102.621765
 20
180.914268
 30
0.0
 40
3.0
  1
M3.5
  7
FSTD1
  0
LINE
  8
F05_PRO
  5
1818
 10
122.264934
 20
179.172121
 30
0.0
 11
99.636003
 21
179.172121
 31
0.0
  0
DIMENSION
  8
F02_DIM
  5
183A
  2
*D15
 10
125.366769
 20
55.780693
 30
0.0
 11
85.116769
 21
59.280693
 31
0.0
 12
16.403618
 22
16.755119
 32
0.0
 13
44.866769
 23
44.962284
 33
0.0
 14
125.366769
 24
44.962284
 34
0.0
  3
FSTD2
1001
ACAD
1000
DSTYLE
1002
{
1070
    40
1040
1.0
1002
}
  0
DIMENSION
  8
F02_DIM
  5
184B
  2
*D16
 10
141.767869
 20
39.712284
 30
0.0
 11
138.267869
 21
19.712284
 31
0.0
 12
16.403618
 22
16.755119
 32
0.0
 13
130.616769
 23
-0.287716
 33
0.0
 14
130.616769
 24
39.712284
 34
0.0
 50
90.0
  3
FSTD2
1001
ACAD
1000
DSTYLE
1002
{
1070
    40
1040
1.0
1002
}
  0
INSERT
  8
F05_PRO
  5
184C
  2
_DOTSMALL
 10
70.106465
 20
144.765759
 30
0.0
 41
3.0
 42
3.0
 50
284.209329
 43
3.0
1001
ACAD
1000
DSTYLE
1002
{
1070
    40
1040
1.0
1002
}
  0
LINE
  8
F05_PRO
  5
197A
 10
70.106465
 20
144.765759
 30
0.0
 11
61.291459
 21
179.578489
 31
0.0
1001
ACAD
1000
R13OBJECT
1002
{
1005
184C
1002
}
  0
TEXT
  8
F05_PRO
  5
1853
 10
70.977489
 20
67.229694
 30
0.0
 40
4.0
  1
取付穴寸法図
  7
FSTD1
 72
     1
 11
84.710822
 21
67.229694
 31
0.0
  0
TEXT
  8
F05_PRO
  5
1854
 10
135.025098
 20
55.066919
 30
0.0
 40
3.0
  1
取付穴
  7
FSTD1
  0
TEXT
  8
F05_PRO
  5
1855
 10
135.4355
 20
50.938481
 30
0.0
 40
3.0
  1
4xM4
  7
FSTD1
  0
LINE
  8
F05_PRO
  5
1856
 10
151.223443
 20
49.511768
 30
0.0
 11
131.942378
 21
49.511768
 31
0.0
  0
INSERT
  8
F05_PRO
  5
1857
  2
_OPEN30
 10
126.676231
 20
41.541986
 30
0.0
 41
3.0
 42
3.0
 50
236.544698
 43
3.0
1001
ACAD
1000
DSTYLE
1002
{
1070
    40
1040
1.0
1002
}
  0
LINE
  8
F05_PRO
  5
197B
 10
128.33009
 20
44.044935
 30
0.0
 11
131.942378
 21
49.511768
 31
0.0
1001
ACAD
1000
R13OBJECT
1002
{
1005
1857
1002
}
  0
TEXT
  8
F05_PRO
  5
188E
 10
43.766717
 20
134.238226
 30
0.0
 40
2.0
  1
1L1
 41
0.7
  7
FSTD2
  0
TEXT
  8
F05_PRO
  5
188F
 10
51.983977
 20
134.255892
 30
0.0
 40
2.0
  1
3L2
 41
0.7
  7
FSTD2
  0
TEXT
  8
F05_PRO
  5
1890
 10
62.481937
 20
134.231479
 30
0.0
 40
2.0
  1
5L3
 41
0.7
  7
FSTD2
  0
TEXT
  8
F05_PRO
  5
1891
 10
70.287602
 20
134.296577
 30
0.0
 40
2.0
  1
13
 41
0.7
  7
FSTD2
  0
TEXT
  8
F05_PRO
  5
1892
 10
75.974933
 20
134.271623
 30
0.0
 40
2.0
  1
A1
 41
0.7
  7
FSTD2
  0
TEXT
  8
F05_PRO
  5
1893
 10
43.166824
 20
116.451338
 30
0.0
 40
2.0
  1
2T1
 41
0.7
  7
FSTD2
  0
TEXT
  8
F05_PRO
  5
1894
 10
53.954409
 20
116.484725
 30
0.0
 40
2.0
  1
4T2
 41
0.7
  7
FSTD2
  0
TEXT
  8
F05_PRO
  5
1895
 10
60.537602
 20
116.407504
 30
0.0
 40
2.0
  1
6T3
 41
0.7
  7
FSTD2
  0
TEXT
  8
F05_PRO
  5
1896
 10
71.119471
 20
116.518012
 30
0.0
 40
2.0
  1
14
 41
0.7
  7
FSTD2
  0
TEXT
  8
F05_PRO
  5
1897
 10
75.561688
 20
116.504154
 30
0.0
 40
2.0
  1
A2
 41
0.7
  7
FSTD2
  0
TEXT
  8
F05_PRO
  5
189A
 10
89.266717
 20
134.238226
 30
0.0
 40
2.0
  1
1L1
 41
0.7
  7
FSTD2
  0
TEXT
  8
F05_PRO
  5
189B
 10
97.483977
 20
134.255892
 30
0.0
 40
2.0
  1
3L2
 41
0.7
  7
FSTD2
  0
TEXT
  8
F05_PRO
  5
189C
 10
107.981937
 20
134.231479
 30
0.0
 40
2.0
  1
5L3
 41
0.7
  7
FSTD2
  0
TEXT
  8
F05_PRO
  5
189D
 10
115.787602
 20
134.296577
 30
0.0
 40
2.0
  1
13
 41
0.7
  7
FSTD2
  0
TEXT
  8
F05_PRO
  5
189E
 10
121.474933
 20
134.271623
 30
0.0
 40
2.0
  1
A1
 41
0.7
  7
FSTD2
  0
TEXT
  8
F05_PRO
  5
189F
 10
121.061688
 20
116.504154
 30
0.0
 40
2.0
  1
A2
 41
0.7
  7
FSTD2
  0
TEXT
  8
F05_PRO
  5
18A0
 10
116.619471
 20
116.518012
 30
0.0
 40
2.0
  1
14
 41
0.7
  7
FSTD2
  0
TEXT
  8
F05_PRO
  5
18A1
 10
106.037602
 20
116.407504
 30
0.0
 40
2.0
  1
6T3
 41
0.7
  7
FSTD2
  0
TEXT
  8
F05_PRO
  5
18A2
 10
99.454409
 20
116.484725
 30
0.0
 40
2.0
  1
4T2
 41
0.7
  7
FSTD2
  0
TEXT
  8
F05_PRO
  5
18A3
 10
88.666824
 20
116.451338
 30
0.0
 40
2.0
  1
2T1
 41
0.7
  7
FSTD2
  0
TEXT
  8
F05_PRO
  5
18F5
 10
127.519702
 20
135.635563
 30
0.0
 40
2.0
  1
+
 41
0.7
  7
FSTD2
  0
TEXT
  8
F05_PRO
  5
18F6
 10
82.098796
 20
135.619963
 30
0.0
 40
2.0
  1
+
 41
0.7
  7
FSTD2
  0
TEXT
  8
F05_PRO
  5
18F7
 10
82.137266
 20
115.413888
 30
0.0
 40
2.0
  1
-
 41
0.7
  7
FSTD2
  0
TEXT
  8
F05_PRO
  5
18F8
 10
127.71205
 20
115.282912
 30
0.0
 40
2.0
  1
-
 41
0.7
  7
FSTD2
  0
TEXT
  8
F02_DIM
  5
18F9
 10
137.406909
 20
138.833926
 30
0.0
 40
2.5
  1
※2
  7
FSTD1
  0
TEXT
  8
F02_DIM
  5
18FA
 10
137.406909
 20
110.882449
 30
0.0
 40
2.5
  1
※2
  7
FSTD1
  0
LINE
  8
F05_PRO
  5
18FB
 10
128.829929
 20
137.350638
 30
0.0
 11
136.693655
 21
140.068142
 31
0.0
  0
LINE
  8
F05_PRO
  5
18FC
 10
128.732846
 20
115.319439
 30
0.0
 11
136.596572
 21
112.310773
 31
0.0
  0
TEXT
  8
F05_PRO
  5
18FD
 10
-106.388862
 20
70.745802
 30
0.0
 40
3.0
  1
※2 : DC操作器の場合
  7
FSTD1
  0
TEXT
  8
F05_PRO
  5
18FE
 10
-68.08133
 20
-13.678424
 30
0.0
 40
4.0
  1
SK12AR, SK12GR, SK12LR
 41
0.8
  7
FSTD1
  0
TEXT
  8
F05_PRO
  5
18FF
 10
-68.08133
 20
-7.410267
 30
0.0
 40
4.0
  1
SK09AR, SK09GR, SK09LR
 41
0.8
  7
FSTD1
  0
TEXT
  8
F05_PRO
  5
1900
 10
-68.08133
 20
-0.909955
 30
0.0
 40
4.0
  1
SK06AR, SK06GR, SK06LR
 41
0.8
  7
FSTD1
  0
LINE
  8
F05_PRO
  5
1901
 10
-108.052902
 20
8.257292
 30
0.0
 11
-102.398382
 21
8.257292
 31
0.0
  0
LINE
  8
F05_PRO
  5
1902
 10
-106.739277
 20
5.953292
 30
0.0
 11
-103.335905
 21
5.953292
 31
0.0
  0
LINE
  8
F05_PRO
  5
1903
 10
-107.79985
 20
2.677292
 30
0.0
 11
-104.36129
 21
2.677292
 31
0.0
  0
LINE
  8
F05_PRO
  5
1904
 10
-107.344675
 20
4.819292
 30
0.0
 11
-103.955631
 21
4.819292
 31
0.0
  0
LINE
  8
F05_PRO
  5
1905
 10
-111.240882
 20
-0.742708
 30
0.0
 11
-109.593502
 21
7.009669
 31
0.0
  0
LINE
  8
F05_PRO
  5
1906
 10
-111.240882
 20
-0.742708
 30
0.0
 11
-108.5266
 21
-0.742708
 31
0.0
  0
LINE
  8
F05_PRO
  5
1907
 10
-108.5266
 20
-0.742708
 30
0.0
 11
-107.79985
 21
2.677292
 31
0.0
  0
ARC
  8
F05_PRO
  5
1908
 10
-108.052902
 20
6.682292
 30
0.0
 40
1.575
 50
90.0
 51
168.003101
  0
ARC
  8
F05_PRO
  5
1909
 10
-106.739277
 20
5.503292
 30
0.0
 40
0.45
 50
90.0
 51
168.003101
  0
LINE
  8
F05_PRO
  5
190A
 10
-107.344675
 20
4.819292
 30
0.0
 11
-107.179448
 21
5.596828
 31
0.0
  0
POLYLINE
  8
F05_PRO
  5
190B
 66
     1
 10
0.0
 20
0.0
 30
0.0
 70
   128
  0
VERTEX
  8
F05_PRO
  5
197C
 10
-103.586445
 20
4.189825
 30
0.0
  0
VERTEX
  8
F05_PRO
  5
197D
 10
-103.75593
 20
3.418828
 30
0.0
  0
VERTEX
  8
F05_PRO
  5
197E
 10
-103.792229
 20
2.665884
 30
0.0
  0
SEQEND
  8
F05_PRO
  5
197F
  0
ARC
  8
F05_PRO
  5
190C
 10
-100.796754
 20
4.498666
 30
0.0
 40
5.433708
 50
279.159834
 51
342.417868
1001
ACAD
1000
ASC_BOUNDS
1002
{
1070
    19
1002
}
  0
ARC
  8
F05_PRO
  5
190D
 10
-100.955174
 20
4.640239
 30
0.0
 40
5.051744
 50
280.279158
 51
339.332945
1001
ACAD
1000
ASC_BOUNDS
1002
{
1070
    19
1002
}
  0
ARC
  8
F05_PRO
  5
190E
 10
-100.43116
 20
3.028029
 30
0.0
 40
3.379597
 50
186.002385
 51
276.412304
1001
ACAD
1000
ASC_BOUNDS
1002
{
1070
    19
1002
}
  0
ARC
  8
F05_PRO
  5
190F
 10
-100.585577
 20
2.857275
 30
0.0
 40
3.78
 50
182.729155
 51
279.960292
1001
ACAD
1000
ASC_BOUNDS
1002
{
1070
    19
1002
}
  0
LINE
  8
F05_PRO
  5
1910
 10
-95.616882
 20
2.857292
 30
0.0
 11
-96.228524
 21
2.857292
 31
0.0
  0
LINE
  8
F05_PRO
  5
1911
 10
-102.400291
 20
4.819292
 30
0.0
 11
-95.882322
 21
4.819292
 31
0.0
  0
LINE
  8
F05_PRO
  5
1912
 10
-102.53773
 20
4.171292
 30
0.0
 11
-95.310882
 21
4.171292
 31
0.0
  0
POLYLINE
  8
F05_PRO
  5
1913
 66
     1
 10
0.0
 20
0.0
 30
0.0
 70
   128
  0
VERTEX
  8
F05_PRO
  5
1980
 10
-99.260387
 20
7.84023
 30
0.0
  0
VERTEX
  8
F05_PRO
  5
1981
 10
-100.03495
 20
7.728677
 30
0.0
  0
VERTEX
  8
F05_PRO
  5
1982
 10
-100.795528
 20
7.458293
 30
0.0
  0
VERTEX
  8
F05_PRO
  5
1983
 10
-101.517511
 20
7.037827
 30
0.0
  0
VERTEX
  8
F05_PRO
  5
1984
 10
-102.177542
 20
6.480881
 30
0.0
  0
VERTEX
  8
F05_PRO
  5
1985
 10
-102.754264
 20
5.805476
 30
0.0
  0
VERTEX
  8
F05_PRO
  5
1986
 10
-103.229019
 20
5.033465
 30
0.0
  0
VERTEX
  8
F05_PRO
  5
1987
 10
-103.586445
 20
4.189825
 30
0.0
  0
SEQEND
  8
F05_PRO
  5
1988
  0
ARC
  8
F05_PRO
  5
1914
 10
-99.055068
 20
4.69181
 30
0.0
 40
3.745468
 50
1.499529
 51
100.57959
1001
ACAD
1000
ASC_BOUNDS
1002
{
1070
    19
1002
}
  0
ARC
  8
F05_PRO
  5
1915
 10
-99.005078
 20
3.409047
 30
0.0
 40
5.01895
 50
98.442625
 51
137.3304
1001
ACAD
1000
ASC_BOUNDS
1002
{
1070
    19
1002
}
  0
LINE
  8
F05_PRO
  5
1916
 10
-102.398382
 20
8.257292
 30
0.0
 11
-102.695382
 21
6.810739
 31
0.0
  0
LINE
  8
F05_PRO
  5
1917
 10
-102.400291
 20
4.819292
 30
0.0
 11
-102.53773
 21
4.171292
 31
0.0
  0
ARC
  8
F05_PRO
  5
1918
 10
-98.897649
 20
2.791466
 30
0.0
 40
5.449335
 50
144.533818
 51
158.153358
  0
ARC
  8
F05_PRO
  5
1919
 10
-99.069615
 20
4.65438
 30
0.0
 40
3.191557
 50
2.961866
 51
93.426847
  0
LINE
  8
F05_PRO
  5
191A
 10
-95.310882
 20
4.171292
 30
0.0
 11
-95.310882
 21
4.789824
 31
0.0
  0
TEXT
  8
F05_PRO
  5
191B
 10
-86.307198
 20
-0.909955
 30
0.0
 40
4.0
  1
Type
  7
FSTD1
  0
ENDSEC
  0
EOF
