  0
SECTION
  2
HEADER
  9
$ACADVER
  1
AC1009
  9
$INSBASE
 10
0.0
 20
0.0
 30
0.0
  9
$EXTMIN
 10
-139.887798
 20
-110.908743
 30
0.0
  9
$EXTMAX
 10
106.778462
 20
56.548436
 30
0.0
  9
$LIMMIN
 10
-105.0
 20
-148.5
  9
$LIMMAX
 10
105.0
 20
148.5
  9
$ORTHOMODE
 70
     1
  9
$REGENMODE
 70
     1
  9
$FILLMODE
 70
     1
  9
$QTEXTMODE
 70
     0
  9
$MIRRTEXT
 70
     1
  9
$DRAGMODE
 70
     2
  9
$LTSCALE
 40
0.2
  9
$OSMODE
 70
    37
  9
$ATTMODE
 70
     1
  9
$TEXTSIZE
 40
2.5
  9
$TRACEWID
 40
0.05
  9
$TEXTSTYLE
  7
FSTD2
  9
$CLAYER
  8
0
  9
$CELTYPE
  6
BYLAYER
  9
$CECOLOR
 62
   256
  9
$DIMSCALE
 40
0.0
  9
$DIMASZ
 40
3.0
  9
$DIMEXO
 40
1.0
  9
$DIMDLI
 40
0.38
  9
$DIMRND
 40
0.0
  9
$DIMDLE
 40
0.0
  9
$DIMEXE
 40
1.0
  9
$DIMTP
 40
0.2
  9
$DIMTM
 40
0.0
  9
$DIMTXT
 40
3.0
  9
$DIMCEN
 40
0.09
  9
$DIMTSZ
 40
0.0
  9
$DIMTOL
 70
     0
  9
$DIMLIM
 70
     0
  9
$DIMTIH
 70
     0
  9
$DIMTOH
 70
     0
  9
$DIMSE1
 70
     0
  9
$DIMSE2
 70
     0
  9
$DIMTAD
 70
     1
  9
$DIMZIN
 70
     8
  9
$DIMBLK
  1

  9
$DIMASO
 70
     1
  9
$DIMSHO
 70
     1
  9
$DIMPOST
  1

  9
$DIMAPOST
  1

  9
$DIMALT
 70
     0
  9
$DIMALTD
 70
     4
  9
$DIMALTF
 40
0.0394
  9
$DIMLFAC
 40
1.0
  9
$DIMTOFL
 70
     1
  9
$DIMTVP
 40
0.0
  9
$DIMTIX
 70
     0
  9
$DIMSOXD
 70
     0
  9
$DIMSAH
 70
     1
  9
$DIMBLK1
  1
_OPEN30
  9
$DIMBLK2
  1
_OPEN30
  9
$DIMSTYLE
  2
FSTD1
  9
$DIMCLRD
 70
     0
  9
$DIMCLRE
 70
     0
  9
$DIMCLRT
 70
     0
  9
$DIMTFAC
 40
0.7
  9
$DIMGAP
 40
1.0
  9
$LUNITS
 70
     2
  9
$LUPREC
 70
     4
  9
$SKETCHINC
 40
0.1
  9
$FILLETRAD
 40
0.0
  9
$AUNITS
 70
     0
  9
$AUPREC
 70
     0
  9
$MENU
  1
acad
  9
$ELEVATION
 40
0.0
  9
$PELEVATION
 40
0.0
  9
$THICKNESS
 40
0.0
  9
$LIMCHECK
 70
     0
  9
$BLIPMODE
 70
     0
  9
$CHAMFERA
 40
0.0
  9
$CHAMFERB
 40
0.0
  9
$SKPOLY
 70
     0
  9
$TDCREATE
 40
2455839.734757477
  9
$TDUPDATE
 40
2455843.592607962
  9
$TDINDWG
 40
0.0816910995
  9
$TDUSRTIMER
 40
0.0816900231
  9
$USRTIMER
 70
     1
  9
$ANGBASE
 50
0.0
  9
$ANGDIR
 70
     0
  9
$PDMODE
 70
     0
  9
$PDSIZE
 40
0.0
  9
$PLINEWID
 40
0.0
  9
$COORDS
 70
     1
  9
$SPLFRAME
 70
     0
  9
$SPLINETYPE
 70
     6
  9
$SPLINESEGS
 70
     8
  9
$ATTDIA
 70
     0
  9
$ATTREQ
 70
     1
  9
$HANDLING
 70
     1
  9
$HANDSEED
  5
1095
  9
$SURFTAB1
 70
     6
  9
$SURFTAB2
 70
     6
  9
$SURFTYPE
 70
     6
  9
$SURFU
 70
     6
  9
$SURFV
 70
     6
  9
$UCSNAME
  2

  9
$UCSORG
 10
0.0
 20
0.0
 30
0.0
  9
$UCSXDIR
 10
1.0
 20
0.0
 30
0.0
  9
$UCSYDIR
 10
0.0
 20
1.0
 30
0.0
  9
$PUCSNAME
  2

  9
$PUCSORG
 10
0.0
 20
0.0
 30
0.0
  9
$PUCSXDIR
 10
1.0
 20
0.0
 30
0.0
  9
$PUCSYDIR
 10
0.0
 20
1.0
 30
0.0
  9
$USERI1
 70
     0
  9
$USERI2
 70
     0
  9
$USERI3
 70
     0
  9
$USERI4
 70
     0
  9
$USERI5
 70
     0
  9
$USERR1
 40
0.0
  9
$USERR2
 40
0.0
  9
$USERR3
 40
0.0
  9
$USERR4
 40
0.0
  9
$USERR5
 40
0.0
  9
$WORLDVIEW
 70
     1
  9
$SHADEDGE
 70
     3
  9
$SHADEDIF
 70
    70
  9
$TILEMODE
 70
     1
  9
$MAXACTVP
 70
    16
  9
$PINSBASE
 10
0.0
 20
0.0
 30
0.0
  9
$PLIMCHECK
 70
     0
  9
$PEXTMIN
 10
1.000000E+20
 20
1.000000E+20
 30
1.000000E+20
  9
$PEXTMAX
 10
-1.000000E+20
 20
-1.000000E+20
 30
-1.000000E+20
  9
$PLIMMIN
 10
0.0
 20
0.0
  9
$PLIMMAX
 10
12.0
 20
9.0
  9
$UNITMODE
 70
     0
  9
$VISRETAIN
 70
     0
  9
$PLINEGEN
 70
     1
  9
$PSLTSCALE
 70
     0
  9
$TREEDEPTH
 70
  3020
  9
$DWGCODEPAGE
  3
dos932
  0
ENDSEC
  0
SECTION
  2
TABLES
  0
TABLE
  2
VPORT
 70
     2
  0
VPORT
  2
*ACTIVE
 70
     0
 10
0.0
 20
0.0
 11
1.0
 21
1.0
 12
9.036921
 22
-21.135446
 13
0.0
 23
0.0
 14
1.0
 24
1.0
 15
0.0
 25
0.0
 16
0.0
 26
0.0
 36
1.0
 17
0.0
 27
0.0
 37
0.0
 40
200.529696
 41
1.492415
 42
50.0
 43
0.0
 44
0.0
 50
0.0
 51
0.0
 71
     0
 72
   100
 73
     1
 74
     1
 75
     0
 76
     0
 77
     0
 78
     0
  0
ENDTAB
  0
TABLE
  2
LTYPE
 70
     4
  0
LTYPE
  2
CONTINUOUS
 70
    64
  3
Solid line
 72
    65
 73
     0
 40
0.0
  0
LTYPE
  2
PHANTOM
 70
    64
  3
Phantom ______  __  __  ______  __  __  ______
 72
    65
 73
     6
 40
63.5
 49
31.75
 49
-6.35
 49
6.35
 49
-6.35
 49
6.35
 49
-6.35
  0
LTYPE
  2
CENTER
 70
    64
  3
Center ____ _ ____ _ ____ _ ____ _ ____ _ ____
 72
    65
 73
     4
 40
50.8
 49
31.75
 49
-6.35
 49
6.35
 49
-6.35
  0
LTYPE
  2
DASHED
 70
    64
  3
Dashed __ __ __ __ __ __ __ __ __ __ __ __ __ _
 72
    65
 73
     2
 40
19.05
 49
12.7
 49
-6.35
  0
ENDTAB
  0
TABLE
  2
LAYER
 70
    12
  0
LAYER
  2
0
 70
    64
 62
     7
  6
CONTINUOUS
  0
LAYER
  2
DEFPOINTS
 70
    64
 62
     7
  6
CONTINUOUS
  0
LAYER
  2
F03_CNT
 70
    64
 62
     1
  6
CENTER
  0
LAYER
  2
F02_DIM
 70
    64
 62
     4
  6
CONTINUOUS
  0
LAYER
  2
F05_PRO
 70
    64
 62
     4
  6
CONTINUOUS
  0
LAYER
  2
F01_OUT
 70
    64
 62
     6
  6
CONTINUOUS
  0
LAYER
  2
F06_CUT
 70
    64
 62
     6
  6
CONTINUOUS
  0
LAYER
  2
F04_HID
 70
    64
 62
     3
  6
DASHED
  0
LAYER
  2
F07_COO
 70
    64
 62
     3
  6
PHANTOM
  0
LAYER
  2
F08_IMG
 70
    64
 62
     2
  6
PHANTOM
  0
LAYER
  2
F09_IMG2
 70
    64
 62
     2
  6
PHANTOM
  0
LAYER
  2
F10_IMG3
 70
    64
 62
     2
  6
PHANTOM
  0
ENDTAB
  0
TABLE
  2
STYLE
 70
     4
  0
STYLE
  2
MX_NOTE_STANDARD
 70
     0
 40
0.0
 41
1.0
 50
0.0
 71
     0
 42
2.5
  3
txt.shx
  4
extfont.shx
  0
STYLE
  2
STANDARD
 70
     0
 40
0.0
 41
1.0
 50
0.0
 71
     0
 42
0.2
  3

  4

  0
STYLE
  2
FSTD1
 70
    64
 40
0.0
 41
1.0
 50
0.0
 71
     0
 42
2.5
  3
txt.shx
  4
bigfont.shx
  0
STYLE
  2
FSTD2
 70
    64
 40
0.0
 41
0.7
 50
0.0
 71
     0
 42
2.5
  3
txt.shx
  4
bigfont.shx
  0
ENDTAB
  0
TABLE
  2
VIEW
 70
     0
  0
ENDTAB
  0
TABLE
  2
UCS
 70
     0
  0
ENDTAB
  0
TABLE
  2
APPID
 70
     3
  0
APPID
  2
ACAD
 70
    64
  0
ENDTAB
  0
TABLE
  2
DIMSTYLE
 70
     2
  0
DIMSTYLE
  2
MXDIMSTYLE
 70
     0
  3

  4

  5

  6
OPEN30
  7
OPEN30
 40
1.0
 41
2.5
 42
0.5
 43
3.75
 44
1.0
 45
0.0
 46
0.0
 47
0.0
 48
0.0
140
4.1656
141
2.5
142
0.0
143
0.03937
144
1.0
145
0.0
146
1.0
147
1.0
 71
     0
 72
     0
 73
     0
 74
     0
 75
     0
 76
     0
 77
     1
 78
     8
170
     0
171
     4
172
     1
173
     1
174
     0
175
     0
176
     0
177
     0
178
     0
  0
DIMSTYLE
  2
FSTD1
 70
    64
  3

  4

  5

  6
_OPEN30
  7
_OPEN30
 40
0.0
 41
3.0
 42
1.0
 43
0.38
 44
1.0
 45
0.0
 46
0.0
 47
0.2
 48
0.0
140
3.0
141
0.09
142
0.0
143
0.0394
144
1.0
145
0.0
146
0.7
147
1.0
 71
     0
 72
     0
 73
     0
 74
     0
 75
     0
 76
     0
 77
     1
 78
     8
170
     0
171
     4
172
     1
173
     1
174
     0
175
     0
176
     0
177
     0
178
     0
  0
ENDTAB
  0
ENDSEC
  0
SECTION
  2
BLOCKS
  0
BLOCK
  8
0
  5
13B
  2
_OPEN30
 70
    66
 10
0.0
 20
0.0
 30
0.0
  3
_OPEN30
1001
ACAD
1000
RTLwPs
1070
   158
1000
RTMaterial
1005
0
  0
LINE
  8
0
  6
BYBLOCK
 62
     0
  5
13C
 10
-1.0
 20
0.267949
 30
0.0
 11
0.0
 21
0.0
 31
0.0
1001
ACAD
1000
RTLwPs
1070
   158
1000
RTMaterial
1005
0
  0
LINE
  8
0
  6
BYBLOCK
 62
     0
  5
13D
 10
0.0
 20
0.0
 30
0.0
 11
-1.0
 21
-0.267949
 31
0.0
1001
ACAD
1000
RTLwPs
1070
   158
1000
RTMaterial
1005
0
  0
LINE
  8
0
  6
BYBLOCK
 62
     0
  5
13E
 10
0.0
 20
0.0
 30
0.0
 11
-1.0
 21
0.0
 31
0.0
1001
ACAD
1000
RTLwPs
1070
   158
1000
RTMaterial
1005
0
  0
ENDBLK
  8
0
  5
13F
1001
ACAD
1000
RTLwPs
1070
   158
1000
RTMaterial
1005
0
  0
BLOCK
  8
0
  5
5E1
  2
_DOTSMALL
 70
    66
 10
0.0
 20
0.0
 30
0.0
  3
_DOTSMALL
1001
ACAD
1000
RTLwPs
1070
   158
1000
RTMaterial
1005
0
  0
POLYLINE
  8
0
  6
BYBLOCK
 62
     0
  5
5E2
 66
     1
 10
0.0
 20
0.0
 30
0.0
 70
     1
1001
ACAD
1000
RTLwPs
1070
   158
1000
RTMaterial
1005
A4159A0400000000
  0
VERTEX
  8
0
  6
BYBLOCK
 62
     0
  5
1092
 10
-0.0625
 20
0.0
 30
0.0
 40
0.5
 41
0.5
 42
1.0
  0
VERTEX
  8
0
  6
BYBLOCK
 62
     0
  5
1093
 10
0.0625
 20
0.0
 30
0.0
 40
0.5
 41
0.5
 42
1.0
  0
SEQEND
  8
0
  6
BYBLOCK
 62
     0
  5
1094
  0
ENDBLK
  8
0
  5
5E3
1001
ACAD
1000
RTLwPs
1070
   158
1000
RTMaterial
1005
0
  0
BLOCK
  8
0
  5
DB8
  2
*D2
 70
    65
 10
0.0
 20
0.0
 30
0.0
  3
*D2
  0
LINE
  8
0
  6
BYBLOCK
 62
     0
  5
DB9
 10
-65.337171
 20
102.183901
 30
0.0
 11
-65.337171
 21
106.56986
 31
0.0
  0
LINE
  8
0
  6
BYBLOCK
 62
     0
  5
DBA
 10
-59.337171
 20
101.683901
 30
0.0
 11
-59.337171
 21
106.56986
 31
0.0
  0
LINE
  8
0
  6
BYBLOCK
 62
     0
  5
DBB
 10
-68.337171
 20
105.56986
 30
0.0
 11
-71.337171
 21
105.56986
 31
0.0
  0
LINE
  8
0
  6
BYBLOCK
 62
     0
  5
DBC
 10
-56.337171
 20
105.56986
 30
0.0
 11
-53.337171
 21
105.56986
 31
0.0
  0
LINE
  8
0
  6
BYBLOCK
 62
     0
  5
DBD
 10
-65.337171
 20
105.56986
 30
0.0
 11
-59.337171
 21
105.56986
 31
0.0
  0
INSERT
  8
0
  6
BYBLOCK
 62
     0
  5
DBE
  2
_OPEN30
 10
-65.337171
 20
105.56986
 30
0.0
 41
3.0
 42
3.0
 43
3.0
  0
INSERT
  8
0
  6
BYBLOCK
 62
     0
  5
DBF
  2
_OPEN30
 10
-59.337171
 20
105.56986
 30
0.0
 41
3.0
 42
3.0
 50
180.0
 43
3.0
  0
TEXT
  8
0
  6
BYBLOCK
 62
     0
  5
DC0
 10
-63.337171
 20
106.56986
 30
0.0
 40
3.0
  1
6
  7
FSTD1
  0
POINT
  8
DEFPOINTS
  6
BYBLOCK
 62
     0
  5
DC1
 10
-65.337171
 20
101.183901
 30
0.0
  0
POINT
  8
DEFPOINTS
  6
BYBLOCK
 62
     0
  5
DC2
 10
-59.337171
 20
100.683901
 30
0.0
  0
POINT
  8
DEFPOINTS
  6
BYBLOCK
 62
     0
  5
DC3
 10
-59.337171
 20
105.56986
 30
0.0
  0
ENDBLK
  8
0
  5
DC4
  0
BLOCK
  8
0
  5
DC9
  2
*D3
 70
    65
 10
0.0
 20
0.0
 30
0.0
  3
*D3
  0
LINE
  8
0
  6
BYBLOCK
 62
     0
  5
DCA
 10
-65.337171
 20
102.183901
 30
0.0
 11
-65.337171
 21
113.100655
 31
0.0
  0
LINE
  8
0
  6
BYBLOCK
 62
     0
  5
DCB
 10
-29.337171
 20
97.383901
 30
0.0
 11
-29.337171
 21
113.100655
 31
0.0
  0
LINE
  8
0
  6
BYBLOCK
 62
     0
  5
DCC
 10
-62.337171
 20
112.100655
 30
0.0
 11
-32.337171
 21
112.100655
 31
0.0
  0
INSERT
  8
0
  6
BYBLOCK
 62
     0
  5
DCD
  2
_OPEN30
 10
-65.337171
 20
112.100655
 30
0.0
 41
3.0
 42
3.0
 50
180.0
 43
3.0
  0
INSERT
  8
0
  6
BYBLOCK
 62
     0
  5
DCE
  2
_OPEN30
 10
-29.337171
 20
112.100655
 30
0.0
 41
3.0
 42
3.0
 43
3.0
  0
TEXT
  8
0
  6
BYBLOCK
 62
     0
  5
DCF
 10
-49.837171
 20
113.100655
 30
0.0
 40
3.0
  1
36
  7
FSTD1
  0
POINT
  8
DEFPOINTS
  6
BYBLOCK
 62
     0
  5
DD0
 10
-65.337171
 20
101.183901
 30
0.0
  0
POINT
  8
DEFPOINTS
  6
BYBLOCK
 62
     0
  5
DD1
 10
-29.337171
 20
96.383901
 30
0.0
  0
POINT
  8
DEFPOINTS
  6
BYBLOCK
 62
     0
  5
DD2
 10
-29.337171
 20
112.100655
 30
0.0
  0
ENDBLK
  8
0
  5
DD3
  0
BLOCK
  8
0
  5
DF3
  2
*D4
 70
    65
 10
0.0
 20
0.0
 30
0.0
  3
*D4
  0
LINE
  8
0
  6
BYBLOCK
 62
     0
  5
DF4
 10
-65.337171
 20
102.183901
 30
0.0
 11
-65.337171
 21
119.979583
 31
0.0
  0
LINE
  8
0
  6
BYBLOCK
 62
     0
  5
DF5
 10
-16.337171
 20
89.683901
 30
0.0
 11
-16.337171
 21
119.979583
 31
0.0
  0
LINE
  8
0
  6
BYBLOCK
 62
     0
  5
DF6
 10
-62.337171
 20
118.979583
 30
0.0
 11
-19.337171
 21
118.979583
 31
0.0
  0
INSERT
  8
0
  6
BYBLOCK
 62
     0
  5
DF7
  2
_OPEN30
 10
-65.337171
 20
118.979583
 30
0.0
 41
3.0
 42
3.0
 50
180.0
 43
3.0
  0
INSERT
  8
0
  6
BYBLOCK
 62
     0
  5
DF8
  2
_OPEN30
 10
-16.337171
 20
118.979583
 30
0.0
 41
3.0
 42
3.0
 43
3.0
  0
TEXT
  8
0
  6
BYBLOCK
 62
     0
  5
DF9
 10
-43.337171
 20
119.979583
 30
0.0
 40
3.0
  1
49
  7
FSTD1
  0
POINT
  8
DEFPOINTS
  6
BYBLOCK
 62
     0
  5
DFA
 10
-65.337171
 20
101.183901
 30
0.0
  0
POINT
  8
DEFPOINTS
  6
BYBLOCK
 62
     0
  5
DFB
 10
-16.337171
 20
88.683901
 30
0.0
  0
POINT
  8
DEFPOINTS
  6
BYBLOCK
 62
     0
  5
DFC
 10
-16.337171
 20
118.979583
 30
0.0
  0
ENDBLK
  8
0
  5
DFD
  0
BLOCK
  8
0
  5
E0C
  2
*D5
 70
    65
 10
0.0
 20
0.0
 30
0.0
  3
*D5
  0
LINE
  8
0
  6
BYBLOCK
 62
     0
  5
E0D
 10
-16.337171
 20
89.683901
 30
0.0
 11
-16.337171
 21
126.616185
 31
0.0
  0
LINE
  8
0
  6
BYBLOCK
 62
     0
  5
E0E
 10
-77.337171
 20
91.983901
 30
0.0
 11
-77.337171
 21
126.616185
 31
0.0
  0
LINE
  8
0
  6
BYBLOCK
 62
     0
  5
E0F
 10
-19.337171
 20
125.616185
 30
0.0
 11
-74.337171
 21
125.616185
 31
0.0
  0
INSERT
  8
0
  6
BYBLOCK
 62
     0
  5
E10
  2
_OPEN30
 10
-16.337171
 20
125.616185
 30
0.0
 41
3.0
 42
3.0
 43
3.0
  0
INSERT
  8
0
  6
BYBLOCK
 62
     0
  5
E11
  2
_OPEN30
 10
-77.337171
 20
125.616185
 30
0.0
 41
3.0
 42
3.0
 50
180.0
 43
3.0
  0
TEXT
  8
0
  6
BYBLOCK
 62
     0
  5
E12
 10
-48.837171
 20
126.616185
 30
0.0
 40
3.0
  1
61
  7
FSTD1
  0
POINT
  8
DEFPOINTS
  6
BYBLOCK
 62
     0
  5
E13
 10
-16.337171
 20
88.683901
 30
0.0
  0
POINT
  8
DEFPOINTS
  6
BYBLOCK
 62
     0
  5
E14
 10
-77.337171
 20
90.983901
 30
0.0
  0
POINT
  8
DEFPOINTS
  6
BYBLOCK
 62
     0
  5
E15
 10
-77.337171
 20
125.616185
 30
0.0
  0
ENDBLK
  8
0
  5
E16
  0
BLOCK
  8
0
  5
1018
  2
*D6
 70
    65
 10
0.0
 20
0.0
 30
0.0
  3
*D6
  0
LINE
  8
0
  6
BYBLOCK
 62
     0
  5
1019
 10
-16.337171
 20
89.683901
 30
0.0
 11
-16.337171
 21
119.979583
 31
0.0
  0
LINE
  8
0
  6
BYBLOCK
 62
     0
  5
101A
 10
0.662829
 20
89.283901
 30
0.0
 11
0.662829
 21
119.979583
 31
0.0
  0
LINE
  8
0
  6
BYBLOCK
 62
     0
  5
101B
 10
-13.337171
 20
118.979583
 30
0.0
 11
-2.337171
 21
118.979583
 31
0.0
  0
INSERT
  8
0
  6
BYBLOCK
 62
     0
  5
101C
  2
_OPEN30
 10
-16.337171
 20
118.979583
 30
0.0
 41
3.0
 42
3.0
 50
180.0
 43
3.0
  0
INSERT
  8
0
  6
BYBLOCK
 62
     0
  5
101D
  2
_OPEN30
 10
0.662829
 20
118.979583
 30
0.0
 41
3.0
 42
3.0
 43
3.0
  0
TEXT
  8
0
  6
BYBLOCK
 62
     0
  5
101E
 10
-11.837171
 20
119.979583
 30
0.0
 40
3.0
  1
(17)
  7
FSTD1
  0
POINT
  8
DEFPOINTS
  6
BYBLOCK
 62
     0
  5
101F
 10
-16.337171
 20
88.683901
 30
0.0
  0
POINT
  8
DEFPOINTS
  6
BYBLOCK
 62
     0
  5
1020
 10
0.662829
 20
88.283901
 30
0.0
  0
POINT
  8
DEFPOINTS
  6
BYBLOCK
 62
     0
  5
1021
 10
0.662829
 20
118.979583
 30
0.0
  0
ENDBLK
  8
0
  5
1022
  0
BLOCK
  8
0
  5
100D
  2
*D7
 70
    65
 10
0.0
 20
0.0
 30
0.0
  3
*D7
  0
LINE
  8
0
  6
BYBLOCK
 62
     0
  5
100E
 10
-16.337171
 20
89.683901
 30
0.0
 11
-16.337171
 21
126.616185
 31
0.0
  0
LINE
  8
0
  6
BYBLOCK
 62
     0
  5
100F
 10
17.662829
 20
78.983901
 30
0.0
 11
17.662829
 21
126.616185
 31
0.0
  0
LINE
  8
0
  6
BYBLOCK
 62
     0
  5
1010
 10
-13.337171
 20
125.616185
 30
0.0
 11
14.662829
 21
125.616185
 31
0.0
  0
INSERT
  8
0
  6
BYBLOCK
 62
     0
  5
1011
  2
_OPEN30
 10
-16.337171
 20
125.616185
 30
0.0
 41
3.0
 42
3.0
 50
180.0
 43
3.0
  0
INSERT
  8
0
  6
BYBLOCK
 62
     0
  5
1012
  2
_OPEN30
 10
17.662829
 20
125.616185
 30
0.0
 41
3.0
 42
3.0
 43
3.0
  0
TEXT
  8
0
  6
BYBLOCK
 62
     0
  5
1013
 10
-3.837171
 20
126.616185
 30
0.0
 40
3.0
  1
(34)
  7
FSTD1
  0
POINT
  8
DEFPOINTS
  6
BYBLOCK
 62
     0
  5
1014
 10
-16.337171
 20
88.683901
 30
0.0
  0
POINT
  8
DEFPOINTS
  6
BYBLOCK
 62
     0
  5
1015
 10
17.662829
 20
77.983901
 30
0.0
  0
POINT
  8
DEFPOINTS
  6
BYBLOCK
 62
     0
  5
1016
 10
17.662829
 20
125.616185
 30
0.0
  0
ENDBLK
  8
0
  5
1017
  0
BLOCK
  8
0
  5
F7B
  2
*D8
 70
    65
 10
0.0
 20
0.0
 30
0.0
  3
*D8
  0
LINE
  8
0
  6
BYBLOCK
 62
     0
  5
F7C
 10
42.927257
 20
98.933901
 30
0.0
 11
42.927257
 21
115.408285
 31
0.0
  0
LINE
  8
0
  6
BYBLOCK
 62
     0
  5
F7D
 10
51.627257
 20
98.933901
 30
0.0
 11
51.627257
 21
115.408285
 31
0.0
  0
LINE
  8
0
  6
BYBLOCK
 62
     0
  5
F7E
 10
45.927257
 20
114.408285
 30
0.0
 11
48.627257
 21
114.408285
 31
0.0
  0
INSERT
  8
0
  6
BYBLOCK
 62
     0
  5
F7F
  2
_OPEN30
 10
42.927257
 20
114.408285
 30
0.0
 41
3.0
 42
3.0
 50
180.0
 43
3.0
  0
INSERT
  8
0
  6
BYBLOCK
 62
     0
  5
F80
  2
_OPEN30
 10
51.627257
 20
114.408285
 30
0.0
 41
3.0
 42
3.0
 43
3.0
  0
TEXT
  8
0
  6
BYBLOCK
 62
     0
  5
F81
 10
44.277257
 20
115.408285
 30
0.0
 40
3.0
  1
8.7
  7
FSTD1
  0
POINT
  8
DEFPOINTS
  6
BYBLOCK
 62
     0
  5
F82
 10
42.927257
 20
97.933901
 30
0.0
  0
POINT
  8
DEFPOINTS
  6
BYBLOCK
 62
     0
  5
F83
 10
51.627257
 20
97.933901
 30
0.0
  0
POINT
  8
DEFPOINTS
  6
BYBLOCK
 62
     0
  5
F84
 10
51.627257
 20
114.408285
 30
0.0
  0
ENDBLK
  8
0
  5
F85
  0
BLOCK
  8
0
  5
FA3
  2
*D9
 70
    65
 10
0.0
 20
0.0
 30
0.0
  3
*D9
  0
LINE
  8
0
  6
BYBLOCK
 62
     0
  5
FA4
 10
56.452257
 20
101.883901
 30
0.0
 11
56.452257
 21
108.52778
 31
0.0
  0
LINE
  8
0
  6
BYBLOCK
 62
     0
  5
FA5
 10
64.202257
 20
101.883901
 30
0.0
 11
64.202257
 21
108.52778
 31
0.0
  0
LINE
  8
0
  6
BYBLOCK
 62
     0
  5
FA6
 10
53.452257
 20
107.52778
 30
0.0
 11
50.452257
 21
107.52778
 31
0.0
  0
LINE
  8
0
  6
BYBLOCK
 62
     0
  5
FA7
 10
67.202257
 20
107.52778
 30
0.0
 11
70.202257
 21
107.52778
 31
0.0
  0
LINE
  8
0
  6
BYBLOCK
 62
     0
  5
FA8
 10
56.452257
 20
107.52778
 30
0.0
 11
64.202257
 21
107.52778
 31
0.0
  0
INSERT
  8
0
  6
BYBLOCK
 62
     0
  5
FA9
  2
_OPEN30
 10
56.452257
 20
107.52778
 30
0.0
 41
3.0
 42
3.0
 43
3.0
  0
INSERT
  8
0
  6
BYBLOCK
 62
     0
  5
FAA
  2
_OPEN30
 10
64.202257
 20
107.52778
 30
0.0
 41
3.0
 42
3.0
 50
180.0
 43
3.0
  0
TEXT
  8
0
  6
BYBLOCK
 62
     0
  5
FAB
 10
57.327257
 20
108.52778
 30
0.0
 40
3.0
  1
7.7
  7
FSTD1
  0
POINT
  8
DEFPOINTS
  6
BYBLOCK
 62
     0
  5
FAC
 10
56.452257
 20
100.883901
 30
0.0
  0
POINT
  8
DEFPOINTS
  6
BYBLOCK
 62
     0
  5
FAD
 10
64.202257
 20
100.883901
 30
0.0
  0
POINT
  8
DEFPOINTS
  6
BYBLOCK
 62
     0
  5
FAE
 10
64.202257
 20
107.52778
 30
0.0
  0
ENDBLK
  8
0
  5
FAF
  0
BLOCK
  8
0
  5
FB7
  2
*D10
 70
    65
 10
0.0
 20
0.0
 30
0.0
  3
*D10
  0
LINE
  8
0
  6
BYBLOCK
 62
     0
  5
FB8
 10
37.827257
 20
101.883901
 30
0.0
 11
37.827257
 21
123.309463
 31
0.0
  0
LINE
  8
0
  6
BYBLOCK
 62
     0
  5
FB9
 10
82.827257
 20
101.883901
 30
0.0
 11
82.827257
 21
123.309463
 31
0.0
  0
LINE
  8
0
  6
BYBLOCK
 62
     0
  5
FBA
 10
40.827257
 20
122.309463
 30
0.0
 11
79.827257
 21
122.309463
 31
0.0
  0
INSERT
  8
0
  6
BYBLOCK
 62
     0
  5
FBB
  2
_OPEN30
 10
37.827257
 20
122.309463
 30
0.0
 41
3.0
 42
3.0
 50
180.0
 43
3.0
  0
INSERT
  8
0
  6
BYBLOCK
 62
     0
  5
FBC
  2
_OPEN30
 10
82.827257
 20
122.309463
 30
0.0
 41
3.0
 42
3.0
 43
3.0
  0
TEXT
  8
0
  6
BYBLOCK
 62
     0
  5
FBD
 10
57.827257
 20
123.309463
 30
0.0
 40
3.0
  1
45
  7
FSTD1
  0
POINT
  8
DEFPOINTS
  6
BYBLOCK
 62
     0
  5
FBE
 10
37.827257
 20
100.883901
 30
0.0
  0
POINT
  8
DEFPOINTS
  6
BYBLOCK
 62
     0
  5
FBF
 10
82.827257
 20
100.883901
 30
0.0
  0
POINT
  8
DEFPOINTS
  6
BYBLOCK
 62
     0
  5
FC0
 10
82.827257
 20
122.309463
 30
0.0
  0
ENDBLK
  8
0
  5
FC1
  0
BLOCK
  8
0
  5
FC4
  2
*D11
 70
    65
 10
0.0
 20
0.0
 30
0.0
  3
*D11
  0
LINE
  8
0
  6
BYBLOCK
 62
     0
  5
FC5
 10
36.677257
 20
92.683901
 30
0.0
 11
32.615052
 21
92.683901
 31
0.0
  0
LINE
  8
0
  6
BYBLOCK
 62
     0
  5
FC6
 10
36.677257
 20
61.683901
 30
0.0
 11
32.615052
 21
61.683901
 31
0.0
  0
LINE
  8
0
  6
BYBLOCK
 62
     0
  5
FC7
 10
33.615052
 20
89.683901
 30
0.0
 11
33.615052
 21
64.683901
 31
0.0
  0
INSERT
  8
0
  6
BYBLOCK
 62
     0
  5
FC8
  2
_OPEN30
 10
33.615052
 20
92.683901
 30
0.0
 41
3.0
 42
3.0
 50
90.0
 43
3.0
  0
INSERT
  8
0
  6
BYBLOCK
 62
     0
  5
FC9
  2
_OPEN30
 10
33.615052
 20
61.683901
 30
0.0
 41
3.0
 42
3.0
 50
270.0
 43
3.0
  0
TEXT
  8
0
  6
BYBLOCK
 62
     0
  5
FCA
 10
32.615052
 20
75.183901
 30
0.0
 40
3.0
  1
31
 50
90.0
  7
FSTD1
  0
POINT
  8
DEFPOINTS
  6
BYBLOCK
 62
     0
  5
FCB
 10
37.677257
 20
92.683901
 30
0.0
  0
POINT
  8
DEFPOINTS
  6
BYBLOCK
 62
     0
  5
FCC
 10
37.677257
 20
61.683901
 30
0.0
  0
POINT
  8
DEFPOINTS
  6
BYBLOCK
 62
     0
  5
FCD
 10
33.615052
 20
61.683901
 30
0.0
  0
ENDBLK
  8
0
  5
FCE
  0
BLOCK
  8
0
  5
FD1
  2
*D12
 70
    65
 10
0.0
 20
0.0
 30
0.0
  3
*D12
  0
LINE
  8
0
  6
BYBLOCK
 62
     0
  5
FD2
 10
37.127257
 20
101.183901
 30
0.0
 11
26.18437
 21
101.183901
 31
0.0
  0
LINE
  8
0
  6
BYBLOCK
 62
     0
  5
FD3
 10
37.127257
 20
53.183901
 30
0.0
 11
26.18437
 21
53.183901
 31
0.0
  0
LINE
  8
0
  6
BYBLOCK
 62
     0
  5
FD4
 10
27.18437
 20
98.183901
 30
0.0
 11
27.18437
 21
56.183901
 31
0.0
  0
INSERT
  8
0
  6
BYBLOCK
 62
     0
  5
FD5
  2
_OPEN30
 10
27.18437
 20
101.183901
 30
0.0
 41
3.0
 42
3.0
 50
90.0
 43
3.0
  0
INSERT
  8
0
  6
BYBLOCK
 62
     0
  5
FD6
  2
_OPEN30
 10
27.18437
 20
53.183901
 30
0.0
 41
3.0
 42
3.0
 50
270.0
 43
3.0
  0
TEXT
  8
0
  6
BYBLOCK
 62
     0
  5
FD7
 10
26.18437
 20
74.683901
 30
0.0
 40
3.0
  1
48
 50
90.0
  7
FSTD1
  0
POINT
  8
DEFPOINTS
  6
BYBLOCK
 62
     0
  5
FD8
 10
38.127257
 20
101.183901
 30
0.0
  0
POINT
  8
DEFPOINTS
  6
BYBLOCK
 62
     0
  5
FD9
 10
38.127257
 20
53.183901
 30
0.0
  0
POINT
  8
DEFPOINTS
  6
BYBLOCK
 62
     0
  5
FDA
 10
27.18437
 20
53.183901
 30
0.0
  0
ENDBLK
  8
0
  5
FDB
  0
BLOCK
  8
0
  5
FE2
  2
*D13
 70
    65
 10
0.0
 20
0.0
 30
0.0
  3
*D13
  0
LINE
  8
0
  6
BYBLOCK
 62
     0
  5
FE3
 10
112.762634
 20
103.433901
 30
0.0
 11
112.762634
 21
109.059019
 31
0.0
  0
LINE
  8
0
  6
BYBLOCK
 62
     0
  5
FE4
 10
147.762634
 20
63.433901
 30
0.0
 11
147.762634
 21
109.059019
 31
0.0
  0
LINE
  8
0
  6
BYBLOCK
 62
     0
  5
FE5
 10
115.762634
 20
108.059019
 30
0.0
 11
144.762634
 21
108.059019
 31
0.0
  0
INSERT
  8
0
  6
BYBLOCK
 62
     0
  5
FE6
  2
_OPEN30
 10
112.762634
 20
108.059019
 30
0.0
 41
3.0
 42
3.0
 50
180.0
 43
3.0
  0
INSERT
  8
0
  6
BYBLOCK
 62
     0
  5
FE7
  2
_OPEN30
 10
147.762634
 20
108.059019
 30
0.0
 41
3.0
 42
3.0
 43
3.0
  0
TEXT
  8
0
  6
BYBLOCK
 62
     0
  5
FE8
 10
127.762634
 20
109.059019
 30
0.0
 40
3.0
  1
35
  7
FSTD1
  0
POINT
  8
DEFPOINTS
  6
BYBLOCK
 62
     0
  5
FE9
 10
112.762634
 20
102.433901
 30
0.0
  0
POINT
  8
DEFPOINTS
  6
BYBLOCK
 62
     0
  5
FEA
 10
147.762634
 20
62.433901
 30
0.0
  0
POINT
  8
DEFPOINTS
  6
BYBLOCK
 62
     0
  5
FEB
 10
147.762634
 20
108.059019
 30
0.0
  0
ENDBLK
  8
0
  5
FEC
  0
BLOCK
  8
0
  5
FEF
  2
*D14
 70
    65
 10
0.0
 20
0.0
 30
0.0
  3
*D14
  0
LINE
  8
0
  6
BYBLOCK
 62
     0
  5
FF0
 10
154.012634
 20
97.183901
 30
0.0
 11
164.318945
 21
97.183901
 31
0.0
  0
LINE
  8
0
  6
BYBLOCK
 62
     0
  5
FF1
 10
119.012634
 20
57.183901
 30
0.0
 11
164.318945
 21
57.183901
 31
0.0
  0
LINE
  8
0
  6
BYBLOCK
 62
     0
  5
FF2
 10
163.318945
 20
94.183901
 30
0.0
 11
163.318945
 21
60.183901
 31
0.0
  0
INSERT
  8
0
  6
BYBLOCK
 62
     0
  5
FF3
  2
_OPEN30
 10
163.318945
 20
97.183901
 30
0.0
 41
3.0
 42
3.0
 50
90.0
 43
3.0
  0
INSERT
  8
0
  6
BYBLOCK
 62
     0
  5
FF4
  2
_OPEN30
 10
163.318945
 20
57.183901
 30
0.0
 41
3.0
 42
3.0
 50
270.0
 43
3.0
  0
TEXT
  8
0
  6
BYBLOCK
 62
     0
  5
FF5
 10
162.318945
 20
74.933901
 30
0.0
 40
3.0
  1
40
 50
90.0
  7
FSTD1
  0
POINT
  8
DEFPOINTS
  6
BYBLOCK
 62
     0
  5
FF6
 10
153.012634
 20
97.183901
 30
0.0
  0
POINT
  8
DEFPOINTS
  6
BYBLOCK
 62
     0
  5
FF7
 10
118.012634
 20
57.183901
 30
0.0
  0
POINT
  8
DEFPOINTS
  6
BYBLOCK
 62
     0
  5
FF8
 10
163.318945
 20
57.183901
 30
0.0
  0
ENDBLK
  8
0
  5
FF9
  0
ENDSEC
  0
SECTION
  2
ENTITIES
  0
LINE
  8
F01_OUT
  5
140
 10
-18.46066
 20
-16.560661
 30
0.0
 11
-16.33934
 21
-14.43934
 31
0.0
1001
ACAD
1000
RTMaterial
1005
0
  0
LINE
  8
F01_OUT
  5
141
 10
-19.52132
 20
-13.37868
 30
0.0
 11
-15.27868
 21
-17.621321
 31
0.0
1001
ACAD
1000
RTMaterial
1005
0
  0
CIRCLE
  8
F01_OUT
  5
142
 10
-17.4
 20
-15.5
 30
0.0
 40
3.0
1001
ACAD
1000
RTMaterial
1005
0
  0
LINE
  8
F01_OUT
  5
143
 10
-9.76066
 20
-16.560661
 30
0.0
 11
-7.63934
 21
-14.43934
 31
0.0
1001
ACAD
1000
RTMaterial
1005
0
  0
LINE
  8
F01_OUT
  5
144
 10
-10.82132
 20
-13.37868
 30
0.0
 11
-6.57868
 21
-17.621321
 31
0.0
1001
ACAD
1000
RTMaterial
1005
0
  0
CIRCLE
  8
F01_OUT
  5
145
 10
-8.7
 20
-15.5
 30
0.0
 40
3.0
1001
ACAD
1000
RTMaterial
1005
0
  0
LINE
  8
F01_OUT
  5
146
 10
-1.06066
 20
-16.560661
 30
0.0
 11
1.06066
 21
-14.43934
 31
0.0
1001
ACAD
1000
RTMaterial
1005
0
  0
LINE
  8
F01_OUT
  5
147
 10
-2.12132
 20
-13.37868
 30
0.0
 11
2.12132
 21
-17.621321
 31
0.0
1001
ACAD
1000
RTMaterial
1005
0
  0
CIRCLE
  8
F01_OUT
  5
148
 10
0.0
 20
-15.5
 30
0.0
 40
3.0
1001
ACAD
1000
RTMaterial
1005
0
  0
LINE
  8
F01_OUT
  5
149
 10
7.63934
 20
-16.560661
 30
0.0
 11
9.76066
 21
-14.43934
 31
0.0
1001
ACAD
1000
RTMaterial
1005
0
  0
LINE
  8
F01_OUT
  5
14A
 10
6.57868
 20
-13.37868
 30
0.0
 11
10.82132
 21
-17.621321
 31
0.0
1001
ACAD
1000
RTMaterial
1005
0
  0
CIRCLE
  8
F01_OUT
  5
14B
 10
8.7
 20
-15.5
 30
0.0
 40
3.0
1001
ACAD
1000
RTMaterial
1005
0
  0
LINE
  8
F01_OUT
  5
14C
 10
16.33934
 20
-16.560661
 30
0.0
 11
18.46066
 21
-14.43934
 31
0.0
1001
ACAD
1000
RTMaterial
1005
0
  0
LINE
  8
F01_OUT
  5
14D
 10
15.27868
 20
-13.37868
 30
0.0
 11
19.52132
 21
-17.621321
 31
0.0
1001
ACAD
1000
RTMaterial
1005
0
  0
CIRCLE
  8
F01_OUT
  5
14E
 10
17.4
 20
-15.5
 30
0.0
 40
3.0
1001
ACAD
1000
RTMaterial
1005
0
  0
LINE
  8
F01_OUT
  5
14F
 10
16.33934
 20
14.439339
 30
0.0
 11
18.46066
 21
16.56066
 31
0.0
1001
ACAD
1000
RTMaterial
1005
0
  0
LINE
  8
F01_OUT
  5
150
 10
15.27868
 20
17.62132
 30
0.0
 11
19.52132
 21
13.378679
 31
0.0
1001
ACAD
1000
RTMaterial
1005
0
  0
CIRCLE
  8
F01_OUT
  5
151
 10
17.4
 20
15.5
 30
0.0
 40
3.0
1001
ACAD
1000
RTMaterial
1005
0
  0
LINE
  8
F01_OUT
  5
152
 10
7.63934
 20
14.439339
 30
0.0
 11
9.76066
 21
16.56066
 31
0.0
1001
ACAD
1000
RTMaterial
1005
0
  0
LINE
  8
F01_OUT
  5
153
 10
6.57868
 20
17.62132
 30
0.0
 11
10.82132
 21
13.378679
 31
0.0
1001
ACAD
1000
RTMaterial
1005
0
  0
CIRCLE
  8
F01_OUT
  5
154
 10
8.7
 20
15.5
 30
0.0
 40
3.0
1001
ACAD
1000
RTMaterial
1005
0
  0
LINE
  8
F01_OUT
  5
155
 10
-1.06066
 20
14.439339
 30
0.0
 11
1.06066
 21
16.56066
 31
0.0
1001
ACAD
1000
RTMaterial
1005
0
  0
LINE
  8
F01_OUT
  5
156
 10
-2.12132
 20
17.62132
 30
0.0
 11
2.12132
 21
13.378679
 31
0.0
1001
ACAD
1000
RTMaterial
1005
0
  0
CIRCLE
  8
F01_OUT
  5
157
 10
0.0
 20
15.5
 30
0.0
 40
3.0
1001
ACAD
1000
RTMaterial
1005
0
  0
LINE
  8
F01_OUT
  5
158
 10
-9.76066
 20
14.439339
 30
0.0
 11
-7.63934
 21
16.56066
 31
0.0
1001
ACAD
1000
RTMaterial
1005
0
  0
LINE
  8
F01_OUT
  5
159
 10
-10.82132
 20
17.62132
 30
0.0
 11
-6.57868
 21
13.378679
 31
0.0
1001
ACAD
1000
RTMaterial
1005
0
  0
CIRCLE
  8
F01_OUT
  5
15A
 10
-8.7
 20
15.5
 30
0.0
 40
3.0
1001
ACAD
1000
RTMaterial
1005
0
  0
LINE
  8
F01_OUT
  5
15B
 10
-18.46066
 20
14.439339
 30
0.0
 11
-16.33934
 21
16.56066
 31
0.0
1001
ACAD
1000
RTMaterial
1005
0
  0
LINE
  8
F01_OUT
  5
15C
 10
-19.52132
 20
17.62132
 30
0.0
 11
-15.27868
 21
13.378679
 31
0.0
1001
ACAD
1000
RTMaterial
1005
0
  0
LINE
  8
F01_OUT
  5
15D
 10
16.55
 20
-10.5
 30
0.0
 11
16.55
 21
-8.0
 31
0.0
1001
ACAD
1000
RTMaterial
1005
0
  0
LINE
  8
F01_OUT
  5
15E
 10
18.25
 20
-10.5
 30
0.0
 11
16.55
 21
-10.5
 31
0.0
1001
ACAD
1000
RTMaterial
1005
0
  0
LINE
  8
F01_OUT
  5
15F
 10
19.25
 20
-9.2
 30
0.0
 11
19.25
 21
-8.0
 31
0.0
1001
ACAD
1000
RTMaterial
1005
0
  0
LINE
  8
F01_OUT
  5
160
 10
18.25
 20
-10.5
 30
0.0
 11
18.25
 21
-9.2
 31
0.0
1001
ACAD
1000
RTMaterial
1005
0
  0
LINE
  8
F01_OUT
  5
161
 10
19.25
 20
-9.2
 30
0.0
 11
18.25
 21
-9.2
 31
0.0
1001
ACAD
1000
RTMaterial
1005
0
  0
LINE
  8
F01_OUT
  5
162
 10
19.25
 20
-8.0
 30
0.0
 11
16.55
 21
-8.0
 31
0.0
1001
ACAD
1000
RTMaterial
1005
0
  0
CIRCLE
  8
F06_CUT
  5
163
 10
52.435377
 20
-20.0
 30
0.0
 40
2.25
1001
ACAD
1000
RTMaterial
1005
0
  0
CIRCLE
  8
F06_CUT
  5
164
 10
87.435377
 20
-20.0
 30
0.0
 40
2.25
1001
ACAD
1000
RTMaterial
1005
0
  0
CIRCLE
  8
F06_CUT
  5
165
 10
87.435377
 20
20.0
 30
0.0
 40
2.25
1001
ACAD
1000
RTMaterial
1005
0
  0
CIRCLE
  8
F06_CUT
  5
166
 10
52.435377
 20
20.0
 30
0.0
 40
2.25
1001
ACAD
1000
RTMaterial
1005
0
  0
ARC
  8
F07_COO
  5
168
 10
47.735377
 20
23.7
 30
0.0
 40
0.3
 50
90.0
 51
180.0
1001
ACAD
1000
RTMaterial
1005
0
  0
ARC
  8
F07_COO
  5
169
 10
92.135377
 20
23.7
 30
0.0
 40
0.3
 50
0.0
 51
90.0
1001
ACAD
1000
RTMaterial
1005
0
  0
ARC
  8
F07_COO
  5
16A
 10
92.135377
 20
-23.7
 30
0.0
 40
0.3
 50
270.0
 51
0.0
1001
ACAD
1000
RTMaterial
1005
0
  0
ARC
  8
F07_COO
  5
16B
 10
47.735377
 20
-23.7
 30
0.0
 40
0.3
 50
180.0
 51
270.0
1001
ACAD
1000
RTMaterial
1005
0
  0
LINE
  8
F07_COO
  5
16C
 10
92.135377
 20
-24.0
 30
0.0
 11
47.735377
 21
-24.0
 31
0.0
1001
ACAD
1000
RTMaterial
1005
0
  0
LINE
  8
F07_COO
  5
16D
 10
47.735377
 20
24.0
 30
0.0
 11
92.135377
 21
24.0
 31
0.0
1001
ACAD
1000
RTMaterial
1005
0
  0
LINE
  8
F07_COO
  5
16E
 10
92.435377
 20
-23.7
 30
0.0
 11
92.435377
 21
23.7
 31
0.0
1001
ACAD
1000
RTMaterial
1005
0
  0
LINE
  8
F07_COO
  5
16F
 10
47.435377
 20
-23.7
 30
0.0
 11
47.435377
 21
23.7
 31
0.0
1001
ACAD
1000
RTMaterial
1005
0
  0
LINE
  8
F01_OUT
  5
170
 10
21.4
 20
11.5
 30
0.0
 11
22.5
 21
11.5
 31
0.0
1001
ACAD
1000
RTMaterial
1005
0
  0
LINE
  8
F01_OUT
  5
171
 10
21.275
 20
11.5
 30
0.0
 11
21.4
 21
11.5
 31
0.0
1001
ACAD
1000
RTMaterial
1005
0
  0
LINE
  8
F01_OUT
  5
172
 10
-21.275
 20
19.5
 30
0.0
 11
-21.1
 21
19.5
 31
0.0
1001
ACAD
1000
RTMaterial
1005
0
  0
LINE
  8
F01_OUT
  5
173
 10
-21.1
 20
20.5
 30
0.0
 11
-21.275
 21
20.5
 31
0.0
1001
ACAD
1000
RTMaterial
1005
0
  0
LINE
  8
F01_OUT
  5
174
 10
-22.5
 20
19.4
 30
0.0
 11
-21.1
 21
19.4
 31
0.0
1001
ACAD
1000
RTMaterial
1005
0
  0
LINE
  8
F01_OUT
  5
175
 10
-15.987353
 20
20.5
 30
0.0
 11
-14.377501
 21
20.5
 31
0.0
1001
ACAD
1000
RTMaterial
1005
0
  0
LINE
  8
F01_OUT
  5
176
 10
-21.1
 20
20.5
 30
0.0
 11
-19.012647
 21
20.5
 31
0.0
1001
ACAD
1000
RTMaterial
1005
0
  0
LINE
  8
F01_OUT
  5
177
 10
-13.525
 20
20.5
 30
0.0
 11
-13.2
 21
20.5
 31
0.0
1001
ACAD
1000
RTMaterial
1005
0
  0
LINE
  8
F01_OUT
  5
178
 10
-14.377501
 20
20.5
 30
0.0
 11
-13.525
 21
20.5
 31
0.0
1001
ACAD
1000
RTMaterial
1005
0
  0
LINE
  8
F01_OUT
  5
179
 10
-19.012647
 20
20.5
 30
0.0
 11
-15.987353
 21
20.5
 31
0.0
1001
ACAD
1000
RTMaterial
1005
0
  0
LINE
  8
F01_OUT
  5
17A
 10
-21.1
 20
19.5
 30
0.0
 11
-21.1
 21
19.4
 31
0.0
1001
ACAD
1000
RTMaterial
1005
0
  0
LINE
  8
F01_OUT
  5
17B
 10
-21.1
 20
20.5
 30
0.0
 11
-21.1
 21
19.5
 31
0.0
1001
ACAD
1000
RTMaterial
1005
0
  0
LINE
  8
F01_OUT
  5
17C
 10
21.1
 20
19.5
 30
0.0
 11
21.275
 21
19.5
 31
0.0
1001
ACAD
1000
RTMaterial
1005
0
  0
LINE
  8
F01_OUT
  5
17D
 10
21.275
 20
20.5
 30
0.0
 11
21.1
 21
20.5
 31
0.0
1001
ACAD
1000
RTMaterial
1005
0
  0
LINE
  8
F01_OUT
  5
17E
 10
13.0
 20
20.5
 30
0.0
 11
12.9
 21
20.5
 31
0.0
1001
ACAD
1000
RTMaterial
1005
0
  0
LINE
  8
F01_OUT
  5
17F
 10
12.575
 20
20.5
 30
0.0
 11
12.9
 21
20.5
 31
0.0
1001
ACAD
1000
RTMaterial
1005
0
  0
LINE
  8
F01_OUT
  5
180
 10
13.2
 20
20.5
 30
0.0
 11
13.2
 21
11.5
 31
0.0
1001
ACAD
1000
RTMaterial
1005
0
  0
LINE
  8
F01_OUT
  5
181
 10
3.875
 20
20.5
 30
0.0
 11
3.9
 21
20.5
 31
0.0
1001
ACAD
1000
RTMaterial
1005
0
  0
LINE
  8
F01_OUT
  5
182
 10
21.1
 20
19.5
 30
0.0
 11
21.1
 21
19.4
 31
0.0
1001
ACAD
1000
RTMaterial
1005
0
  0
LINE
  8
F01_OUT
  5
183
 10
21.1
 20
20.5
 30
0.0
 11
21.1
 21
19.5
 31
0.0
1001
ACAD
1000
RTMaterial
1005
0
  0
LINE
  8
F01_OUT
  5
184
 10
14.377501
 20
20.5
 30
0.0
 11
15.987353
 21
20.5
 31
0.0
1001
ACAD
1000
RTMaterial
1005
0
  0
LINE
  8
F01_OUT
  5
185
 10
19.012647
 20
20.5
 30
0.0
 11
21.1
 21
20.5
 31
0.0
1001
ACAD
1000
RTMaterial
1005
0
  0
LINE
  8
F01_OUT
  5
186
 10
13.2
 20
20.5
 30
0.0
 11
13.525
 21
20.5
 31
0.0
1001
ACAD
1000
RTMaterial
1005
0
  0
LINE
  8
F01_OUT
  5
187
 10
13.525
 20
20.5
 30
0.0
 11
14.377501
 21
20.5
 31
0.0
1001
ACAD
1000
RTMaterial
1005
0
  0
LINE
  8
F01_OUT
  5
188
 10
15.987353
 20
20.5
 30
0.0
 11
19.012647
 21
20.5
 31
0.0
1001
ACAD
1000
RTMaterial
1005
0
  0
LINE
  8
F01_OUT
  5
189
 10
22.5
 20
19.4
 30
0.0
 11
22.5
 21
18.5
 31
0.0
1001
ACAD
1000
RTMaterial
1005
0
  0
LINE
  8
F01_OUT
  5
18A
 10
21.1
 20
19.4
 30
0.0
 11
22.5
 21
19.4
 31
0.0
1001
ACAD
1000
RTMaterial
1005
0
  0
LINE
  8
F01_OUT
  5
18B
 10
20.36038
 20
11.5
 30
0.0
 11
21.275
 21
11.5
 31
0.0
1001
ACAD
1000
RTMaterial
1005
0
  0
LINE
  8
F01_OUT
  5
18C
 10
22.5
 20
18.5
 30
0.0
 11
22.5
 21
11.5
 31
0.0
1001
ACAD
1000
RTMaterial
1005
0
  0
LINE
  8
F01_OUT
  5
18D
 10
15.8
 20
11.5
 30
0.0
 11
19.0
 21
11.5
 31
0.0
1001
ACAD
1000
RTMaterial
1005
0
  0
LINE
  8
F01_OUT
  5
18E
 10
13.2
 20
11.5
 30
0.0
 11
15.8
 21
11.5
 31
0.0
1001
ACAD
1000
RTMaterial
1005
0
  0
LINE
  8
F01_OUT
  5
18F
 10
19.0
 20
11.5
 30
0.0
 11
20.36038
 21
11.5
 31
0.0
1001
ACAD
1000
RTMaterial
1005
0
  0
LINE
  8
F01_OUT
  5
190
 10
-12.9
 20
20.5
 30
0.0
 11
-13.0
 21
20.5
 31
0.0
1001
ACAD
1000
RTMaterial
1005
0
  0
LINE
  8
F01_OUT
  5
191
 10
-13.0
 20
20.5
 30
0.0
 11
-13.2
 21
20.5
 31
0.0
1001
ACAD
1000
RTMaterial
1005
0
  0
LINE
  8
F01_OUT
  5
192
 10
-12.575
 20
20.5
 30
0.0
 11
-12.5
 21
20.5
 31
0.0
1001
ACAD
1000
RTMaterial
1005
0
  0
LINE
  8
F01_OUT
  5
193
 10
-12.5
 20
20.5
 30
0.0
 11
-12.2
 21
20.5
 31
0.0
1001
ACAD
1000
RTMaterial
1005
0
  0
LINE
  8
F01_OUT
  5
194
 10
-12.9
 20
20.5
 30
0.0
 11
-12.575
 21
20.5
 31
0.0
1001
ACAD
1000
RTMaterial
1005
0
  0
LINE
  8
F01_OUT
  5
195
 10
-12.2
 20
20.5
 30
0.0
 11
-11.2
 21
20.5
 31
0.0
1001
ACAD
1000
RTMaterial
1005
0
  0
LINE
  8
F01_OUT
  5
196
 10
-13.2
 20
20.5
 30
0.0
 11
-13.2
 21
11.5
 31
0.0
1001
ACAD
1000
RTMaterial
1005
0
  0
LINE
  8
F01_OUT
  5
197
 10
-12.9
 20
20.5
 30
0.0
 11
-12.9
 21
11.5
 31
0.0
1001
ACAD
1000
RTMaterial
1005
0
  0
LINE
  8
F01_OUT
  5
198
 10
-3.9
 20
20.5
 30
0.0
 11
-3.875
 21
20.5
 31
0.0
1001
ACAD
1000
RTMaterial
1005
0
  0
LINE
  8
F01_OUT
  5
199
 10
-4.2
 20
20.5
 30
0.0
 11
-4.5
 21
20.5
 31
0.0
1001
ACAD
1000
RTMaterial
1005
0
  0
LINE
  8
F01_OUT
  5
19A
 10
-4.0
 20
20.5
 30
0.0
 11
-3.9
 21
20.5
 31
0.0
1001
ACAD
1000
RTMaterial
1005
0
  0
LINE
  8
F01_OUT
  5
19B
 10
-4.2
 20
20.5
 30
0.0
 11
-4.2
 21
11.5
 31
0.0
1001
ACAD
1000
RTMaterial
1005
0
  0
LINE
  8
F01_OUT
  5
19C
 10
-4.2
 20
20.5
 30
0.0
 11
-4.0
 21
20.5
 31
0.0
1001
ACAD
1000
RTMaterial
1005
0
  0
LINE
  8
F01_OUT
  5
19D
 10
-3.875
 20
20.5
 30
0.0
 11
-1.0
 21
20.5
 31
0.0
1001
ACAD
1000
RTMaterial
1005
0
  0
LINE
  8
F01_OUT
  5
19E
 10
12.5
 20
20.5
 30
0.0
 11
12.575
 21
20.5
 31
0.0
1001
ACAD
1000
RTMaterial
1005
0
  0
LINE
  8
F01_OUT
  5
19F
 10
12.2
 20
20.5
 30
0.0
 11
12.5
 21
20.5
 31
0.0
1001
ACAD
1000
RTMaterial
1005
0
  0
LINE
  8
F01_OUT
  5
1A0
 10
11.2
 20
20.5
 30
0.0
 11
12.2
 21
20.5
 31
0.0
1001
ACAD
1000
RTMaterial
1005
0
  0
LINE
  8
F01_OUT
  5
1A1
 10
12.9
 20
20.5
 30
0.0
 11
12.9
 21
11.5
 31
0.0
1001
ACAD
1000
RTMaterial
1005
0
  0
LINE
  8
F01_OUT
  5
1A2
 10
7.45
 20
20.5
 30
0.0
 11
11.2
 21
20.5
 31
0.0
1001
ACAD
1000
RTMaterial
1005
0
  0
LINE
  8
F01_OUT
  5
1A3
 10
6.5
 20
20.5
 30
0.0
 11
7.45
 21
20.5
 31
0.0
1001
ACAD
1000
RTMaterial
1005
0
  0
LINE
  8
F01_OUT
  5
1A4
 10
5.9
 20
20.5
 30
0.0
 11
6.5
 21
20.5
 31
0.0
1001
ACAD
1000
RTMaterial
1005
0
  0
LINE
  8
F01_OUT
  5
1A5
 10
4.825
 20
20.5
 30
0.0
 11
4.9
 21
20.5
 31
0.0
1001
ACAD
1000
RTMaterial
1005
0
  0
LINE
  8
F01_OUT
  5
1A6
 10
4.5
 20
20.5
 30
0.0
 11
4.825
 21
20.5
 31
0.0
1001
ACAD
1000
RTMaterial
1005
0
  0
LINE
  8
F01_OUT
  5
1A7
 10
4.5
 20
20.5
 30
0.0
 11
4.2
 21
20.5
 31
0.0
1001
ACAD
1000
RTMaterial
1005
0
  0
LINE
  8
F01_OUT
  5
1A8
 10
4.5
 20
20.5
 30
0.0
 11
4.5
 21
11.5
 31
0.0
1001
ACAD
1000
RTMaterial
1005
0
  0
LINE
  8
F01_OUT
  5
1A9
 10
4.9
 20
20.5
 30
0.0
 11
5.9
 21
20.5
 31
0.0
1001
ACAD
1000
RTMaterial
1005
0
  0
LINE
  8
F01_OUT
  5
1AA
 10
-7.45
 20
20.5
 30
0.0
 11
-6.5
 21
20.5
 31
0.0
1001
ACAD
1000
RTMaterial
1005
0
  0
LINE
  8
F01_OUT
  5
1AB
 10
-6.5
 20
20.5
 30
0.0
 11
-5.9
 21
20.5
 31
0.0
1001
ACAD
1000
RTMaterial
1005
0
  0
LINE
  8
F01_OUT
  5
1AC
 10
-4.9
 20
20.5
 30
0.0
 11
-4.825
 21
20.5
 31
0.0
1001
ACAD
1000
RTMaterial
1005
0
  0
LINE
  8
F01_OUT
  5
1AD
 10
-4.825
 20
20.5
 30
0.0
 11
-4.5
 21
20.5
 31
0.0
1001
ACAD
1000
RTMaterial
1005
0
  0
LINE
  8
F01_OUT
  5
1AE
 10
-4.5
 20
20.5
 30
0.0
 11
-4.5
 21
11.5
 31
0.0
1001
ACAD
1000
RTMaterial
1005
0
  0
LINE
  8
F01_OUT
  5
1AF
 10
-5.9
 20
20.5
 30
0.0
 11
-4.9
 21
20.5
 31
0.0
1001
ACAD
1000
RTMaterial
1005
0
  0
LINE
  8
F01_OUT
  5
1B0
 10
-11.2
 20
20.5
 30
0.0
 11
-7.45
 21
20.5
 31
0.0
1001
ACAD
1000
RTMaterial
1005
0
  0
LINE
  8
F01_OUT
  5
1B1
 10
13.2
 20
11.5
 30
0.0
 11
12.9
 21
11.5
 31
0.0
1001
ACAD
1000
RTMaterial
1005
0
  0
LINE
  8
F01_OUT
  5
1B2
 10
11.45
 20
11.5
 30
0.0
 11
12.9
 21
11.5
 31
0.0
1001
ACAD
1000
RTMaterial
1005
0
  0
LINE
  8
F01_OUT
  5
1B3
 10
13.2
 20
20.5
 30
0.0
 11
13.0
 21
20.5
 31
0.0
1001
ACAD
1000
RTMaterial
1005
0
  0
LINE
  8
F01_OUT
  5
1B4
 10
-1.0
 20
20.5
 30
0.0
 11
1.0
 21
20.5
 31
0.0
1001
ACAD
1000
RTMaterial
1005
0
  0
LINE
  8
F01_OUT
  5
1B5
 10
3.9
 20
20.5
 30
0.0
 11
4.0
 21
20.5
 31
0.0
1001
ACAD
1000
RTMaterial
1005
0
  0
LINE
  8
F01_OUT
  5
1B6
 10
4.2
 20
20.5
 30
0.0
 11
4.2
 21
11.5
 31
0.0
1001
ACAD
1000
RTMaterial
1005
0
  0
LINE
  8
F01_OUT
  5
1B7
 10
4.0
 20
20.5
 30
0.0
 11
4.2
 21
20.5
 31
0.0
1001
ACAD
1000
RTMaterial
1005
0
  0
LINE
  8
F01_OUT
  5
1B8
 10
1.0
 20
20.5
 30
0.0
 11
3.875
 21
20.5
 31
0.0
1001
ACAD
1000
RTMaterial
1005
0
  0
LINE
  8
F01_OUT
  5
1B9
 10
10.95
 20
11.5
 30
0.0
 11
11.45
 21
11.5
 31
0.0
1001
ACAD
1000
RTMaterial
1005
0
  0
LINE
  8
F01_OUT
  5
1BA
 10
10.7
 20
11.5
 30
0.0
 11
10.95
 21
11.5
 31
0.0
1001
ACAD
1000
RTMaterial
1005
0
  0
LINE
  8
F01_OUT
  5
1BB
 10
10.45
 20
11.5
 30
0.0
 11
10.7
 21
11.5
 31
0.0
1001
ACAD
1000
RTMaterial
1005
0
  0
LINE
  8
F01_OUT
  5
1BC
 10
8.7
 20
11.5
 30
0.0
 11
10.45
 21
11.5
 31
0.0
1001
ACAD
1000
RTMaterial
1005
0
  0
LINE
  8
F01_OUT
  5
1BD
 10
-2.75
 20
11.5
 30
0.0
 11
-2.25
 21
11.5
 31
0.0
1001
ACAD
1000
RTMaterial
1005
0
  0
LINE
  8
F01_OUT
  5
1BE
 10
-2.25
 20
11.5
 30
0.0
 11
-1.75
 21
11.5
 31
0.0
1001
ACAD
1000
RTMaterial
1005
0
  0
LINE
  8
F01_OUT
  5
1BF
 10
1.75
 20
11.5
 30
0.0
 11
2.25
 21
11.5
 31
0.0
1001
ACAD
1000
RTMaterial
1005
0
  0
LINE
  8
F01_OUT
  5
1C0
 10
2.25
 20
11.5
 30
0.0
 11
2.75
 21
11.5
 31
0.0
1001
ACAD
1000
RTMaterial
1005
0
  0
LINE
  8
F01_OUT
  5
1C1
 10
2.75
 20
11.5
 30
0.0
 11
4.2
 21
11.5
 31
0.0
1001
ACAD
1000
RTMaterial
1005
0
  0
LINE
  8
F01_OUT
  5
1C2
 10
-6.95
 20
11.5
 30
0.0
 11
-6.45
 21
11.5
 31
0.0
1001
ACAD
1000
RTMaterial
1005
0
  0
LINE
  8
F01_OUT
  5
1C3
 10
-6.45
 20
11.5
 30
0.0
 11
-5.95
 21
11.5
 31
0.0
1001
ACAD
1000
RTMaterial
1005
0
  0
LINE
  8
F01_OUT
  5
1C4
 10
-5.95
 20
11.5
 30
0.0
 11
-4.5
 21
11.5
 31
0.0
1001
ACAD
1000
RTMaterial
1005
0
  0
LINE
  8
F01_OUT
  5
1C5
 10
-4.2
 20
11.5
 30
0.0
 11
-4.5
 21
11.5
 31
0.0
1001
ACAD
1000
RTMaterial
1005
0
  0
LINE
  8
F01_OUT
  5
1C6
 10
-8.7
 20
11.5
 30
0.0
 11
-6.95
 21
11.5
 31
0.0
1001
ACAD
1000
RTMaterial
1005
0
  0
LINE
  8
F01_OUT
  5
1C7
 10
-1.75
 20
11.5
 30
0.0
 11
1.75
 21
11.5
 31
0.0
1001
ACAD
1000
RTMaterial
1005
0
  0
LINE
  8
F01_OUT
  5
1C8
 10
-4.2
 20
11.5
 30
0.0
 11
-2.75
 21
11.5
 31
0.0
1001
ACAD
1000
RTMaterial
1005
0
  0
LINE
  8
F01_OUT
  5
1C9
 10
5.95
 20
11.5
 30
0.0
 11
6.45
 21
11.5
 31
0.0
1001
ACAD
1000
RTMaterial
1005
0
  0
LINE
  8
F01_OUT
  5
1CA
 10
6.45
 20
11.5
 30
0.0
 11
6.95
 21
11.5
 31
0.0
1001
ACAD
1000
RTMaterial
1005
0
  0
LINE
  8
F01_OUT
  5
1CB
 10
4.5
 20
11.5
 30
0.0
 11
4.2
 21
11.5
 31
0.0
1001
ACAD
1000
RTMaterial
1005
0
  0
LINE
  8
F01_OUT
  5
1CC
 10
6.95
 20
11.5
 30
0.0
 11
8.7
 21
11.5
 31
0.0
1001
ACAD
1000
RTMaterial
1005
0
  0
LINE
  8
F01_OUT
  5
1CD
 10
4.5
 20
11.5
 30
0.0
 11
5.95
 21
11.5
 31
0.0
1001
ACAD
1000
RTMaterial
1005
0
  0
LINE
  8
F01_OUT
  5
1CE
 10
-15.15
 20
11.5
 30
0.0
 11
-14.65
 21
11.5
 31
0.0
1001
ACAD
1000
RTMaterial
1005
0
  0
LINE
  8
F01_OUT
  5
1CF
 10
-15.65
 20
11.5
 30
0.0
 11
-15.591391
 21
11.5
 31
0.0
1001
ACAD
1000
RTMaterial
1005
0
  0
LINE
  8
F01_OUT
  5
1D0
 10
-15.591391
 20
11.5
 30
0.0
 11
-15.15
 21
11.5
 31
0.0
1001
ACAD
1000
RTMaterial
1005
0
  0
LINE
  8
F01_OUT
  5
1D1
 10
-14.65
 20
11.5
 30
0.0
 11
-13.2
 21
11.5
 31
0.0
1001
ACAD
1000
RTMaterial
1005
0
  0
LINE
  8
F01_OUT
  5
1D2
 10
-19.65
 20
11.5
 30
0.0
 11
-19.15
 21
11.5
 31
0.0
1001
ACAD
1000
RTMaterial
1005
0
  0
LINE
  8
F01_OUT
  5
1D3
 10
-11.45
 20
11.5
 30
0.0
 11
-10.95
 21
11.5
 31
0.0
1001
ACAD
1000
RTMaterial
1005
0
  0
LINE
  8
F01_OUT
  5
1D4
 10
-10.95
 20
11.5
 30
0.0
 11
-10.7
 21
11.5
 31
0.0
1001
ACAD
1000
RTMaterial
1005
0
  0
LINE
  8
F01_OUT
  5
1D5
 10
-12.9
 20
11.5
 30
0.0
 11
-13.2
 21
11.5
 31
0.0
1001
ACAD
1000
RTMaterial
1005
0
  0
LINE
  8
F01_OUT
  5
1D6
 10
-12.9
 20
11.5
 30
0.0
 11
-11.45
 21
11.5
 31
0.0
1001
ACAD
1000
RTMaterial
1005
0
  0
LINE
  8
F01_OUT
  5
1D7
 10
-19.15
 20
11.5
 30
0.0
 11
-15.65
 21
11.5
 31
0.0
1001
ACAD
1000
RTMaterial
1005
0
  0
LINE
  8
F01_OUT
  5
1D8
 10
-10.7
 20
11.5
 30
0.0
 11
-10.45
 21
11.5
 31
0.0
1001
ACAD
1000
RTMaterial
1005
0
  0
LINE
  8
F01_OUT
  5
1D9
 10
-10.45
 20
11.5
 30
0.0
 11
-8.7
 21
11.5
 31
0.0
1001
ACAD
1000
RTMaterial
1005
0
  0
LINE
  8
F01_OUT
  5
1DA
 10
-22.5
 20
19.4
 30
0.0
 11
-22.5
 21
18.5
 31
0.0
1001
ACAD
1000
RTMaterial
1005
0
  0
LINE
  8
F01_OUT
  5
1DB
 10
-22.5
 20
18.5
 30
0.0
 11
-22.5
 21
11.5
 31
0.0
1001
ACAD
1000
RTMaterial
1005
0
  0
LINE
  8
F01_OUT
  5
1DC
 10
-20.15
 20
11.5
 30
0.0
 11
-19.65
 21
11.5
 31
0.0
1001
ACAD
1000
RTMaterial
1005
0
  0
LINE
  8
F01_OUT
  5
1DD
 10
-21.4
 20
11.5
 30
0.0
 11
-21.275
 21
11.5
 31
0.0
1001
ACAD
1000
RTMaterial
1005
0
  0
LINE
  8
F01_OUT
  5
1DE
 10
-21.275
 20
11.5
 30
0.0
 11
-20.15
 21
11.5
 31
0.0
1001
ACAD
1000
RTMaterial
1005
0
  0
LINE
  8
F01_OUT
  5
1DF
 10
-22.5
 20
11.5
 30
0.0
 11
-21.4
 21
11.5
 31
0.0
1001
ACAD
1000
RTMaterial
1005
0
  0
ARC
  8
F01_OUT
  5
1E0
 10
9.3
 20
1.7
 30
0.0
 40
0.3
 50
0.0
 51
90.0
1001
ACAD
1000
RTMaterial
1005
0
  0
ARC
  8
F01_OUT
  5
1E1
 10
9.3
 20
-1.7
 30
0.0
 40
0.3
 50
270.0
 51
0.0
1001
ACAD
1000
RTMaterial
1005
0
  0
LINE
  8
F01_OUT
  5
1E2
 10
-21.275
 20
11.5
 30
0.0
 11
-20.15
 21
11.5
 31
0.0
1001
ACAD
1000
RTMaterial
1005
0
  0
LINE
  8
F01_OUT
  5
1E3
 10
-21.4
 20
11.5
 30
0.0
 11
-21.275
 21
11.5
 31
0.0
1001
ACAD
1000
RTMaterial
1005
0
  0
LINE
  8
F01_OUT
  5
1E4
 10
-20.15
 20
11.5
 30
0.0
 11
-19.65
 21
11.5
 31
0.0
1001
ACAD
1000
RTMaterial
1005
0
  0
LINE
  8
F01_OUT
  5
1E5
 10
-10.45
 20
11.5
 30
0.0
 11
-8.7
 21
11.5
 31
0.0
1001
ACAD
1000
RTMaterial
1005
0
  0
LINE
  8
F01_OUT
  5
1E6
 10
-10.7
 20
11.5
 30
0.0
 11
-10.45
 21
11.5
 31
0.0
1001
ACAD
1000
RTMaterial
1005
0
  0
LINE
  8
F01_OUT
  5
1E7
 10
-19.15
 20
11.5
 30
0.0
 11
-15.65
 21
11.5
 31
0.0
1001
ACAD
1000
RTMaterial
1005
0
  0
LINE
  8
F01_OUT
  5
1E8
 10
-12.9
 20
11.5
 30
0.0
 11
-11.45
 21
11.5
 31
0.0
1001
ACAD
1000
RTMaterial
1005
0
  0
LINE
  8
F01_OUT
  5
1E9
 10
-12.9
 20
11.5
 30
0.0
 11
-13.2
 21
11.5
 31
0.0
1001
ACAD
1000
RTMaterial
1005
0
  0
LINE
  8
F01_OUT
  5
1EA
 10
-10.95
 20
11.5
 30
0.0
 11
-10.7
 21
11.5
 31
0.0
1001
ACAD
1000
RTMaterial
1005
0
  0
LINE
  8
F01_OUT
  5
1EB
 10
-11.45
 20
11.5
 30
0.0
 11
-10.95
 21
11.5
 31
0.0
1001
ACAD
1000
RTMaterial
1005
0
  0
LINE
  8
F01_OUT
  5
1EC
 10
-19.65
 20
11.5
 30
0.0
 11
-19.15
 21
11.5
 31
0.0
1001
ACAD
1000
RTMaterial
1005
0
  0
LINE
  8
F01_OUT
  5
1ED
 10
-14.65
 20
11.5
 30
0.0
 11
-13.2
 21
11.5
 31
0.0
1001
ACAD
1000
RTMaterial
1005
0
  0
LINE
  8
F01_OUT
  5
1EE
 10
-15.591391
 20
11.5
 30
0.0
 11
-15.15
 21
11.5
 31
0.0
1001
ACAD
1000
RTMaterial
1005
0
  0
LINE
  8
F01_OUT
  5
1EF
 10
-15.65
 20
11.5
 30
0.0
 11
-15.591391
 21
11.5
 31
0.0
1001
ACAD
1000
RTMaterial
1005
0
  0
LINE
  8
F01_OUT
  5
1F0
 10
-15.15
 20
11.5
 30
0.0
 11
-14.65
 21
11.5
 31
0.0
1001
ACAD
1000
RTMaterial
1005
0
  0
LINE
  8
F01_OUT
  5
1F1
 10
4.5
 20
11.5
 30
0.0
 11
5.95
 21
11.5
 31
0.0
1001
ACAD
1000
RTMaterial
1005
0
  0
LINE
  8
F01_OUT
  5
1F2
 10
6.95
 20
11.5
 30
0.0
 11
8.7
 21
11.5
 31
0.0
1001
ACAD
1000
RTMaterial
1005
0
  0
LINE
  8
F01_OUT
  5
1F3
 10
4.5
 20
11.5
 30
0.0
 11
4.2
 21
11.5
 31
0.0
1001
ACAD
1000
RTMaterial
1005
0
  0
LINE
  8
F01_OUT
  5
1F4
 10
6.45
 20
11.5
 30
0.0
 11
6.95
 21
11.5
 31
0.0
1001
ACAD
1000
RTMaterial
1005
0
  0
LINE
  8
F01_OUT
  5
1F5
 10
5.95
 20
11.5
 30
0.0
 11
6.45
 21
11.5
 31
0.0
1001
ACAD
1000
RTMaterial
1005
0
  0
LINE
  8
F01_OUT
  5
1F6
 10
-4.2
 20
11.5
 30
0.0
 11
-2.75
 21
11.5
 31
0.0
1001
ACAD
1000
RTMaterial
1005
0
  0
LINE
  8
F01_OUT
  5
1F7
 10
-1.75
 20
11.5
 30
0.0
 11
1.75
 21
11.5
 31
0.0
1001
ACAD
1000
RTMaterial
1005
0
  0
LINE
  8
F01_OUT
  5
1F8
 10
-8.7
 20
11.5
 30
0.0
 11
-6.95
 21
11.5
 31
0.0
1001
ACAD
1000
RTMaterial
1005
0
  0
LINE
  8
F01_OUT
  5
1F9
 10
-4.2
 20
11.5
 30
0.0
 11
-4.5
 21
11.5
 31
0.0
1001
ACAD
1000
RTMaterial
1005
0
  0
LINE
  8
F01_OUT
  5
1FA
 10
-5.95
 20
11.5
 30
0.0
 11
-4.5
 21
11.5
 31
0.0
1001
ACAD
1000
RTMaterial
1005
0
  0
LINE
  8
F01_OUT
  5
1FB
 10
-6.45
 20
11.5
 30
0.0
 11
-5.95
 21
11.5
 31
0.0
1001
ACAD
1000
RTMaterial
1005
0
  0
LINE
  8
F01_OUT
  5
1FC
 10
-6.95
 20
11.5
 30
0.0
 11
-6.45
 21
11.5
 31
0.0
1001
ACAD
1000
RTMaterial
1005
0
  0
LINE
  8
F01_OUT
  5
1FD
 10
2.75
 20
11.5
 30
0.0
 11
4.2
 21
11.5
 31
0.0
1001
ACAD
1000
RTMaterial
1005
0
  0
LINE
  8
F01_OUT
  5
1FE
 10
2.25
 20
11.5
 30
0.0
 11
2.75
 21
11.5
 31
0.0
1001
ACAD
1000
RTMaterial
1005
0
  0
LINE
  8
F01_OUT
  5
1FF
 10
1.75
 20
11.5
 30
0.0
 11
2.25
 21
11.5
 31
0.0
1001
ACAD
1000
RTMaterial
1005
0
  0
LINE
  8
F01_OUT
  5
200
 10
-2.25
 20
11.5
 30
0.0
 11
-1.75
 21
11.5
 31
0.0
1001
ACAD
1000
RTMaterial
1005
0
  0
LINE
  8
F01_OUT
  5
201
 10
-2.75
 20
11.5
 30
0.0
 11
-2.25
 21
11.5
 31
0.0
1001
ACAD
1000
RTMaterial
1005
0
  0
LINE
  8
F01_OUT
  5
202
 10
8.7
 20
11.5
 30
0.0
 11
10.45
 21
11.5
 31
0.0
1001
ACAD
1000
RTMaterial
1005
0
  0
LINE
  8
F01_OUT
  5
203
 10
10.45
 20
11.5
 30
0.0
 11
10.7
 21
11.5
 31
0.0
1001
ACAD
1000
RTMaterial
1005
0
  0
LINE
  8
F01_OUT
  5
204
 10
10.7
 20
11.5
 30
0.0
 11
10.95
 21
11.5
 31
0.0
1001
ACAD
1000
RTMaterial
1005
0
  0
LINE
  8
F01_OUT
  5
205
 10
10.95
 20
11.5
 30
0.0
 11
11.45
 21
11.5
 31
0.0
1001
ACAD
1000
RTMaterial
1005
0
  0
LINE
  8
F01_OUT
  5
206
 10
11.45
 20
11.5
 30
0.0
 11
12.9
 21
11.5
 31
0.0
1001
ACAD
1000
RTMaterial
1005
0
  0
LINE
  8
F01_OUT
  5
207
 10
13.2
 20
11.5
 30
0.0
 11
12.9
 21
11.5
 31
0.0
1001
ACAD
1000
RTMaterial
1005
0
  0
LINE
  8
F01_OUT
  5
208
 10
-8.7
 20
-11.5
 30
0.0
 11
-10.45
 21
-11.5
 31
0.0
1001
ACAD
1000
RTMaterial
1005
0
  0
LINE
  8
F01_OUT
  5
209
 10
-4.5
 20
-11.5
 30
0.0
 11
-5.95
 21
-11.5
 31
0.0
1001
ACAD
1000
RTMaterial
1005
0
  0
LINE
  8
F01_OUT
  5
20A
 10
-5.95
 20
-11.5
 30
0.0
 11
-6.45
 21
-11.5
 31
0.0
1001
ACAD
1000
RTMaterial
1005
0
  0
LINE
  8
F01_OUT
  5
20B
 10
-6.45
 20
-11.5
 30
0.0
 11
-6.95
 21
-11.5
 31
0.0
1001
ACAD
1000
RTMaterial
1005
0
  0
LINE
  8
F01_OUT
  5
20C
 10
-2.25
 20
-11.5
 30
0.0
 11
-2.75
 21
-11.5
 31
0.0
1001
ACAD
1000
RTMaterial
1005
0
  0
LINE
  8
F01_OUT
  5
20D
 10
-10.95
 20
-11.5
 30
0.0
 11
-11.45
 21
-11.5
 31
0.0
1001
ACAD
1000
RTMaterial
1005
0
  0
LINE
  8
F01_OUT
  5
20E
 10
2.25
 20
-11.5
 30
0.0
 11
1.75
 21
-11.5
 31
0.0
1001
ACAD
1000
RTMaterial
1005
0
  0
LINE
  8
F01_OUT
  5
20F
 10
-10.7
 20
-11.5
 30
0.0
 11
-10.95
 21
-11.5
 31
0.0
1001
ACAD
1000
RTMaterial
1005
0
  0
LINE
  8
F01_OUT
  5
210
 10
-11.45
 20
-11.5
 30
0.0
 11
-12.9
 21
-11.5
 31
0.0
1001
ACAD
1000
RTMaterial
1005
0
  0
LINE
  8
F01_OUT
  5
211
 10
10.45
 20
-11.5
 30
0.0
 11
8.7
 21
-11.5
 31
0.0
1001
ACAD
1000
RTMaterial
1005
0
  0
LINE
  8
F01_OUT
  5
212
 10
6.45
 20
-11.5
 30
0.0
 11
5.95
 21
-11.5
 31
0.0
1001
ACAD
1000
RTMaterial
1005
0
  0
LINE
  8
F01_OUT
  5
213
 10
4.75
 20
-9.0
 30
0.0
 11
8.25
 21
-9.0
 31
0.0
1001
ACAD
1000
RTMaterial
1005
0
  0
LINE
  8
F01_OUT
  5
214
 10
8.25
 20
-6.0
 30
0.0
 11
4.75
 21
-6.0
 31
0.0
1001
ACAD
1000
RTMaterial
1005
0
  0
LINE
  8
F01_OUT
  5
215
 10
9.3
 20
-2.0
 30
0.0
 11
2.6
 21
-2.0
 31
0.0
1001
ACAD
1000
RTMaterial
1005
0
  0
LINE
  8
F01_OUT
  5
216
 10
2.6
 20
-3.0
 30
0.0
 11
11.1
 21
-3.0
 31
0.0
1001
ACAD
1000
RTMaterial
1005
0
  0
LINE
  8
F01_OUT
  5
217
 10
4.2
 20
-11.5
 30
0.0
 11
2.75
 21
-11.5
 31
0.0
1001
ACAD
1000
RTMaterial
1005
0
  0
LINE
  8
F01_OUT
  5
218
 10
9.3
 20
2.0
 30
0.0
 11
2.6
 21
2.0
 31
0.0
1001
ACAD
1000
RTMaterial
1005
0
  0
LINE
  8
F01_OUT
  5
219
 10
2.6
 20
3.6
 30
0.0
 11
11.1
 21
3.6
 31
0.0
1001
ACAD
1000
RTMaterial
1005
0
  0
LINE
  8
F01_OUT
  5
21A
 10
4.2
 20
-11.5
 30
0.0
 11
4.5
 21
-11.5
 31
0.0
1001
ACAD
1000
RTMaterial
1005
0
  0
LINE
  8
F01_OUT
  5
21B
 10
4.75
 20
-6.0
 30
0.0
 11
4.75
 21
-9.0
 31
0.0
1001
ACAD
1000
RTMaterial
1005
0
  0
LINE
  8
F01_OUT
  5
21C
 10
5.95
 20
-11.5
 30
0.0
 11
4.5
 21
-11.5
 31
0.0
1001
ACAD
1000
RTMaterial
1005
0
  0
LINE
  8
F01_OUT
  5
21D
 10
8.7
 20
-11.5
 30
0.0
 11
6.95
 21
-11.5
 31
0.0
1001
ACAD
1000
RTMaterial
1005
0
  0
LINE
  8
F01_OUT
  5
21E
 10
6.95
 20
-11.5
 30
0.0
 11
6.45
 21
-11.5
 31
0.0
1001
ACAD
1000
RTMaterial
1005
0
  0
LINE
  8
F01_OUT
  5
21F
 10
2.75
 20
-11.5
 30
0.0
 11
2.25
 21
-11.5
 31
0.0
1001
ACAD
1000
RTMaterial
1005
0
  0
LINE
  8
F01_OUT
  5
220
 10
9.6
 20
1.7
 30
0.0
 11
9.6
 21
-1.7
 31
0.0
1001
ACAD
1000
RTMaterial
1005
0
  0
LINE
  8
F01_OUT
  5
221
 10
8.25
 20
-9.0
 30
0.0
 11
8.25
 21
-6.0
 31
0.0
1001
ACAD
1000
RTMaterial
1005
0
  0
LINE
  8
F01_OUT
  5
222
 10
11.1
 20
-3.0
 30
0.0
 11
11.1
 21
3.6
 31
0.0
1001
ACAD
1000
RTMaterial
1005
0
  0
LINE
  8
F01_OUT
  5
223
 10
10.7
 20
-11.5
 30
0.0
 11
10.45
 21
-11.5
 31
0.0
1001
ACAD
1000
RTMaterial
1005
0
  0
LINE
  8
F01_OUT
  5
224
 10
19.0
 20
11.5
 30
0.0
 11
20.36038
 21
11.5
 31
0.0
1001
ACAD
1000
RTMaterial
1005
0
  0
LINE
  8
F01_OUT
  5
225
 10
20.36038
 20
-11.5
 30
0.0
 11
19.0
 21
-11.5
 31
0.0
1001
ACAD
1000
RTMaterial
1005
0
  0
LINE
  8
F01_OUT
  5
226
 10
13.2
 20
11.5
 30
0.0
 11
15.8
 21
11.5
 31
0.0
1001
ACAD
1000
RTMaterial
1005
0
  0
LINE
  8
F01_OUT
  5
227
 10
12.9
 20
-11.5
 30
0.0
 11
13.2
 21
-11.5
 31
0.0
1001
ACAD
1000
RTMaterial
1005
0
  0
LINE
  8
F01_OUT
  5
228
 10
19.0
 20
-11.5
 30
0.0
 11
15.8
 21
-11.5
 31
0.0
1001
ACAD
1000
RTMaterial
1005
0
  0
LINE
  8
F01_OUT
  5
229
 10
19.25
 20
7.999999
 30
0.0
 11
16.55
 21
7.999999
 31
0.0
1001
ACAD
1000
RTMaterial
1005
0
  0
LINE
  8
F01_OUT
  5
22A
 10
15.8
 20
11.5
 30
0.0
 11
19.0
 21
11.5
 31
0.0
1001
ACAD
1000
RTMaterial
1005
0
  0
LINE
  8
F01_OUT
  5
22B
 10
12.9
 20
-11.5
 30
0.0
 11
11.45
 21
-11.5
 31
0.0
1001
ACAD
1000
RTMaterial
1005
0
  0
LINE
  8
F01_OUT
  5
22C
 10
10.95
 20
-11.5
 30
0.0
 11
10.7
 21
-11.5
 31
0.0
1001
ACAD
1000
RTMaterial
1005
0
  0
LINE
  8
F01_OUT
  5
22D
 10
11.45
 20
-11.5
 30
0.0
 11
10.95
 21
-11.5
 31
0.0
1001
ACAD
1000
RTMaterial
1005
0
  0
LINE
  8
F01_OUT
  5
22E
 10
22.5
 20
-8.9
 30
0.0
 11
22.5
 21
8.9
 31
0.0
1001
ACAD
1000
RTMaterial
1005
0
  0
LINE
  8
F01_OUT
  5
22F
 10
21.4
 20
-11.5
 30
0.0
 11
21.275
 21
-11.5
 31
0.0
1001
ACAD
1000
RTMaterial
1005
0
  0
LINE
  8
F01_OUT
  5
230
 10
15.8
 20
-11.5
 30
0.0
 11
13.2
 21
-11.5
 31
0.0
1001
ACAD
1000
RTMaterial
1005
0
  0
LINE
  8
F01_OUT
  5
231
 10
21.275
 20
-11.5
 30
0.0
 11
20.36038
 21
-11.5
 31
0.0
1001
ACAD
1000
RTMaterial
1005
0
  0
LINE
  8
F01_OUT
  5
232
 10
21.4
 20
11.5
 30
0.0
 11
21.4
 21
10.4
 31
0.0
1001
ACAD
1000
RTMaterial
1005
0
  0
LINE
  8
F01_OUT
  5
233
 10
21.4
 20
10.4
 30
0.0
 11
21.4
 21
9.2
 31
0.0
1001
ACAD
1000
RTMaterial
1005
0
  0
LINE
  8
F01_OUT
  5
234
 10
21.4
 20
-9.2
 30
0.0
 11
21.4
 21
-10.4
 31
0.0
1001
ACAD
1000
RTMaterial
1005
0
  0
LINE
  8
F01_OUT
  5
235
 10
21.4
 20
-8.9
 30
0.0
 11
21.4
 21
-9.2
 31
0.0
1001
ACAD
1000
RTMaterial
1005
0
  0
LINE
  8
F01_OUT
  5
236
 10
21.4
 20
9.2
 30
0.0
 11
21.4
 21
8.9
 31
0.0
1001
ACAD
1000
RTMaterial
1005
0
  0
LINE
  8
F01_OUT
  5
237
 10
20.36038
 20
11.5
 30
0.0
 11
21.275
 21
11.5
 31
0.0
1001
ACAD
1000
RTMaterial
1005
0
  0
LINE
  8
F01_OUT
  5
238
 10
21.4
 20
8.9
 30
0.0
 11
22.5
 21
8.9
 31
0.0
1001
ACAD
1000
RTMaterial
1005
0
  0
LINE
  8
F01_OUT
  5
239
 10
22.5
 20
-8.9
 30
0.0
 11
21.4
 21
-8.9
 31
0.0
1001
ACAD
1000
RTMaterial
1005
0
  0
LINE
  8
F01_OUT
  5
23A
 10
21.4
 20
-10.4
 30
0.0
 11
21.4
 21
-11.5
 31
0.0
1001
ACAD
1000
RTMaterial
1005
0
  0
LINE
  8
F01_OUT
  5
23B
 10
-15.15
 20
-11.5
 30
0.0
 11
-15.591391
 21
-11.5
 31
0.0
1001
ACAD
1000
RTMaterial
1005
0
  0
LINE
  8
F01_OUT
  5
23C
 10
-15.591391
 20
-11.5
 30
0.0
 11
-15.65
 21
-11.5
 31
0.0
1001
ACAD
1000
RTMaterial
1005
0
  0
LINE
  8
F01_OUT
  5
23D
 10
-13.2
 20
-11.5
 30
0.0
 11
-14.65
 21
-11.5
 31
0.0
1001
ACAD
1000
RTMaterial
1005
0
  0
LINE
  8
F01_OUT
  5
23E
 10
-13.2
 20
-11.5
 30
0.0
 11
-12.9
 21
-11.5
 31
0.0
1001
ACAD
1000
RTMaterial
1005
0
  0
LINE
  8
F01_OUT
  5
23F
 10
-14.65
 20
-11.5
 30
0.0
 11
-15.15
 21
-11.5
 31
0.0
1001
ACAD
1000
RTMaterial
1005
0
  0
LINE
  8
F01_OUT
  5
240
 10
-15.65
 20
-11.5
 30
0.0
 11
-19.15
 21
-11.5
 31
0.0
1001
ACAD
1000
RTMaterial
1005
0
  0
LINE
  8
F01_OUT
  5
241
 10
-12.25
 20
-6.0
 30
0.0
 11
-12.25
 21
-9.0
 31
0.0
1001
ACAD
1000
RTMaterial
1005
0
  0
LINE
  8
F01_OUT
  5
242
 10
-19.65
 20
-11.5
 30
0.0
 11
-20.15
 21
-11.5
 31
0.0
1001
ACAD
1000
RTMaterial
1005
0
  0
LINE
  8
F01_OUT
  5
243
 10
-19.15
 20
-11.5
 30
0.0
 11
-19.65
 21
-11.5
 31
0.0
1001
ACAD
1000
RTMaterial
1005
0
  0
LINE
  8
F01_OUT
  5
244
 10
21.275
 20
11.5
 30
0.0
 11
21.4
 21
11.5
 31
0.0
1001
ACAD
1000
RTMaterial
1005
0
  0
LINE
  8
F01_OUT
  5
245
 10
-22.5
 20
-8.9
 30
0.0
 11
-22.5
 21
8.9
 31
0.0
1001
ACAD
1000
RTMaterial
1005
0
  0
LINE
  8
F01_OUT
  5
246
 10
-20.15
 20
-11.5
 30
0.0
 11
-21.275
 21
-11.5
 31
0.0
1001
ACAD
1000
RTMaterial
1005
0
  0
LINE
  8
F01_OUT
  5
247
 10
-21.4
 20
9.2
 30
0.0
 11
-21.4
 21
10.4
 31
0.0
1001
ACAD
1000
RTMaterial
1005
0
  0
LINE
  8
F01_OUT
  5
248
 10
-21.4
 20
8.9
 30
0.0
 11
-21.4
 21
9.2
 31
0.0
1001
ACAD
1000
RTMaterial
1005
0
  0
LINE
  8
F01_OUT
  5
249
 10
-21.4
 20
-10.4
 30
0.0
 11
-21.4
 21
-9.2
 31
0.0
1001
ACAD
1000
RTMaterial
1005
0
  0
LINE
  8
F01_OUT
  5
24A
 10
-21.4
 20
-9.2
 30
0.0
 11
-21.4
 21
-8.9
 31
0.0
1001
ACAD
1000
RTMaterial
1005
0
  0
LINE
  8
F01_OUT
  5
24B
 10
-21.4
 20
10.4
 30
0.0
 11
-21.4
 21
11.5
 31
0.0
1001
ACAD
1000
RTMaterial
1005
0
  0
LINE
  8
F01_OUT
  5
24C
 10
-22.5
 20
8.9
 30
0.0
 11
-21.4
 21
8.9
 31
0.0
1001
ACAD
1000
RTMaterial
1005
0
  0
LINE
  8
F01_OUT
  5
24D
 10
-21.4
 20
-11.5
 30
0.0
 11
-21.4
 21
-10.4
 31
0.0
1001
ACAD
1000
RTMaterial
1005
0
  0
LINE
  8
F01_OUT
  5
24E
 10
-21.4
 20
-8.9
 30
0.0
 11
-22.5
 21
-8.9
 31
0.0
1001
ACAD
1000
RTMaterial
1005
0
  0
LINE
  8
F01_OUT
  5
24F
 10
-21.275
 20
-11.5
 30
0.0
 11
-21.4
 21
-11.5
 31
0.0
1001
ACAD
1000
RTMaterial
1005
0
  0
LINE
  8
F01_OUT
  5
250
 10
-6.95
 20
-11.5
 30
0.0
 11
-8.7
 21
-11.5
 31
0.0
1001
ACAD
1000
RTMaterial
1005
0
  0
LINE
  8
F01_OUT
  5
251
 10
-12.25
 20
-9.0
 30
0.0
 11
-8.75
 21
-9.0
 31
0.0
1001
ACAD
1000
RTMaterial
1005
0
  0
LINE
  8
F01_OUT
  5
252
 10
-8.75
 20
-6.0
 30
0.0
 11
-12.25
 21
-6.0
 31
0.0
1001
ACAD
1000
RTMaterial
1005
0
  0
LINE
  8
F01_OUT
  5
253
 10
-8.75
 20
-9.0
 30
0.0
 11
-8.75
 21
-6.0
 31
0.0
1001
ACAD
1000
RTMaterial
1005
0
  0
LINE
  8
F01_OUT
  5
254
 10
-10.45
 20
-11.5
 30
0.0
 11
-10.7
 21
-11.5
 31
0.0
1001
ACAD
1000
RTMaterial
1005
0
  0
LINE
  8
F01_OUT
  5
255
 10
-3.75
 20
9.0
 30
0.0
 11
-3.75
 21
6.0
 31
0.0
1001
ACAD
1000
RTMaterial
1005
0
  0
LINE
  8
F01_OUT
  5
256
 10
-4.5
 20
-11.5
 30
0.0
 11
-4.2
 21
-11.5
 31
0.0
1001
ACAD
1000
RTMaterial
1005
0
  0
LINE
  8
F01_OUT
  5
257
 10
1.75
 20
-11.5
 30
0.0
 11
-1.75
 21
-11.5
 31
0.0
1001
ACAD
1000
RTMaterial
1005
0
  0
LINE
  8
F01_OUT
  5
258
 10
-2.75
 20
-11.5
 30
0.0
 11
-4.2
 21
-11.5
 31
0.0
1001
ACAD
1000
RTMaterial
1005
0
  0
LINE
  8
F01_OUT
  5
259
 10
-1.75
 20
-11.5
 30
0.0
 11
-2.25
 21
-11.5
 31
0.0
1001
ACAD
1000
RTMaterial
1005
0
  0
LINE
  8
F01_OUT
  5
25A
 10
2.6
 20
2.0
 30
0.0
 11
2.6
 21
-2.0
 31
0.0
1001
ACAD
1000
RTMaterial
1005
0
  0
LINE
  8
F01_OUT
  5
25B
 10
2.6
 20
-2.0
 30
0.0
 11
2.6
 21
-3.0
 31
0.0
1001
ACAD
1000
RTMaterial
1005
0
  0
LINE
  8
F01_OUT
  5
25C
 10
2.6
 20
3.6
 30
0.0
 11
2.6
 21
2.0
 31
0.0
1001
ACAD
1000
RTMaterial
1005
0
  0
LINE
  8
F01_OUT
  5
25D
 10
-0.25
 20
9.0
 30
0.0
 11
-3.75
 21
9.0
 31
0.0
1001
ACAD
1000
RTMaterial
1005
0
  0
LINE
  8
F01_OUT
  5
25E
 10
-0.25
 20
6.0
 30
0.0
 11
-0.25
 21
9.0
 31
0.0
1001
ACAD
1000
RTMaterial
1005
0
  0
LINE
  8
F01_OUT
  5
25F
 10
-3.75
 20
6.0
 30
0.0
 11
-0.25
 21
6.0
 31
0.0
1001
ACAD
1000
RTMaterial
1005
0
  0
ARC
  8
F01_OUT
  5
260
 10
21.575
 20
-23.7
 30
0.0
 40
0.3
 50
180.0
 51
270.0
1001
ACAD
1000
RTMaterial
1005
0
  0
ARC
  8
F01_OUT
  5
261
 10
22.2
 20
-23.7
 30
0.0
 40
0.3
 50
270.0
 51
0.0
1001
ACAD
1000
RTMaterial
1005
0
  0
ARC
  8
F01_OUT
  5
262
 10
12.875
 20
-23.7
 30
0.0
 40
0.3
 50
180.0
 51
270.0
1001
ACAD
1000
RTMaterial
1005
0
  0
ARC
  8
F01_OUT
  5
263
 10
13.225
 20
-23.7
 30
0.0
 40
0.3
 50
270.0
 51
0.0
1001
ACAD
1000
RTMaterial
1005
0
  0
ARC
  8
F01_OUT
  5
264
 10
4.175
 20
-23.7
 30
0.0
 40
0.3
 50
180.0
 51
270.0
1001
ACAD
1000
RTMaterial
1005
0
  0
ARC
  8
F01_OUT
  5
265
 10
4.525
 20
-23.7
 30
0.0
 40
0.3
 50
270.0
 51
0.0
1001
ACAD
1000
RTMaterial
1005
0
  0
ARC
  8
F01_OUT
  5
266
 10
-21.575
 20
23.7
 30
0.0
 40
0.3
 50
0.0
 51
90.0
1001
ACAD
1000
RTMaterial
1005
0
  0
ARC
  8
F01_OUT
  5
267
 10
12.875
 20
23.7
 30
0.0
 40
0.3
 50
90.0
 51
180.0
1001
ACAD
1000
RTMaterial
1005
0
  0
ARC
  8
F01_OUT
  5
268
 10
4.525
 20
23.7
 30
0.0
 40
0.3
 50
0.0
 51
90.0
1001
ACAD
1000
RTMaterial
1005
0
  0
ARC
  8
F01_OUT
  5
269
 10
4.175
 20
23.7
 30
0.0
 40
0.3
 50
90.0
 51
180.0
1001
ACAD
1000
RTMaterial
1005
0
  0
ARC
  8
F01_OUT
  5
26A
 10
13.225
 20
23.7
 30
0.0
 40
0.3
 50
0.0
 51
90.0
1001
ACAD
1000
RTMaterial
1005
0
  0
ARC
  8
F01_OUT
  5
26B
 10
-4.525
 20
23.7
 30
0.0
 40
0.3
 50
90.0
 51
180.0
1001
ACAD
1000
RTMaterial
1005
0
  0
ARC
  8
F01_OUT
  5
26C
 10
22.2
 20
23.7
 30
0.0
 40
0.3
 50
0.0
 51
90.0
1001
ACAD
1000
RTMaterial
1005
0
  0
ARC
  8
F01_OUT
  5
26D
 10
21.575
 20
23.7
 30
0.0
 40
0.3
 50
90.0
 51
180.0
1001
ACAD
1000
RTMaterial
1005
0
  0
ARC
  8
F01_OUT
  5
26E
 10
-22.2
 20
23.7
 30
0.0
 40
0.3
 50
90.0
 51
180.0
1001
ACAD
1000
RTMaterial
1005
0
  0
ARC
  8
F01_OUT
  5
26F
 10
-4.175
 20
23.7
 30
0.0
 40
0.3
 50
0.0
 51
90.0
1001
ACAD
1000
RTMaterial
1005
0
  0
ARC
  8
F01_OUT
  5
270
 10
-13.225
 20
23.7
 30
0.0
 40
0.3
 50
90.0
 51
180.0
1001
ACAD
1000
RTMaterial
1005
0
  0
ARC
  8
F01_OUT
  5
271
 10
-12.875
 20
23.7
 30
0.0
 40
0.3
 50
0.0
 51
90.0
1001
ACAD
1000
RTMaterial
1005
0
  0
ARC
  8
F01_OUT
  5
272
 10
-13.225
 20
-23.7
 30
0.0
 40
0.3
 50
180.0
 51
270.0
1001
ACAD
1000
RTMaterial
1005
0
  0
ARC
  8
F01_OUT
  5
273
 10
-21.575
 20
-23.7
 30
0.0
 40
0.3
 50
270.0
 51
0.0
1001
ACAD
1000
RTMaterial
1005
0
  0
ARC
  8
F01_OUT
  5
274
 10
-22.2
 20
-23.7
 30
0.0
 40
0.3
 50
180.0
 51
270.0
1001
ACAD
1000
RTMaterial
1005
0
  0
ARC
  8
F01_OUT
  5
275
 10
-12.875
 20
-23.7
 30
0.0
 40
0.3
 50
270.0
 51
0.0
1001
ACAD
1000
RTMaterial
1005
0
  0
ARC
  8
F01_OUT
  5
276
 10
-4.525
 20
-23.7
 30
0.0
 40
0.3
 50
180.0
 51
270.0
1001
ACAD
1000
RTMaterial
1005
0
  0
ARC
  8
F01_OUT
  5
277
 10
-4.175
 20
-23.7
 30
0.0
 40
0.3
 50
270.0
 51
0.0
1001
ACAD
1000
RTMaterial
1005
0
  0
LINE
  8
F01_OUT
  5
278
 10
-21.275
 20
11.5
 30
0.0
 11
-20.15
 21
11.5
 31
0.0
1001
ACAD
1000
RTMaterial
1005
0
  0
LINE
  8
F01_OUT
  5
279
 10
-20.15
 20
11.5
 30
0.0
 11
-19.65
 21
11.5
 31
0.0
1001
ACAD
1000
RTMaterial
1005
0
  0
LINE
  8
F01_OUT
  5
27A
 10
-22.5
 20
18.5
 30
0.0
 11
-22.5
 21
11.5
 31
0.0
1001
ACAD
1000
RTMaterial
1005
0
  0
LINE
  8
F01_OUT
  5
27B
 10
-22.5
 20
19.4
 30
0.0
 11
-22.5
 21
18.5
 31
0.0
1001
ACAD
1000
RTMaterial
1005
0
  0
LINE
  8
F01_OUT
  5
27C
 10
-19.15
 20
11.5
 30
0.0
 11
-15.65
 21
11.5
 31
0.0
1001
ACAD
1000
RTMaterial
1005
0
  0
LINE
  8
F01_OUT
  5
27D
 10
-19.65
 20
11.5
 30
0.0
 11
-19.15
 21
11.5
 31
0.0
1001
ACAD
1000
RTMaterial
1005
0
  0
LINE
  8
F01_OUT
  5
27E
 10
-15.65
 20
11.5
 30
0.0
 11
-15.591391
 21
11.5
 31
0.0
1001
ACAD
1000
RTMaterial
1005
0
  0
LINE
  8
F01_OUT
  5
27F
 10
1.0
 20
20.5
 30
0.0
 11
3.875
 21
20.5
 31
0.0
1001
ACAD
1000
RTMaterial
1005
0
  0
LINE
  8
F01_OUT
  5
280
 10
-1.0
 20
20.5
 30
0.0
 11
1.0
 21
20.5
 31
0.0
1001
ACAD
1000
RTMaterial
1005
0
  0
LINE
  8
F01_OUT
  5
281
 10
-11.2
 20
20.5
 30
0.0
 11
-7.45
 21
20.5
 31
0.0
1001
ACAD
1000
RTMaterial
1005
0
  0
LINE
  8
F01_OUT
  5
282
 10
-5.9
 20
20.5
 30
0.0
 11
-4.9
 21
20.5
 31
0.0
1001
ACAD
1000
RTMaterial
1005
0
  0
LINE
  8
F01_OUT
  5
283
 10
-4.9
 20
20.5
 30
0.0
 11
-4.825
 21
20.5
 31
0.0
1001
ACAD
1000
RTMaterial
1005
0
  0
LINE
  8
F01_OUT
  5
284
 10
-6.5
 20
20.5
 30
0.0
 11
-5.9
 21
20.5
 31
0.0
1001
ACAD
1000
RTMaterial
1005
0
  0
LINE
  8
F01_OUT
  5
285
 10
-7.45
 20
20.5
 30
0.0
 11
-6.5
 21
20.5
 31
0.0
1001
ACAD
1000
RTMaterial
1005
0
  0
LINE
  8
F01_OUT
  5
286
 10
4.9
 20
20.5
 30
0.0
 11
5.9
 21
20.5
 31
0.0
1001
ACAD
1000
RTMaterial
1005
0
  0
LINE
  8
F01_OUT
  5
287
 10
4.825
 20
20.5
 30
0.0
 11
4.9
 21
20.5
 31
0.0
1001
ACAD
1000
RTMaterial
1005
0
  0
LINE
  8
F01_OUT
  5
288
 10
5.9
 20
20.5
 30
0.0
 11
6.5
 21
20.5
 31
0.0
1001
ACAD
1000
RTMaterial
1005
0
  0
LINE
  8
F01_OUT
  5
289
 10
6.5
 20
20.5
 30
0.0
 11
7.45
 21
20.5
 31
0.0
1001
ACAD
1000
RTMaterial
1005
0
  0
LINE
  8
F01_OUT
  5
28A
 10
7.45
 20
20.5
 30
0.0
 11
11.2
 21
20.5
 31
0.0
1001
ACAD
1000
RTMaterial
1005
0
  0
LINE
  8
F01_OUT
  5
28B
 10
11.2
 20
20.5
 30
0.0
 11
12.2
 21
20.5
 31
0.0
1001
ACAD
1000
RTMaterial
1005
0
  0
LINE
  8
F01_OUT
  5
28C
 10
12.2
 20
20.5
 30
0.0
 11
12.5
 21
20.5
 31
0.0
1001
ACAD
1000
RTMaterial
1005
0
  0
LINE
  8
F01_OUT
  5
28D
 10
12.5
 20
20.5
 30
0.0
 11
12.575
 21
20.5
 31
0.0
1001
ACAD
1000
RTMaterial
1005
0
  0
LINE
  8
F01_OUT
  5
28E
 10
-3.875
 20
20.5
 30
0.0
 11
-1.0
 21
20.5
 31
0.0
1001
ACAD
1000
RTMaterial
1005
0
  0
LINE
  8
F01_OUT
  5
28F
 10
-12.2
 20
20.5
 30
0.0
 11
-11.2
 21
20.5
 31
0.0
1001
ACAD
1000
RTMaterial
1005
0
  0
LINE
  8
F01_OUT
  5
290
 10
-12.5
 20
20.5
 30
0.0
 11
-12.2
 21
20.5
 31
0.0
1001
ACAD
1000
RTMaterial
1005
0
  0
LINE
  8
F01_OUT
  5
291
 10
-12.575
 20
20.5
 30
0.0
 11
-12.5
 21
20.5
 31
0.0
1001
ACAD
1000
RTMaterial
1005
0
  0
LINE
  8
F01_OUT
  5
292
 10
-4.9
 20
-20.5
 30
0.0
 11
-5.9
 21
-20.5
 31
0.0
1001
ACAD
1000
RTMaterial
1005
0
  0
LINE
  8
F01_OUT
  5
293
 10
-4.825
 20
-20.5
 30
0.0
 11
-4.9
 21
-20.5
 31
0.0
1001
ACAD
1000
RTMaterial
1005
0
  0
LINE
  8
F01_OUT
  5
294
 10
-5.9
 20
-20.5
 30
0.0
 11
-7.45
 21
-20.5
 31
0.0
1001
ACAD
1000
RTMaterial
1005
0
  0
LINE
  8
F01_OUT
  5
295
 10
-7.45
 20
-20.5
 30
0.0
 11
-11.2
 21
-20.5
 31
0.0
1001
ACAD
1000
RTMaterial
1005
0
  0
LINE
  8
F01_OUT
  5
296
 10
-12.5
 20
-20.5
 30
0.0
 11
-12.575
 21
-20.5
 31
0.0
1001
ACAD
1000
RTMaterial
1005
0
  0
LINE
  8
F01_OUT
  5
297
 10
-12.2
 20
-20.5
 30
0.0
 11
-12.5
 21
-20.5
 31
0.0
1001
ACAD
1000
RTMaterial
1005
0
  0
LINE
  8
F01_OUT
  5
298
 10
-11.2
 20
-20.5
 30
0.0
 11
-12.2
 21
-20.5
 31
0.0
1001
ACAD
1000
RTMaterial
1005
0
  0
LINE
  8
F01_OUT
  5
299
 10
19.25
 20
9.2
 30
0.0
 11
18.25
 21
9.2
 31
0.0
1001
ACAD
1000
RTMaterial
1005
0
  0
LINE
  8
F01_OUT
  5
29A
 10
18.25
 20
10.5
 30
0.0
 11
18.25
 21
9.2
 31
0.0
1001
ACAD
1000
RTMaterial
1005
0
  0
LINE
  8
F01_OUT
  5
29B
 10
19.25
 20
9.2
 30
0.0
 11
19.25
 21
7.999999
 31
0.0
1001
ACAD
1000
RTMaterial
1005
0
  0
LINE
  8
F01_OUT
  5
29C
 10
18.25
 20
10.5
 30
0.0
 11
16.55
 21
10.5
 31
0.0
1001
ACAD
1000
RTMaterial
1005
0
  0
LINE
  8
F01_OUT
  5
29D
 10
16.55
 20
10.5
 30
0.0
 11
16.55
 21
7.999999
 31
0.0
1001
ACAD
1000
RTMaterial
1005
0
  0
LINE
  8
F01_OUT
  5
29E
 10
19.0
 20
-11.5
 30
0.0
 11
15.8
 21
-11.5
 31
0.0
1001
ACAD
1000
RTMaterial
1005
0
  0
LINE
  8
F01_OUT
  5
29F
 10
15.8
 20
11.5
 30
0.0
 11
19.0
 21
11.5
 31
0.0
1001
ACAD
1000
RTMaterial
1005
0
  0
LINE
  8
F01_OUT
  5
2A0
 10
14.377501
 20
-20.5
 30
0.0
 11
13.525
 21
-20.5
 31
0.0
1001
ACAD
1000
RTMaterial
1005
0
  0
LINE
  8
F01_OUT
  5
2A1
 10
15.987353
 20
-20.5
 30
0.0
 11
14.377501
 21
-20.5
 31
0.0
1001
ACAD
1000
RTMaterial
1005
0
  0
LINE
  8
F01_OUT
  5
2A2
 10
11.2
 20
-20.5
 30
0.0
 11
7.45
 21
-20.5
 31
0.0
1001
ACAD
1000
RTMaterial
1005
0
  0
LINE
  8
F01_OUT
  5
2A3
 10
12.2
 20
-20.5
 30
0.0
 11
11.2
 21
-20.5
 31
0.0
1001
ACAD
1000
RTMaterial
1005
0
  0
LINE
  8
F01_OUT
  5
2A4
 10
5.9
 20
-20.5
 30
0.0
 11
4.9
 21
-20.5
 31
0.0
1001
ACAD
1000
RTMaterial
1005
0
  0
LINE
  8
F01_OUT
  5
2A5
 10
4.9
 20
-20.5
 30
0.0
 11
4.825
 21
-20.5
 31
0.0
1001
ACAD
1000
RTMaterial
1005
0
  0
LINE
  8
F01_OUT
  5
2A6
 10
12.575
 20
-20.5
 30
0.0
 11
12.5
 21
-20.5
 31
0.0
1001
ACAD
1000
RTMaterial
1005
0
  0
LINE
  8
F01_OUT
  5
2A7
 10
12.5
 20
-20.5
 30
0.0
 11
12.2
 21
-20.5
 31
0.0
1001
ACAD
1000
RTMaterial
1005
0
  0
LINE
  8
F01_OUT
  5
2A8
 10
7.45
 20
-20.5
 30
0.0
 11
5.9
 21
-20.5
 31
0.0
1001
ACAD
1000
RTMaterial
1005
0
  0
LINE
  8
F01_OUT
  5
2A9
 10
21.1
 20
-20.5
 30
0.0
 11
19.012647
 21
-20.5
 31
0.0
1001
ACAD
1000
RTMaterial
1005
0
  0
LINE
  8
F01_OUT
  5
2AA
 10
22.5
 20
-8.9
 30
0.0
 11
22.5
 21
8.9
 31
0.0
1001
ACAD
1000
RTMaterial
1005
0
  0
LINE
  8
F01_OUT
  5
2AB
 10
22.5
 20
-18.5
 30
0.0
 11
22.5
 21
-11.5
 31
0.0
1001
ACAD
1000
RTMaterial
1005
0
  0
LINE
  8
F01_OUT
  5
2AC
 10
22.5
 20
-8.9
 30
0.0
 11
22.5
 21
-9.0
 31
0.0
1001
ACAD
1000
RTMaterial
1005
0
  0
LINE
  8
F01_OUT
  5
2AD
 10
22.5
 20
-19.4
 30
0.0
 11
22.5
 21
-18.5
 31
0.0
1001
ACAD
1000
RTMaterial
1005
0
  0
LINE
  8
F01_OUT
  5
2AE
 10
22.5
 20
-10.3
 30
0.0
 11
22.5
 21
-11.5
 31
0.0
1001
ACAD
1000
RTMaterial
1005
0
  0
LINE
  8
F01_OUT
  5
2AF
 10
22.5
 20
-9.0
 30
0.0
 11
22.5
 21
-9.5
 31
0.0
1001
ACAD
1000
RTMaterial
1005
0
  0
LINE
  8
F01_OUT
  5
2B0
 10
22.5
 20
-10.3
 30
0.0
 11
22.5
 21
-9.5
 31
0.0
1001
ACAD
1000
RTMaterial
1005
0
  0
LINE
  8
F01_OUT
  5
2B1
 10
22.5
 20
9.0
 30
0.0
 11
22.5
 21
9.5
 31
0.0
1001
ACAD
1000
RTMaterial
1005
0
  0
LINE
  8
F01_OUT
  5
2B2
 10
22.5
 20
11.5
 30
0.0
 11
22.5
 21
10.3
 31
0.0
1001
ACAD
1000
RTMaterial
1005
0
  0
LINE
  8
F01_OUT
  5
2B3
 10
22.5
 20
9.0
 30
0.0
 11
22.5
 21
8.9
 31
0.0
1001
ACAD
1000
RTMaterial
1005
0
  0
LINE
  8
F01_OUT
  5
2B4
 10
22.5
 20
10.3
 30
0.0
 11
22.5
 21
9.5
 31
0.0
1001
ACAD
1000
RTMaterial
1005
0
  0
LINE
  8
F01_OUT
  5
2B5
 10
22.5
 20
18.5
 30
0.0
 11
22.5
 21
11.5
 31
0.0
1001
ACAD
1000
RTMaterial
1005
0
  0
LINE
  8
F01_OUT
  5
2B6
 10
21.275
 20
-11.5
 30
0.0
 11
20.36038
 21
-11.5
 31
0.0
1001
ACAD
1000
RTMaterial
1005
0
  0
LINE
  8
F01_OUT
  5
2B7
 10
20.36038
 20
11.5
 30
0.0
 11
21.275
 21
11.5
 31
0.0
1001
ACAD
1000
RTMaterial
1005
0
  0
LINE
  8
F01_OUT
  5
2B8
 10
21.1
 20
-20.5
 30
0.0
 11
21.275
 21
-20.5
 31
0.0
1001
ACAD
1000
RTMaterial
1005
0
  0
LINE
  8
F01_OUT
  5
2B9
 10
21.275
 20
-20.5
 30
0.0
 11
21.275
 21
-19.4
 31
0.0
1001
ACAD
1000
RTMaterial
1005
0
  0
LINE
  8
F01_OUT
  5
2BA
 10
13.525
 20
-23.7
 30
0.0
 11
13.525
 21
-20.5
 31
0.0
1001
ACAD
1000
RTMaterial
1005
0
  0
LINE
  8
F01_OUT
  5
2BB
 10
21.275
 20
-20.5
 30
0.0
 11
21.275
 21
-23.7
 31
0.0
1001
ACAD
1000
RTMaterial
1005
0
  0
LINE
  8
F01_OUT
  5
2BC
 10
22.5
 20
-23.7
 30
0.0
 11
22.5
 21
-19.4
 31
0.0
1001
ACAD
1000
RTMaterial
1005
0
  0
LINE
  8
F01_OUT
  5
2BD
 10
4.825
 20
-23.7
 30
0.0
 11
4.825
 21
-20.5
 31
0.0
1001
ACAD
1000
RTMaterial
1005
0
  0
LINE
  8
F01_OUT
  5
2BE
 10
3.875
 20
-23.7
 30
0.0
 11
3.875
 21
-20.5
 31
0.0
1001
ACAD
1000
RTMaterial
1005
0
  0
LINE
  8
F01_OUT
  5
2BF
 10
12.575
 20
-23.7
 30
0.0
 11
12.575
 21
-20.5
 31
0.0
1001
ACAD
1000
RTMaterial
1005
0
  0
LINE
  8
F01_OUT
  5
2C0
 10
13.225
 20
-24.0
 30
0.0
 11
13.0
 21
-24.0
 31
0.0
1001
ACAD
1000
RTMaterial
1005
0
  0
LINE
  8
F01_OUT
  5
2C1
 10
12.875
 20
-24.0
 30
0.0
 11
13.0
 21
-24.0
 31
0.0
1001
ACAD
1000
RTMaterial
1005
0
  0
LINE
  8
F01_OUT
  5
2C2
 10
4.525
 20
-24.0
 30
0.0
 11
4.175
 21
-24.0
 31
0.0
1001
ACAD
1000
RTMaterial
1005
0
  0
LINE
  8
F01_OUT
  5
2C3
 10
22.2
 20
-24.0
 30
0.0
 11
21.575
 21
-24.0
 31
0.0
1001
ACAD
1000
RTMaterial
1005
0
  0
LINE
  8
F01_OUT
  5
2C4
 10
22.5
 20
19.4
 30
0.0
 11
22.5
 21
18.5
 31
0.0
1001
ACAD
1000
RTMaterial
1005
0
  0
LINE
  8
F01_OUT
  5
2C5
 10
13.525
 20
20.5
 30
0.0
 11
14.377501
 21
20.5
 31
0.0
1001
ACAD
1000
RTMaterial
1005
0
  0
LINE
  8
F01_OUT
  5
2C6
 10
19.012647
 20
20.5
 30
0.0
 11
21.1
 21
20.5
 31
0.0
1001
ACAD
1000
RTMaterial
1005
0
  0
LINE
  8
F01_OUT
  5
2C7
 10
14.377501
 20
20.5
 30
0.0
 11
15.987353
 21
20.5
 31
0.0
1001
ACAD
1000
RTMaterial
1005
0
  0
LINE
  8
F01_OUT
  5
2C8
 10
21.275
 20
20.5
 30
0.0
 11
21.1
 21
20.5
 31
0.0
1001
ACAD
1000
RTMaterial
1005
0
  0
LINE
  8
F01_OUT
  5
2C9
 10
21.275
 20
19.4
 30
0.0
 11
21.275
 21
20.5
 31
0.0
1001
ACAD
1000
RTMaterial
1005
0
  0
LINE
  8
F01_OUT
  5
2CA
 10
-14.377501
 20
20.5
 30
0.0
 11
-13.525
 21
20.5
 31
0.0
1001
ACAD
1000
RTMaterial
1005
0
  0
LINE
  8
F01_OUT
  5
2CB
 10
-21.1
 20
20.5
 30
0.0
 11
-19.012647
 21
20.5
 31
0.0
1001
ACAD
1000
RTMaterial
1005
0
  0
LINE
  8
F01_OUT
  5
2CC
 10
-15.987353
 20
20.5
 30
0.0
 11
-14.377501
 21
20.5
 31
0.0
1001
ACAD
1000
RTMaterial
1005
0
  0
LINE
  8
F01_OUT
  5
2CD
 10
-21.1
 20
20.5
 30
0.0
 11
-21.275
 21
20.5
 31
0.0
1001
ACAD
1000
RTMaterial
1005
0
  0
LINE
  8
F01_OUT
  5
2CE
 10
-21.275
 20
19.4
 30
0.0
 11
-21.275
 21
20.5
 31
0.0
1001
ACAD
1000
RTMaterial
1005
0
  0
LINE
  8
F01_OUT
  5
2CF
 10
-21.275
 20
23.7
 30
0.0
 11
-21.275
 21
20.5
 31
0.0
1001
ACAD
1000
RTMaterial
1005
0
  0
LINE
  8
F01_OUT
  5
2D0
 10
13.525
 20
23.7
 30
0.0
 11
13.525
 21
20.5
 31
0.0
1001
ACAD
1000
RTMaterial
1005
0
  0
LINE
  8
F01_OUT
  5
2D1
 10
4.825
 20
23.7
 30
0.0
 11
4.825
 21
20.5
 31
0.0
1001
ACAD
1000
RTMaterial
1005
0
  0
LINE
  8
F01_OUT
  5
2D2
 10
3.875
 20
23.7
 30
0.0
 11
3.875
 21
20.5
 31
0.0
1001
ACAD
1000
RTMaterial
1005
0
  0
LINE
  8
F01_OUT
  5
2D3
 10
12.575
 20
23.7
 30
0.0
 11
12.575
 21
20.5
 31
0.0
1001
ACAD
1000
RTMaterial
1005
0
  0
LINE
  8
F01_OUT
  5
2D4
 10
-22.2
 20
24.0
 30
0.0
 11
-21.575
 21
24.0
 31
0.0
1001
ACAD
1000
RTMaterial
1005
0
  0
LINE
  8
F01_OUT
  5
2D5
 10
13.0
 20
24.0
 30
0.0
 11
13.225
 21
24.0
 31
0.0
1001
ACAD
1000
RTMaterial
1005
0
  0
LINE
  8
F01_OUT
  5
2D6
 10
-13.225
 20
24.0
 30
0.0
 11
-13.0
 21
24.0
 31
0.0
1001
ACAD
1000
RTMaterial
1005
0
  0
LINE
  8
F01_OUT
  5
2D7
 10
4.175
 20
24.0
 30
0.0
 11
4.525
 21
24.0
 31
0.0
1001
ACAD
1000
RTMaterial
1005
0
  0
LINE
  8
F01_OUT
  5
2D8
 10
12.875
 20
24.0
 30
0.0
 11
13.0
 21
24.0
 31
0.0
1001
ACAD
1000
RTMaterial
1005
0
  0
LINE
  8
F01_OUT
  5
2D9
 10
-13.0
 20
24.0
 30
0.0
 11
-12.875
 21
24.0
 31
0.0
1001
ACAD
1000
RTMaterial
1005
0
  0
LINE
  8
F01_OUT
  5
2DA
 10
-4.525
 20
24.0
 30
0.0
 11
-4.175
 21
24.0
 31
0.0
1001
ACAD
1000
RTMaterial
1005
0
  0
LINE
  8
F01_OUT
  5
2DB
 10
21.275
 20
20.5
 30
0.0
 11
21.275
 21
23.7
 31
0.0
1001
ACAD
1000
RTMaterial
1005
0
  0
LINE
  8
F01_OUT
  5
2DC
 10
22.5
 20
19.4
 30
0.0
 11
22.5
 21
23.7
 31
0.0
1001
ACAD
1000
RTMaterial
1005
0
  0
LINE
  8
F01_OUT
  5
2DD
 10
22.2
 20
24.0
 30
0.0
 11
21.575
 21
24.0
 31
0.0
1001
ACAD
1000
RTMaterial
1005
0
  0
LINE
  8
F01_OUT
  5
2DE
 10
-22.5
 20
23.7
 30
0.0
 11
-22.5
 21
19.4
 31
0.0
1001
ACAD
1000
RTMaterial
1005
0
  0
LINE
  8
F01_OUT
  5
2DF
 10
-4.825
 20
23.7
 30
0.0
 11
-4.825
 21
20.5
 31
0.0
1001
ACAD
1000
RTMaterial
1005
0
  0
LINE
  8
F01_OUT
  5
2E0
 10
-12.575
 20
23.7
 30
0.0
 11
-12.575
 21
20.5
 31
0.0
1001
ACAD
1000
RTMaterial
1005
0
  0
LINE
  8
F01_OUT
  5
2E1
 10
-13.525
 20
23.7
 30
0.0
 11
-13.525
 21
20.5
 31
0.0
1001
ACAD
1000
RTMaterial
1005
0
  0
LINE
  8
F01_OUT
  5
2E2
 10
-3.875
 20
23.7
 30
0.0
 11
-3.875
 21
20.5
 31
0.0
1001
ACAD
1000
RTMaterial
1005
0
  0
LINE
  8
F01_OUT
  5
2E3
 10
-15.591391
 20
-11.5
 30
0.0
 11
-15.65
 21
-11.5
 31
0.0
1001
ACAD
1000
RTMaterial
1005
0
  0
LINE
  8
F01_OUT
  5
2E4
 10
-15.65
 20
-11.5
 30
0.0
 11
-19.15
 21
-11.5
 31
0.0
1001
ACAD
1000
RTMaterial
1005
0
  0
LINE
  8
F01_OUT
  5
2E5
 10
-19.3
 20
-6.05
 30
0.0
 11
-19.3
 21
-4.05
 31
0.0
1001
ACAD
1000
RTMaterial
1005
0
  0
LINE
  8
F01_OUT
  5
2E6
 10
-19.3
 20
4.05
 30
0.0
 11
-19.3
 21
6.05
 31
0.0
1001
ACAD
1000
RTMaterial
1005
0
  0
LINE
  8
F01_OUT
  5
2E7
 10
-19.3
 20
6.05
 30
0.0
 11
-20.8
 21
6.05
 31
0.0
1001
ACAD
1000
RTMaterial
1005
0
  0
LINE
  8
F01_OUT
  5
2E8
 10
-20.8
 20
4.05
 30
0.0
 11
-19.3
 21
4.05
 31
0.0
1001
ACAD
1000
RTMaterial
1005
0
  0
LINE
  8
F01_OUT
  5
2E9
 10
-20.8
 20
6.05
 30
0.0
 11
-20.8
 21
4.05
 31
0.0
1001
ACAD
1000
RTMaterial
1005
0
  0
LINE
  8
F01_OUT
  5
2EA
 10
-20.8
 20
-4.05
 30
0.0
 11
-20.8
 21
-6.05
 31
0.0
1001
ACAD
1000
RTMaterial
1005
0
  0
LINE
  8
F01_OUT
  5
2EB
 10
-19.3
 20
-4.05
 30
0.0
 11
-20.8
 21
-4.05
 31
0.0
1001
ACAD
1000
RTMaterial
1005
0
  0
LINE
  8
F01_OUT
  5
2EC
 10
-19.65
 20
-11.5
 30
0.0
 11
-20.15
 21
-11.5
 31
0.0
1001
ACAD
1000
RTMaterial
1005
0
  0
LINE
  8
F01_OUT
  5
2ED
 10
-19.15
 20
-11.5
 30
0.0
 11
-19.65
 21
-11.5
 31
0.0
1001
ACAD
1000
RTMaterial
1005
0
  0
LINE
  8
F01_OUT
  5
2EE
 10
-20.8
 20
-6.05
 30
0.0
 11
-19.3
 21
-6.05
 31
0.0
1001
ACAD
1000
RTMaterial
1005
0
  0
LINE
  8
F01_OUT
  5
2EF
 10
-19.012647
 20
-20.5
 30
0.0
 11
-21.1
 21
-20.5
 31
0.0
1001
ACAD
1000
RTMaterial
1005
0
  0
LINE
  8
F01_OUT
  5
2F0
 10
-14.377501
 20
-20.5
 30
0.0
 11
-15.987353
 21
-20.5
 31
0.0
1001
ACAD
1000
RTMaterial
1005
0
  0
LINE
  8
F01_OUT
  5
2F1
 10
-13.525
 20
-20.5
 30
0.0
 11
-14.377501
 21
-20.5
 31
0.0
1001
ACAD
1000
RTMaterial
1005
0
  0
LINE
  8
F01_OUT
  5
2F2
 10
-13.0
 20
-24.0
 30
0.0
 11
-12.875
 21
-24.0
 31
0.0
1001
ACAD
1000
RTMaterial
1005
0
  0
LINE
  8
F01_OUT
  5
2F3
 10
-13.525
 20
-23.7
 30
0.0
 11
-13.525
 21
-20.5
 31
0.0
1001
ACAD
1000
RTMaterial
1005
0
  0
LINE
  8
F01_OUT
  5
2F4
 10
-12.575
 20
-23.7
 30
0.0
 11
-12.575
 21
-20.5
 31
0.0
1001
ACAD
1000
RTMaterial
1005
0
  0
LINE
  8
F01_OUT
  5
2F5
 10
-13.0
 20
-24.0
 30
0.0
 11
-13.225
 21
-24.0
 31
0.0
1001
ACAD
1000
RTMaterial
1005
0
  0
LINE
  8
F01_OUT
  5
2F6
 10
-22.5
 20
-8.9
 30
0.0
 11
-22.5
 21
8.9
 31
0.0
1001
ACAD
1000
RTMaterial
1005
0
  0
LINE
  8
F01_OUT
  5
2F7
 10
-22.5
 20
-18.5
 30
0.0
 11
-22.5
 21
-11.5
 31
0.0
1001
ACAD
1000
RTMaterial
1005
0
  0
LINE
  8
F01_OUT
  5
2F8
 10
-22.5
 20
-11.5
 30
0.0
 11
-22.5
 21
-10.3
 31
0.0
1001
ACAD
1000
RTMaterial
1005
0
  0
LINE
  8
F01_OUT
  5
2F9
 10
-22.5
 20
-19.4
 30
0.0
 11
-22.5
 21
-18.5
 31
0.0
1001
ACAD
1000
RTMaterial
1005
0
  0
LINE
  8
F01_OUT
  5
2FA
 10
-22.5
 20
-10.3
 30
0.0
 11
-22.5
 21
-9.5
 31
0.0
1001
ACAD
1000
RTMaterial
1005
0
  0
LINE
  8
F01_OUT
  5
2FB
 10
-22.5
 20
-9.0
 30
0.0
 11
-22.5
 21
-9.5
 31
0.0
1001
ACAD
1000
RTMaterial
1005
0
  0
LINE
  8
F01_OUT
  5
2FC
 10
-22.5
 20
-9.0
 30
0.0
 11
-22.5
 21
-8.9
 31
0.0
1001
ACAD
1000
RTMaterial
1005
0
  0
LINE
  8
F01_OUT
  5
2FD
 10
-20.15
 20
-11.5
 30
0.0
 11
-21.275
 21
-11.5
 31
0.0
1001
ACAD
1000
RTMaterial
1005
0
  0
LINE
  8
F01_OUT
  5
2FE
 10
-22.5
 20
10.3
 30
0.0
 11
-22.5
 21
11.5
 31
0.0
1001
ACAD
1000
RTMaterial
1005
0
  0
LINE
  8
F01_OUT
  5
2FF
 10
-22.5
 20
9.5
 30
0.0
 11
-22.5
 21
10.3
 31
0.0
1001
ACAD
1000
RTMaterial
1005
0
  0
LINE
  8
F01_OUT
  5
300
 10
-22.5
 20
8.9
 30
0.0
 11
-22.5
 21
9.0
 31
0.0
1001
ACAD
1000
RTMaterial
1005
0
  0
LINE
  8
F01_OUT
  5
301
 10
-22.5
 20
9.0
 30
0.0
 11
-22.5
 21
9.5
 31
0.0
1001
ACAD
1000
RTMaterial
1005
0
  0
LINE
  8
F01_OUT
  5
302
 10
-21.275
 20
-19.4
 30
0.0
 11
-21.275
 21
-20.5
 31
0.0
1001
ACAD
1000
RTMaterial
1005
0
  0
LINE
  8
F01_OUT
  5
303
 10
-21.275
 20
-20.5
 30
0.0
 11
-21.1
 21
-20.5
 31
0.0
1001
ACAD
1000
RTMaterial
1005
0
  0
LINE
  8
F01_OUT
  5
304
 10
-21.275
 20
-20.5
 30
0.0
 11
-21.275
 21
-23.7
 31
0.0
1001
ACAD
1000
RTMaterial
1005
0
  0
LINE
  8
F01_OUT
  5
305
 10
-22.5
 20
-19.4
 30
0.0
 11
-22.5
 21
-23.7
 31
0.0
1001
ACAD
1000
RTMaterial
1005
0
  0
LINE
  8
F01_OUT
  5
306
 10
-22.2
 20
-24.0
 30
0.0
 11
-21.575
 21
-24.0
 31
0.0
1001
ACAD
1000
RTMaterial
1005
0
  0
LINE
  8
F01_OUT
  5
307
 10
3.875
 20
-20.5
 30
0.0
 11
-3.875
 21
-20.5
 31
0.0
1001
ACAD
1000
RTMaterial
1005
0
  0
LINE
  8
F01_OUT
  5
308
 10
-4.175
 20
-24.0
 30
0.0
 11
-4.525
 21
-24.0
 31
0.0
1001
ACAD
1000
RTMaterial
1005
0
  0
LINE
  8
F01_OUT
  5
309
 10
-3.875
 20
-23.7
 30
0.0
 11
-3.875
 21
-20.5
 31
0.0
1001
ACAD
1000
RTMaterial
1005
0
  0
LINE
  8
F01_OUT
  5
30A
 10
-4.825
 20
-23.7
 30
0.0
 11
-4.825
 21
-20.5
 31
0.0
1001
ACAD
1000
RTMaterial
1005
0
  0
ARC
  8
F01_OUT
  5
30B
 10
8.7
 20
1.2
 30
0.0
 40
0.3
 50
0.0
 51
90.0
1001
ACAD
1000
RTMaterial
1005
0
  0
ARC
  8
F01_OUT
  5
30C
 10
8.7
 20
-1.2
 30
0.0
 40
0.3
 50
270.0
 51
0.0
1001
ACAD
1000
RTMaterial
1005
0
  0
ARC
  8
F01_OUT
  5
30D
 10
7.8
 20
-1.2
 30
0.0
 40
0.3
 50
180.0
 51
270.0
1001
ACAD
1000
RTMaterial
1005
0
  0
ARC
  8
F01_OUT
  5
30E
 10
7.8
 20
1.2
 30
0.0
 40
0.3
 50
90.0
 51
180.0
1001
ACAD
1000
RTMaterial
1005
0
  0
LINE
  8
F01_OUT
  5
30F
 10
8.7
 20
-1.5
 30
0.0
 11
7.8
 21
-1.5
 31
0.0
1001
ACAD
1000
RTMaterial
1005
0
  0
LINE
  8
F01_OUT
  5
310
 10
7.5
 20
0.8
 30
0.0
 11
7.5
 21
1.2
 31
0.0
1001
ACAD
1000
RTMaterial
1005
0
  0
LINE
  8
F01_OUT
  5
311
 10
7.5
 20
-1.2
 30
0.0
 11
7.5
 21
-0.8
 31
0.0
1001
ACAD
1000
RTMaterial
1005
0
  0
LINE
  8
F01_OUT
  5
312
 10
9.0
 20
1.2
 30
0.0
 11
9.0
 21
-1.2
 31
0.0
1001
ACAD
1000
RTMaterial
1005
0
  0
LINE
  8
F01_OUT
  5
313
 10
7.5
 20
-0.8
 30
0.0
 11
7.5
 21
0.8
 31
0.0
1001
ACAD
1000
RTMaterial
1005
0
  0
LINE
  8
F01_OUT
  5
314
 10
7.8
 20
1.5
 30
0.0
 11
8.7
 21
1.5
 31
0.0
1001
ACAD
1000
RTMaterial
1005
0
  0
LINE
  8
F01_OUT
  5
315
 10
-4.175
 20
-24.0
 30
0.0
 11
-4.525
 21
-24.0
 31
0.0
1001
ACAD
1000
RTMaterial
1005
0
  0
LINE
  8
F01_OUT
  5
316
 10
4.175
 20
-24.0
 30
0.0
 11
-4.175
 21
-24.0
 31
0.0
1001
ACAD
1000
RTMaterial
1005
0
  0
LINE
  8
F01_OUT
  5
317
 10
-4.525
 20
-24.0
 30
0.0
 11
-6.95
 21
-24.0
 31
0.0
1001
ACAD
1000
RTMaterial
1005
0
  0
LINE
  8
F01_OUT
  5
318
 10
-3.875
 20
-20.5
 30
0.0
 11
-3.9
 21
-20.5
 31
0.0
1001
ACAD
1000
RTMaterial
1005
0
  0
LINE
  8
F01_OUT
  5
319
 10
4.2
 20
-20.5
 30
0.0
 11
3.9
 21
-20.5
 31
0.0
1001
ACAD
1000
RTMaterial
1005
0
  0
LINE
  8
F01_OUT
  5
31A
 10
3.875
 20
-20.5
 30
0.0
 11
-3.875
 21
-20.5
 31
0.0
1001
ACAD
1000
RTMaterial
1005
0
  0
LINE
  8
F01_OUT
  5
31B
 10
-3.9
 20
-20.5
 30
0.0
 11
-4.2
 21
-20.5
 31
0.0
1001
ACAD
1000
RTMaterial
1005
0
  0
LINE
  8
F01_OUT
  5
31C
 10
-4.5
 20
-20.5
 30
0.0
 11
-4.2
 21
-20.5
 31
0.0
1001
ACAD
1000
RTMaterial
1005
0
  0
LINE
  8
F01_OUT
  5
31D
 10
-22.5
 20
10.3
 30
0.0
 11
-22.5
 21
11.5
 31
0.0
1001
ACAD
1000
RTMaterial
1005
0
  0
LINE
  8
F01_OUT
  5
31E
 10
-22.5
 20
-11.5
 30
0.0
 11
-22.5
 21
-10.3
 31
0.0
1001
ACAD
1000
RTMaterial
1005
0
  0
LINE
  8
F01_OUT
  5
31F
 10
-22.5
 20
-18.5
 30
0.0
 11
-22.5
 21
-11.5
 31
0.0
1001
ACAD
1000
RTMaterial
1005
0
  0
LINE
  8
F01_OUT
  5
320
 10
-12.875
 20
-24.0
 30
0.0
 11
-6.95
 21
-24.0
 31
0.0
1001
ACAD
1000
RTMaterial
1005
0
  0
LINE
  8
F01_OUT
  5
321
 10
-7.45
 20
-22.5
 30
0.0
 11
-12.5
 21
-22.5
 31
0.0
1001
ACAD
1000
RTMaterial
1005
0
  0
LINE
  8
F01_OUT
  5
322
 10
-7.45
 20
-20.5
 30
0.0
 11
-7.45
 21
-22.5
 31
0.0
1001
ACAD
1000
RTMaterial
1005
0
  0
LINE
  8
F01_OUT
  5
323
 10
-13.0
 20
-24.0
 30
0.0
 11
-13.225
 21
-24.0
 31
0.0
1001
ACAD
1000
RTMaterial
1005
0
  0
LINE
  8
F01_OUT
  5
324
 10
-13.225
 20
-24.0
 30
0.0
 11
-21.0
 21
-24.0
 31
0.0
1001
ACAD
1000
RTMaterial
1005
0
  0
LINE
  8
F01_OUT
  5
325
 10
-13.0
 20
-24.0
 30
0.0
 11
-12.875
 21
-24.0
 31
0.0
1001
ACAD
1000
RTMaterial
1005
0
  0
LINE
  8
F01_OUT
  5
326
 10
-12.5
 20
-22.5
 30
0.0
 11
-12.5
 21
-20.5
 31
0.0
1001
ACAD
1000
RTMaterial
1005
0
  0
LINE
  8
F01_OUT
  5
327
 10
-13.2
 20
-20.5
 30
0.0
 11
-13.525
 21
-20.5
 31
0.0
1001
ACAD
1000
RTMaterial
1005
0
  0
LINE
  8
F01_OUT
  5
328
 10
-13.525
 20
-20.5
 30
0.0
 11
-14.377501
 21
-20.5
 31
0.0
1001
ACAD
1000
RTMaterial
1005
0
  0
LINE
  8
F01_OUT
  5
329
 10
-13.0
 20
-20.5
 30
0.0
 11
-12.9
 21
-20.5
 31
0.0
1001
ACAD
1000
RTMaterial
1005
0
  0
LINE
  8
F01_OUT
  5
32A
 10
-13.2
 20
-20.5
 30
0.0
 11
-13.0
 21
-20.5
 31
0.0
1001
ACAD
1000
RTMaterial
1005
0
  0
LINE
  8
F01_OUT
  5
32B
 10
-12.575
 20
-20.5
 30
0.0
 11
-12.9
 21
-20.5
 31
0.0
1001
ACAD
1000
RTMaterial
1005
0
  0
LINE
  8
F01_OUT
  5
32C
 10
-4.525
 20
24.0
 30
0.0
 11
-4.175
 21
24.0
 31
0.0
1001
ACAD
1000
RTMaterial
1005
0
  0
LINE
  8
F01_OUT
  5
32D
 10
-13.0
 20
24.0
 30
0.0
 11
-12.875
 21
24.0
 31
0.0
1001
ACAD
1000
RTMaterial
1005
0
  0
LINE
  8
F01_OUT
  5
32E
 10
-12.875
 20
24.0
 30
0.0
 11
-4.525
 21
24.0
 31
0.0
1001
ACAD
1000
RTMaterial
1005
0
  0
LINE
  8
F01_OUT
  5
32F
 10
12.875
 20
24.0
 30
0.0
 11
13.0
 21
24.0
 31
0.0
1001
ACAD
1000
RTMaterial
1005
0
  0
LINE
  8
F01_OUT
  5
330
 10
4.175
 20
24.0
 30
0.0
 11
4.525
 21
24.0
 31
0.0
1001
ACAD
1000
RTMaterial
1005
0
  0
LINE
  8
F01_OUT
  5
331
 10
4.525
 20
24.0
 30
0.0
 11
12.875
 21
24.0
 31
0.0
1001
ACAD
1000
RTMaterial
1005
0
  0
LINE
  8
F01_OUT
  5
332
 10
-13.225
 20
24.0
 30
0.0
 11
-13.0
 21
24.0
 31
0.0
1001
ACAD
1000
RTMaterial
1005
0
  0
LINE
  8
F01_OUT
  5
333
 10
-21.0
 20
24.0
 30
0.0
 11
-13.225
 21
24.0
 31
0.0
1001
ACAD
1000
RTMaterial
1005
0
  0
LINE
  8
F01_OUT
  5
334
 10
13.0
 20
24.0
 30
0.0
 11
13.225
 21
24.0
 31
0.0
1001
ACAD
1000
RTMaterial
1005
0
  0
LINE
  8
F01_OUT
  5
335
 10
13.225
 20
24.0
 30
0.0
 11
21.0
 21
24.0
 31
0.0
1001
ACAD
1000
RTMaterial
1005
0
  0
LINE
  8
F01_OUT
  5
336
 10
-4.175
 20
24.0
 30
0.0
 11
4.175
 21
24.0
 31
0.0
1001
ACAD
1000
RTMaterial
1005
0
  0
LINE
  8
F01_OUT
  5
337
 10
-13.525
 20
20.5
 30
0.0
 11
-13.2
 21
20.5
 31
0.0
1001
ACAD
1000
RTMaterial
1005
0
  0
LINE
  8
F01_OUT
  5
338
 10
-14.377501
 20
20.5
 30
0.0
 11
-13.525
 21
20.5
 31
0.0
1001
ACAD
1000
RTMaterial
1005
0
  0
LINE
  8
F01_OUT
  5
339
 10
13.0
 20
20.5
 30
0.0
 11
12.9
 21
20.5
 31
0.0
1001
ACAD
1000
RTMaterial
1005
0
  0
LINE
  8
F01_OUT
  5
33A
 10
12.575
 20
20.5
 30
0.0
 11
12.9
 21
20.5
 31
0.0
1001
ACAD
1000
RTMaterial
1005
0
  0
LINE
  8
F01_OUT
  5
33B
 10
3.875
 20
20.5
 30
0.0
 11
3.9
 21
20.5
 31
0.0
1001
ACAD
1000
RTMaterial
1005
0
  0
LINE
  8
F01_OUT
  5
33C
 10
13.2
 20
20.5
 30
0.0
 11
13.525
 21
20.5
 31
0.0
1001
ACAD
1000
RTMaterial
1005
0
  0
LINE
  8
F01_OUT
  5
33D
 10
13.525
 20
20.5
 30
0.0
 11
14.377501
 21
20.5
 31
0.0
1001
ACAD
1000
RTMaterial
1005
0
  0
LINE
  8
F01_OUT
  5
33E
 10
4.525
 20
-24.0
 30
0.0
 11
4.175
 21
-24.0
 31
0.0
1001
ACAD
1000
RTMaterial
1005
0
  0
LINE
  8
F01_OUT
  5
33F
 10
12.875
 20
-24.0
 30
0.0
 11
13.0
 21
-24.0
 31
0.0
1001
ACAD
1000
RTMaterial
1005
0
  0
LINE
  8
F01_OUT
  5
340
 10
6.95
 20
-24.0
 30
0.0
 11
12.875
 21
-24.0
 31
0.0
1001
ACAD
1000
RTMaterial
1005
0
  0
LINE
  8
F01_OUT
  5
341
 10
6.95
 20
-24.0
 30
0.0
 11
4.525
 21
-24.0
 31
0.0
1001
ACAD
1000
RTMaterial
1005
0
  0
LINE
  8
F01_OUT
  5
342
 10
13.225
 20
-24.0
 30
0.0
 11
13.0
 21
-24.0
 31
0.0
1001
ACAD
1000
RTMaterial
1005
0
  0
LINE
  8
F01_OUT
  5
343
 10
21.0
 20
-24.0
 30
0.0
 11
13.225
 21
-24.0
 31
0.0
1001
ACAD
1000
RTMaterial
1005
0
  0
LINE
  8
F01_OUT
  5
344
 10
12.5
 20
-20.5
 30
0.0
 11
12.5
 21
-22.5
 31
0.0
1001
ACAD
1000
RTMaterial
1005
0
  0
LINE
  8
F01_OUT
  5
345
 10
12.5
 20
-22.5
 30
0.0
 11
7.45
 21
-22.5
 31
0.0
1001
ACAD
1000
RTMaterial
1005
0
  0
LINE
  8
F01_OUT
  5
346
 10
7.45
 20
-22.5
 30
0.0
 11
7.45
 21
-20.5
 31
0.0
1001
ACAD
1000
RTMaterial
1005
0
  0
LINE
  8
F01_OUT
  5
347
 10
22.5
 20
18.5
 30
0.0
 11
22.5
 21
11.5
 31
0.0
1001
ACAD
1000
RTMaterial
1005
0
  0
LINE
  8
F01_OUT
  5
348
 10
22.5
 20
11.5
 30
0.0
 11
22.5
 21
10.3
 31
0.0
1001
ACAD
1000
RTMaterial
1005
0
  0
LINE
  8
F01_OUT
  5
349
 10
22.5
 20
-10.3
 30
0.0
 11
22.5
 21
-11.5
 31
0.0
1001
ACAD
1000
RTMaterial
1005
0
  0
LINE
  8
F01_OUT
  5
34A
 10
22.5
 20
-18.5
 30
0.0
 11
22.5
 21
-11.5
 31
0.0
1001
ACAD
1000
RTMaterial
1005
0
  0
LINE
  8
F01_OUT
  5
34B
 10
7.45
 20
-20.5
 30
0.0
 11
5.9
 21
-20.5
 31
0.0
1001
ACAD
1000
RTMaterial
1005
0
  0
LINE
  8
F01_OUT
  5
34C
 10
12.5
 20
-20.5
 30
0.0
 11
12.2
 21
-20.5
 31
0.0
1001
ACAD
1000
RTMaterial
1005
0
  0
LINE
  8
F01_OUT
  5
34D
 10
12.9
 20
-20.5
 30
0.0
 11
12.575
 21
-20.5
 31
0.0
1001
ACAD
1000
RTMaterial
1005
0
  0
LINE
  8
F01_OUT
  5
34E
 10
12.575
 20
-20.5
 30
0.0
 11
12.5
 21
-20.5
 31
0.0
1001
ACAD
1000
RTMaterial
1005
0
  0
LINE
  8
F01_OUT
  5
34F
 10
4.9
 20
-20.5
 30
0.0
 11
4.825
 21
-20.5
 31
0.0
1001
ACAD
1000
RTMaterial
1005
0
  0
LINE
  8
F01_OUT
  5
350
 10
4.825
 20
-20.5
 30
0.0
 11
4.5
 21
-20.5
 31
0.0
1001
ACAD
1000
RTMaterial
1005
0
  0
LINE
  8
F01_OUT
  5
351
 10
5.9
 20
-20.5
 30
0.0
 11
4.9
 21
-20.5
 31
0.0
1001
ACAD
1000
RTMaterial
1005
0
  0
LINE
  8
F01_OUT
  5
352
 10
12.2
 20
-20.5
 30
0.0
 11
11.2
 21
-20.5
 31
0.0
1001
ACAD
1000
RTMaterial
1005
0
  0
LINE
  8
F01_OUT
  5
353
 10
11.2
 20
-20.5
 30
0.0
 11
7.45
 21
-20.5
 31
0.0
1001
ACAD
1000
RTMaterial
1005
0
  0
LINE
  8
F01_OUT
  5
354
 10
12.9
 20
-20.5
 30
0.0
 11
13.0
 21
-20.5
 31
0.0
1001
ACAD
1000
RTMaterial
1005
0
  0
LINE
  8
F01_OUT
  5
355
 10
13.0
 20
-20.5
 30
0.0
 11
13.2
 21
-20.5
 31
0.0
1001
ACAD
1000
RTMaterial
1005
0
  0
LINE
  8
F01_OUT
  5
356
 10
13.525
 20
-20.5
 30
0.0
 11
13.2
 21
-20.5
 31
0.0
1001
ACAD
1000
RTMaterial
1005
0
  0
LINE
  8
F01_OUT
  5
357
 10
14.377501
 20
-20.5
 30
0.0
 11
13.525
 21
-20.5
 31
0.0
1001
ACAD
1000
RTMaterial
1005
0
  0
LINE
  8
F01_OUT
  5
358
 10
3.9
 20
-20.5
 30
0.0
 11
3.875
 21
-20.5
 31
0.0
1001
ACAD
1000
RTMaterial
1005
0
  0
LINE
  8
F01_OUT
  5
359
 10
4.2
 20
-20.5
 30
0.0
 11
4.5
 21
-20.5
 31
0.0
1001
ACAD
1000
RTMaterial
1005
0
  0
LINE
  8
F01_OUT
  5
35A
 10
-11.2
 20
-20.5
 30
0.0
 11
-12.2
 21
-20.5
 31
0.0
1001
ACAD
1000
RTMaterial
1005
0
  0
LINE
  8
F01_OUT
  5
35B
 10
-12.2
 20
-20.5
 30
0.0
 11
-12.5
 21
-20.5
 31
0.0
1001
ACAD
1000
RTMaterial
1005
0
  0
LINE
  8
F01_OUT
  5
35C
 10
-12.5
 20
-20.5
 30
0.0
 11
-12.575
 21
-20.5
 31
0.0
1001
ACAD
1000
RTMaterial
1005
0
  0
LINE
  8
F01_OUT
  5
35D
 10
-7.45
 20
-20.5
 30
0.0
 11
-11.2
 21
-20.5
 31
0.0
1001
ACAD
1000
RTMaterial
1005
0
  0
LINE
  8
F01_OUT
  5
35E
 10
-4.5
 20
-20.5
 30
0.0
 11
-4.825
 21
-20.5
 31
0.0
1001
ACAD
1000
RTMaterial
1005
0
  0
LINE
  8
F01_OUT
  5
35F
 10
-5.9
 20
-20.5
 30
0.0
 11
-7.45
 21
-20.5
 31
0.0
1001
ACAD
1000
RTMaterial
1005
0
  0
LINE
  8
F01_OUT
  5
360
 10
-4.825
 20
-20.5
 30
0.0
 11
-4.9
 21
-20.5
 31
0.0
1001
ACAD
1000
RTMaterial
1005
0
  0
LINE
  8
F01_OUT
  5
361
 10
-4.9
 20
-20.5
 30
0.0
 11
-5.9
 21
-20.5
 31
0.0
1001
ACAD
1000
RTMaterial
1005
0
  0
LINE
  8
F01_OUT
  5
362
 10
-6.5
 20
23.0
 30
0.0
 11
-6.5
 21
20.5
 31
0.0
1001
ACAD
1000
RTMaterial
1005
0
  0
LINE
  8
F01_OUT
  5
363
 10
-6.5
 20
23.0
 30
0.0
 11
-4.825
 21
23.0
 31
0.0
1001
ACAD
1000
RTMaterial
1005
0
  0
LINE
  8
F01_OUT
  5
364
 10
4.825
 20
23.0
 30
0.0
 11
6.5
 21
23.0
 31
0.0
1001
ACAD
1000
RTMaterial
1005
0
  0
LINE
  8
F01_OUT
  5
365
 10
-1.0
 20
23.0
 30
0.0
 11
1.0
 21
23.0
 31
0.0
1001
ACAD
1000
RTMaterial
1005
0
  0
LINE
  8
F01_OUT
  5
366
 10
-1.0
 20
20.5
 30
0.0
 11
-1.0
 21
23.0
 31
0.0
1001
ACAD
1000
RTMaterial
1005
0
  0
LINE
  8
F01_OUT
  5
367
 10
1.0
 20
23.0
 30
0.0
 11
1.0
 21
20.5
 31
0.0
1001
ACAD
1000
RTMaterial
1005
0
  0
LINE
  8
F01_OUT
  5
368
 10
-7.45
 20
22.5
 30
0.0
 11
-7.45
 21
20.5
 31
0.0
1001
ACAD
1000
RTMaterial
1005
0
  0
LINE
  8
F01_OUT
  5
369
 10
-12.5
 20
22.5
 30
0.0
 11
-7.45
 21
22.5
 31
0.0
1001
ACAD
1000
RTMaterial
1005
0
  0
LINE
  8
F01_OUT
  5
36A
 10
7.45
 20
22.5
 30
0.0
 11
12.5
 21
22.5
 31
0.0
1001
ACAD
1000
RTMaterial
1005
0
  0
LINE
  8
F01_OUT
  5
36B
 10
-12.5
 20
20.5
 30
0.0
 11
-12.5
 21
22.5
 31
0.0
1001
ACAD
1000
RTMaterial
1005
0
  0
LINE
  8
F01_OUT
  5
36C
 10
6.5
 20
20.5
 30
0.0
 11
6.5
 21
23.0
 31
0.0
1001
ACAD
1000
RTMaterial
1005
0
  0
LINE
  8
F01_OUT
  5
36D
 10
7.45
 20
20.5
 30
0.0
 11
7.45
 21
22.5
 31
0.0
1001
ACAD
1000
RTMaterial
1005
0
  0
LINE
  8
F01_OUT
  5
36E
 10
12.5
 20
22.5
 30
0.0
 11
12.5
 21
20.5
 31
0.0
1001
ACAD
1000
RTMaterial
1005
0
  0
LINE
  8
F01_OUT
  5
36F
 10
-12.9
 20
20.5
 30
0.0
 11
-13.0
 21
20.5
 31
0.0
1001
ACAD
1000
RTMaterial
1005
0
  0
LINE
  8
F01_OUT
  5
370
 10
-13.0
 20
20.5
 30
0.0
 11
-13.2
 21
20.5
 31
0.0
1001
ACAD
1000
RTMaterial
1005
0
  0
LINE
  8
F01_OUT
  5
371
 10
-12.575
 20
20.5
 30
0.0
 11
-12.5
 21
20.5
 31
0.0
1001
ACAD
1000
RTMaterial
1005
0
  0
LINE
  8
F01_OUT
  5
372
 10
-12.5
 20
20.5
 30
0.0
 11
-12.2
 21
20.5
 31
0.0
1001
ACAD
1000
RTMaterial
1005
0
  0
LINE
  8
F01_OUT
  5
373
 10
-12.9
 20
20.5
 30
0.0
 11
-12.575
 21
20.5
 31
0.0
1001
ACAD
1000
RTMaterial
1005
0
  0
LINE
  8
F01_OUT
  5
374
 10
-12.2
 20
20.5
 30
0.0
 11
-11.2
 21
20.5
 31
0.0
1001
ACAD
1000
RTMaterial
1005
0
  0
LINE
  8
F01_OUT
  5
375
 10
-3.9
 20
20.5
 30
0.0
 11
-3.875
 21
20.5
 31
0.0
1001
ACAD
1000
RTMaterial
1005
0
  0
LINE
  8
F01_OUT
  5
376
 10
-4.2
 20
20.5
 30
0.0
 11
-4.5
 21
20.5
 31
0.0
1001
ACAD
1000
RTMaterial
1005
0
  0
LINE
  8
F01_OUT
  5
377
 10
-4.0
 20
20.5
 30
0.0
 11
-3.9
 21
20.5
 31
0.0
1001
ACAD
1000
RTMaterial
1005
0
  0
LINE
  8
F01_OUT
  5
378
 10
-4.2
 20
20.5
 30
0.0
 11
-4.0
 21
20.5
 31
0.0
1001
ACAD
1000
RTMaterial
1005
0
  0
LINE
  8
F01_OUT
  5
379
 10
-3.875
 20
20.5
 30
0.0
 11
-1.0
 21
20.5
 31
0.0
1001
ACAD
1000
RTMaterial
1005
0
  0
LINE
  8
F01_OUT
  5
37A
 10
12.5
 20
20.5
 30
0.0
 11
12.575
 21
20.5
 31
0.0
1001
ACAD
1000
RTMaterial
1005
0
  0
LINE
  8
F01_OUT
  5
37B
 10
12.2
 20
20.5
 30
0.0
 11
12.5
 21
20.5
 31
0.0
1001
ACAD
1000
RTMaterial
1005
0
  0
LINE
  8
F01_OUT
  5
37C
 10
11.2
 20
20.5
 30
0.0
 11
12.2
 21
20.5
 31
0.0
1001
ACAD
1000
RTMaterial
1005
0
  0
LINE
  8
F01_OUT
  5
37D
 10
7.45
 20
20.5
 30
0.0
 11
11.2
 21
20.5
 31
0.0
1001
ACAD
1000
RTMaterial
1005
0
  0
LINE
  8
F01_OUT
  5
37E
 10
6.5
 20
20.5
 30
0.0
 11
7.45
 21
20.5
 31
0.0
1001
ACAD
1000
RTMaterial
1005
0
  0
LINE
  8
F01_OUT
  5
37F
 10
5.9
 20
20.5
 30
0.0
 11
6.5
 21
20.5
 31
0.0
1001
ACAD
1000
RTMaterial
1005
0
  0
LINE
  8
F01_OUT
  5
380
 10
4.825
 20
20.5
 30
0.0
 11
4.9
 21
20.5
 31
0.0
1001
ACAD
1000
RTMaterial
1005
0
  0
LINE
  8
F01_OUT
  5
381
 10
4.5
 20
20.5
 30
0.0
 11
4.825
 21
20.5
 31
0.0
1001
ACAD
1000
RTMaterial
1005
0
  0
LINE
  8
F01_OUT
  5
382
 10
4.5
 20
20.5
 30
0.0
 11
4.2
 21
20.5
 31
0.0
1001
ACAD
1000
RTMaterial
1005
0
  0
LINE
  8
F01_OUT
  5
383
 10
4.9
 20
20.5
 30
0.0
 11
5.9
 21
20.5
 31
0.0
1001
ACAD
1000
RTMaterial
1005
0
  0
LINE
  8
F01_OUT
  5
384
 10
-7.45
 20
20.5
 30
0.0
 11
-6.5
 21
20.5
 31
0.0
1001
ACAD
1000
RTMaterial
1005
0
  0
LINE
  8
F01_OUT
  5
385
 10
-6.5
 20
20.5
 30
0.0
 11
-5.9
 21
20.5
 31
0.0
1001
ACAD
1000
RTMaterial
1005
0
  0
LINE
  8
F01_OUT
  5
386
 10
-4.9
 20
20.5
 30
0.0
 11
-4.825
 21
20.5
 31
0.0
1001
ACAD
1000
RTMaterial
1005
0
  0
LINE
  8
F01_OUT
  5
387
 10
-4.825
 20
20.5
 30
0.0
 11
-4.5
 21
20.5
 31
0.0
1001
ACAD
1000
RTMaterial
1005
0
  0
LINE
  8
F01_OUT
  5
388
 10
-5.9
 20
20.5
 30
0.0
 11
-4.9
 21
20.5
 31
0.0
1001
ACAD
1000
RTMaterial
1005
0
  0
LINE
  8
F01_OUT
  5
389
 10
-11.2
 20
20.5
 30
0.0
 11
-7.45
 21
20.5
 31
0.0
1001
ACAD
1000
RTMaterial
1005
0
  0
LINE
  8
F01_OUT
  5
38A
 10
13.2
 20
20.5
 30
0.0
 11
13.0
 21
20.5
 31
0.0
1001
ACAD
1000
RTMaterial
1005
0
  0
LINE
  8
F01_OUT
  5
38B
 10
-1.0
 20
20.5
 30
0.0
 11
1.0
 21
20.5
 31
0.0
1001
ACAD
1000
RTMaterial
1005
0
  0
LINE
  8
F01_OUT
  5
38C
 10
3.9
 20
20.5
 30
0.0
 11
4.0
 21
20.5
 31
0.0
1001
ACAD
1000
RTMaterial
1005
0
  0
LINE
  8
F01_OUT
  5
38D
 10
4.0
 20
20.5
 30
0.0
 11
4.2
 21
20.5
 31
0.0
1001
ACAD
1000
RTMaterial
1005
0
  0
LINE
  8
F01_OUT
  5
38E
 10
1.0
 20
20.5
 30
0.0
 11
3.875
 21
20.5
 31
0.0
1001
ACAD
1000
RTMaterial
1005
0
  0
LINE
  8
F01_OUT
  5
38F
 10
-22.5
 20
18.5
 30
0.0
 11
-22.5
 21
11.5
 31
0.0
1001
ACAD
1000
RTMaterial
1005
0
  0
ARC
  8
F01_OUT
  5
390
 10
-21.0
 20
-23.0
 30
0.0
 40
1.0
 50
247.811837
 51
270.0
1001
ACAD
1000
RTMaterial
1005
0
  0
ARC
  8
F01_OUT
  5
391
 10
-17.5
 20
-20.0
 30
0.0
 40
2.25
 50
306.869898
 51
347.160412
1001
ACAD
1000
RTMaterial
1005
0
  0
ARC
  8
F01_OUT
  5
392
 10
-17.5
 20
-20.0
 30
0.0
 40
2.25
 50
192.839588
 51
306.869898
1001
ACAD
1000
RTMaterial
1005
0
  0
ARC
  8
F01_OUT
  5
393
 10
21.0
 20
23.0
 30
0.0
 40
1.0
 50
67.811837
 51
90.0
1001
ACAD
1000
RTMaterial
1005
0
  0
ARC
  8
F01_OUT
  5
394
 10
-21.0
 20
23.0
 30
0.0
 40
1.0
 50
90.0
 51
112.188163
1001
ACAD
1000
RTMaterial
1005
0
  0
ARC
  8
F01_OUT
  5
395
 10
-17.5
 20
20.0
 30
0.0
 40
2.25
 50
12.839588
 51
53.130102
1001
ACAD
1000
RTMaterial
1005
0
  0
ARC
  8
F01_OUT
  5
396
 10
17.5
 20
20.0
 30
0.0
 40
2.25
 50
126.869898
 51
167.160412
1001
ACAD
1000
RTMaterial
1005
0
  0
ARC
  8
F01_OUT
  5
397
 10
17.5
 20
20.0
 30
0.0
 40
2.25
 50
12.839588
 51
126.869898
1001
ACAD
1000
RTMaterial
1005
0
  0
ARC
  8
F01_OUT
  5
398
 10
-17.5
 20
20.0
 30
0.0
 40
2.25
 50
53.130102
 51
167.160412
1001
ACAD
1000
RTMaterial
1005
0
  0
ARC
  8
F01_OUT
  5
399
 10
21.0
 20
-23.0
 30
0.0
 40
1.0
 50
270.0
 51
292.188163
1001
ACAD
1000
RTMaterial
1005
0
  0
ARC
  8
F01_OUT
  5
39A
 10
17.5
 20
-20.0
 30
0.0
 40
2.25
 50
300.737869
 51
347.160412
1001
ACAD
1000
RTMaterial
1005
0
  0
ARC
  8
F01_OUT
  5
39B
 10
17.5
 20
-20.0
 30
0.0
 40
2.25
 50
192.839588
 51
300.737869
1001
ACAD
1000
RTMaterial
1005
0
  0
ARC
  8
F01_OUT
  5
39C
 10
4.6
 20
21.1
 30
0.0
 40
0.4
 50
304.228866
 51
346.254379
1001
ACAD
1000
RTMaterial
1005
0
  0
ARC
  8
F01_OUT
  5
39D
 10
-4.6
 20
21.1
 30
0.0
 40
0.4
 50
193.745621
 51
235.771134
1001
ACAD
1000
RTMaterial
1005
0
  0
LINE
  8
F01_OUT
  5
39E
 10
4.825
 20
22.357958
 30
0.0
 11
6.5
 21
21.701389
 31
0.0
1001
ACAD
1000
RTMaterial
1005
0
  0
LINE
  8
F01_OUT
  5
39F
 10
4.825
 20
21.069061
 30
0.0
 11
6.276757
 21
20.5
 31
0.0
1001
ACAD
1000
RTMaterial
1005
0
  0
LINE
  8
F01_OUT
  5
3A0
 10
7.45
 20
21.329007
 30
0.0
 11
9.564917
 21
20.5
 31
0.0
1001
ACAD
1000
RTMaterial
1005
0
  0
LINE
  8
F01_OUT
  5
3A1
 10
-9.564917
 20
20.5
 30
0.0
 11
-7.45
 21
21.329007
 31
0.0
1001
ACAD
1000
RTMaterial
1005
0
  0
LINE
  8
F01_OUT
  5
3A2
 10
-6.276757
 20
20.5
 30
0.0
 11
-4.825
 21
21.069061
 31
0.0
1001
ACAD
1000
RTMaterial
1005
0
  0
LINE
  8
F01_OUT
  5
3A3
 10
-6.5
 20
21.701389
 30
0.0
 11
-4.825
 21
22.357958
 31
0.0
1001
ACAD
1000
RTMaterial
1005
0
  0
ARC
  8
F01_OUT
  5
3A4
 10
2.771281
 20
20.8
 30
0.0
 40
2.2
 50
143.622605
 51
150.0
1001
ACAD
1000
RTMaterial
1005
0
  0
ARC
  8
F01_OUT
  5
3A5
 10
0.0
 20
22.4
 30
0.0
 40
1.0
 50
210.0
 51
330.0
1001
ACAD
1000
RTMaterial
1005
0
  0
ARC
  8
F01_OUT
  5
3A6
 10
-2.771281
 20
20.8
 30
0.0
 40
2.2
 50
30.0
 51
36.377395
1001
ACAD
1000
RTMaterial
1005
0
  0
LINE
  8
F01_OUT
  5
3A7
 10
-3.875
 20
-20.5
 30
0.0
 11
-3.9
 21
-20.5
 31
0.0
1001
ACAD
1000
RTMaterial
1005
0
  0
LINE
  8
F01_OUT
  5
3A8
 10
4.2
 20
-20.5
 30
0.0
 11
3.9
 21
-20.5
 31
0.0
1001
ACAD
1000
RTMaterial
1005
0
  0
LINE
  8
F01_OUT
  5
3A9
 10
3.875
 20
-20.5
 30
0.0
 11
-3.875
 21
-20.5
 31
0.0
1001
ACAD
1000
RTMaterial
1005
0
  0
LINE
  8
F01_OUT
  5
3AA
 10
-1.75
 20
-11.5
 30
0.0
 11
-2.25
 21
-11.5
 31
0.0
1001
ACAD
1000
RTMaterial
1005
0
  0
LINE
  8
F01_OUT
  5
3AB
 10
-2.75
 20
-11.5
 30
0.0
 11
-4.2
 21
-11.5
 31
0.0
1001
ACAD
1000
RTMaterial
1005
0
  0
LINE
  8
F01_OUT
  5
3AC
 10
1.75
 20
-11.5
 30
0.0
 11
-1.75
 21
-11.5
 31
0.0
1001
ACAD
1000
RTMaterial
1005
0
  0
LINE
  8
F01_OUT
  5
3AD
 10
-3.9
 20
-20.5
 30
0.0
 11
-4.2
 21
-20.5
 31
0.0
1001
ACAD
1000
RTMaterial
1005
0
  0
LINE
  8
F01_OUT
  5
3AE
 10
-4.5
 20
-20.5
 30
0.0
 11
-4.2
 21
-20.5
 31
0.0
1001
ACAD
1000
RTMaterial
1005
0
  0
LINE
  8
F01_OUT
  5
3AF
 10
-4.2
 20
-20.5
 30
0.0
 11
-4.2
 21
-11.5
 31
0.0
1001
ACAD
1000
RTMaterial
1005
0
  0
LINE
  8
F01_OUT
  5
3B0
 10
-4.5
 20
-20.5
 30
0.0
 11
-4.5
 21
-11.5
 31
0.0
1001
ACAD
1000
RTMaterial
1005
0
  0
LINE
  8
F01_OUT
  5
3B1
 10
-4.5
 20
-11.5
 30
0.0
 11
-4.2
 21
-11.5
 31
0.0
1001
ACAD
1000
RTMaterial
1005
0
  0
LINE
  8
F01_OUT
  5
3B2
 10
-10.45
 20
-11.5
 30
0.0
 11
-10.7
 21
-11.5
 31
0.0
1001
ACAD
1000
RTMaterial
1005
0
  0
LINE
  8
F01_OUT
  5
3B3
 10
-6.95
 20
-11.5
 30
0.0
 11
-8.7
 21
-11.5
 31
0.0
1001
ACAD
1000
RTMaterial
1005
0
  0
LINE
  8
F01_OUT
  5
3B4
 10
-13.2
 20
-20.5
 30
0.0
 11
-13.2
 21
-11.5
 31
0.0
1001
ACAD
1000
RTMaterial
1005
0
  0
LINE
  8
F01_OUT
  5
3B5
 10
-21.4
 20
-11.5
 30
0.0
 11
-22.5
 21
-11.5
 31
0.0
1001
ACAD
1000
RTMaterial
1005
0
  0
LINE
  8
F01_OUT
  5
3B6
 10
-21.275
 20
-11.5
 30
0.0
 11
-21.4
 21
-11.5
 31
0.0
1001
ACAD
1000
RTMaterial
1005
0
  0
LINE
  8
F01_OUT
  5
3B7
 10
-21.275
 20
-20.5
 30
0.0
 11
-21.1
 21
-20.5
 31
0.0
1001
ACAD
1000
RTMaterial
1005
0
  0
LINE
  8
F01_OUT
  5
3B8
 10
-21.1
 20
-19.5
 30
0.0
 11
-21.275
 21
-19.5
 31
0.0
1001
ACAD
1000
RTMaterial
1005
0
  0
LINE
  8
F01_OUT
  5
3B9
 10
-21.1
 20
-19.5
 30
0.0
 11
-21.1
 21
-19.4
 31
0.0
1001
ACAD
1000
RTMaterial
1005
0
  0
LINE
  8
F01_OUT
  5
3BA
 10
-21.1
 20
-19.4
 30
0.0
 11
-22.5
 21
-19.4
 31
0.0
1001
ACAD
1000
RTMaterial
1005
0
  0
LINE
  8
F01_OUT
  5
3BB
 10
-20.15
 20
-11.5
 30
0.0
 11
-21.275
 21
-11.5
 31
0.0
1001
ACAD
1000
RTMaterial
1005
0
  0
LINE
  8
F01_OUT
  5
3BC
 10
-22.5
 20
-19.4
 30
0.0
 11
-22.5
 21
-18.5
 31
0.0
1001
ACAD
1000
RTMaterial
1005
0
  0
LINE
  8
F01_OUT
  5
3BD
 10
-22.5
 20
-18.5
 30
0.0
 11
-22.5
 21
-11.5
 31
0.0
1001
ACAD
1000
RTMaterial
1005
0
  0
LINE
  8
F01_OUT
  5
3BE
 10
-13.2
 20
-20.5
 30
0.0
 11
-13.525
 21
-20.5
 31
0.0
1001
ACAD
1000
RTMaterial
1005
0
  0
LINE
  8
F01_OUT
  5
3BF
 10
-13.525
 20
-20.5
 30
0.0
 11
-14.377501
 21
-20.5
 31
0.0
1001
ACAD
1000
RTMaterial
1005
0
  0
LINE
  8
F01_OUT
  5
3C0
 10
-14.377501
 20
-20.5
 30
0.0
 11
-15.987353
 21
-20.5
 31
0.0
1001
ACAD
1000
RTMaterial
1005
0
  0
LINE
  8
F01_OUT
  5
3C1
 10
-19.012647
 20
-20.5
 30
0.0
 11
-21.1
 21
-20.5
 31
0.0
1001
ACAD
1000
RTMaterial
1005
0
  0
LINE
  8
F01_OUT
  5
3C2
 10
-15.987353
 20
-20.5
 30
0.0
 11
-19.012647
 21
-20.5
 31
0.0
1001
ACAD
1000
RTMaterial
1005
0
  0
LINE
  8
F01_OUT
  5
3C3
 10
-19.15
 20
-11.5
 30
0.0
 11
-19.65
 21
-11.5
 31
0.0
1001
ACAD
1000
RTMaterial
1005
0
  0
LINE
  8
F01_OUT
  5
3C4
 10
-19.65
 20
-11.5
 30
0.0
 11
-20.15
 21
-11.5
 31
0.0
1001
ACAD
1000
RTMaterial
1005
0
  0
LINE
  8
F01_OUT
  5
3C5
 10
-21.1
 20
-20.5
 30
0.0
 11
-21.1
 21
-19.5
 31
0.0
1001
ACAD
1000
RTMaterial
1005
0
  0
LINE
  8
F01_OUT
  5
3C6
 10
-13.0
 20
-20.5
 30
0.0
 11
-12.9
 21
-20.5
 31
0.0
1001
ACAD
1000
RTMaterial
1005
0
  0
LINE
  8
F01_OUT
  5
3C7
 10
-13.2
 20
-20.5
 30
0.0
 11
-13.0
 21
-20.5
 31
0.0
1001
ACAD
1000
RTMaterial
1005
0
  0
LINE
  8
F01_OUT
  5
3C8
 10
-12.575
 20
-20.5
 30
0.0
 11
-12.9
 21
-20.5
 31
0.0
1001
ACAD
1000
RTMaterial
1005
0
  0
LINE
  8
F01_OUT
  5
3C9
 10
-12.9
 20
-20.5
 30
0.0
 11
-12.9
 21
-11.5
 31
0.0
1001
ACAD
1000
RTMaterial
1005
0
  0
LINE
  8
F01_OUT
  5
3CA
 10
-15.65
 20
-11.5
 30
0.0
 11
-19.15
 21
-11.5
 31
0.0
1001
ACAD
1000
RTMaterial
1005
0
  0
LINE
  8
F01_OUT
  5
3CB
 10
-14.65
 20
-11.5
 30
0.0
 11
-15.15
 21
-11.5
 31
0.0
1001
ACAD
1000
RTMaterial
1005
0
  0
LINE
  8
F01_OUT
  5
3CC
 10
-13.2
 20
-11.5
 30
0.0
 11
-12.9
 21
-11.5
 31
0.0
1001
ACAD
1000
RTMaterial
1005
0
  0
LINE
  8
F01_OUT
  5
3CD
 10
-13.2
 20
-11.5
 30
0.0
 11
-14.65
 21
-11.5
 31
0.0
1001
ACAD
1000
RTMaterial
1005
0
  0
LINE
  8
F01_OUT
  5
3CE
 10
-15.591391
 20
-11.5
 30
0.0
 11
-15.65
 21
-11.5
 31
0.0
1001
ACAD
1000
RTMaterial
1005
0
  0
LINE
  8
F01_OUT
  5
3CF
 10
-15.15
 20
-11.5
 30
0.0
 11
-15.591391
 21
-11.5
 31
0.0
1001
ACAD
1000
RTMaterial
1005
0
  0
LINE
  8
F01_OUT
  5
3D0
 10
21.1
 20
-20.5
 30
0.0
 11
21.275
 21
-20.5
 31
0.0
1001
ACAD
1000
RTMaterial
1005
0
  0
LINE
  8
F01_OUT
  5
3D1
 10
21.275
 20
-19.5
 30
0.0
 11
21.1
 21
-19.5
 31
0.0
1001
ACAD
1000
RTMaterial
1005
0
  0
LINE
  8
F01_OUT
  5
3D2
 10
22.5
 20
-19.4
 30
0.0
 11
21.1
 21
-19.4
 31
0.0
1001
ACAD
1000
RTMaterial
1005
0
  0
LINE
  8
F01_OUT
  5
3D3
 10
21.275
 20
-11.5
 30
0.0
 11
20.36038
 21
-11.5
 31
0.0
1001
ACAD
1000
RTMaterial
1005
0
  0
LINE
  8
F01_OUT
  5
3D4
 10
22.5
 20
-11.5
 30
0.0
 11
21.4
 21
-11.5
 31
0.0
1001
ACAD
1000
RTMaterial
1005
0
  0
LINE
  8
F01_OUT
  5
3D5
 10
15.8
 20
-11.5
 30
0.0
 11
13.2
 21
-11.5
 31
0.0
1001
ACAD
1000
RTMaterial
1005
0
  0
LINE
  8
F01_OUT
  5
3D6
 10
21.4
 20
-11.5
 30
0.0
 11
21.275
 21
-11.5
 31
0.0
1001
ACAD
1000
RTMaterial
1005
0
  0
LINE
  8
F01_OUT
  5
3D7
 10
22.5
 20
-19.4
 30
0.0
 11
22.5
 21
-18.5
 31
0.0
1001
ACAD
1000
RTMaterial
1005
0
  0
LINE
  8
F01_OUT
  5
3D8
 10
22.5
 20
-18.5
 30
0.0
 11
22.5
 21
-11.5
 31
0.0
1001
ACAD
1000
RTMaterial
1005
0
  0
LINE
  8
F01_OUT
  5
3D9
 10
21.1
 20
-20.5
 30
0.0
 11
19.012647
 21
-20.5
 31
0.0
1001
ACAD
1000
RTMaterial
1005
0
  0
LINE
  8
F01_OUT
  5
3DA
 10
19.012647
 20
-20.5
 30
0.0
 11
15.987353
 21
-20.5
 31
0.0
1001
ACAD
1000
RTMaterial
1005
0
  0
LINE
  8
F01_OUT
  5
3DB
 10
21.1
 20
-19.5
 30
0.0
 11
21.1
 21
-19.4
 31
0.0
1001
ACAD
1000
RTMaterial
1005
0
  0
LINE
  8
F01_OUT
  5
3DC
 10
21.1
 20
-20.5
 30
0.0
 11
21.1
 21
-19.5
 31
0.0
1001
ACAD
1000
RTMaterial
1005
0
  0
LINE
  8
F01_OUT
  5
3DD
 10
7.45
 20
-20.5
 30
0.0
 11
5.9
 21
-20.5
 31
0.0
1001
ACAD
1000
RTMaterial
1005
0
  0
LINE
  8
F01_OUT
  5
3DE
 10
12.5
 20
-20.5
 30
0.0
 11
12.2
 21
-20.5
 31
0.0
1001
ACAD
1000
RTMaterial
1005
0
  0
LINE
  8
F01_OUT
  5
3DF
 10
12.9
 20
-20.5
 30
0.0
 11
12.575
 21
-20.5
 31
0.0
1001
ACAD
1000
RTMaterial
1005
0
  0
LINE
  8
F01_OUT
  5
3E0
 10
12.575
 20
-20.5
 30
0.0
 11
12.5
 21
-20.5
 31
0.0
1001
ACAD
1000
RTMaterial
1005
0
  0
LINE
  8
F01_OUT
  5
3E1
 10
4.9
 20
-20.5
 30
0.0
 11
4.825
 21
-20.5
 31
0.0
1001
ACAD
1000
RTMaterial
1005
0
  0
LINE
  8
F01_OUT
  5
3E2
 10
4.825
 20
-20.5
 30
0.0
 11
4.5
 21
-20.5
 31
0.0
1001
ACAD
1000
RTMaterial
1005
0
  0
LINE
  8
F01_OUT
  5
3E3
 10
5.9
 20
-20.5
 30
0.0
 11
4.9
 21
-20.5
 31
0.0
1001
ACAD
1000
RTMaterial
1005
0
  0
LINE
  8
F01_OUT
  5
3E4
 10
12.2
 20
-20.5
 30
0.0
 11
11.2
 21
-20.5
 31
0.0
1001
ACAD
1000
RTMaterial
1005
0
  0
LINE
  8
F01_OUT
  5
3E5
 10
11.2
 20
-20.5
 30
0.0
 11
7.45
 21
-20.5
 31
0.0
1001
ACAD
1000
RTMaterial
1005
0
  0
LINE
  8
F01_OUT
  5
3E6
 10
15.987353
 20
-20.5
 30
0.0
 11
14.377501
 21
-20.5
 31
0.0
1001
ACAD
1000
RTMaterial
1005
0
  0
LINE
  8
F01_OUT
  5
3E7
 10
12.9
 20
-20.5
 30
0.0
 11
13.0
 21
-20.5
 31
0.0
1001
ACAD
1000
RTMaterial
1005
0
  0
LINE
  8
F01_OUT
  5
3E8
 10
13.0
 20
-20.5
 30
0.0
 11
13.2
 21
-20.5
 31
0.0
1001
ACAD
1000
RTMaterial
1005
0
  0
LINE
  8
F01_OUT
  5
3E9
 10
13.525
 20
-20.5
 30
0.0
 11
13.2
 21
-20.5
 31
0.0
1001
ACAD
1000
RTMaterial
1005
0
  0
LINE
  8
F01_OUT
  5
3EA
 10
14.377501
 20
-20.5
 30
0.0
 11
13.525
 21
-20.5
 31
0.0
1001
ACAD
1000
RTMaterial
1005
0
  0
LINE
  8
F01_OUT
  5
3EB
 10
13.2
 20
-20.5
 30
0.0
 11
13.2
 21
-11.5
 31
0.0
1001
ACAD
1000
RTMaterial
1005
0
  0
LINE
  8
F01_OUT
  5
3EC
 10
4.5
 20
-20.5
 30
0.0
 11
4.5
 21
-11.5
 31
0.0
1001
ACAD
1000
RTMaterial
1005
0
  0
LINE
  8
F01_OUT
  5
3ED
 10
4.2
 20
-20.5
 30
0.0
 11
4.2
 21
-11.5
 31
0.0
1001
ACAD
1000
RTMaterial
1005
0
  0
LINE
  8
F01_OUT
  5
3EE
 10
12.9
 20
-20.5
 30
0.0
 11
12.9
 21
-11.5
 31
0.0
1001
ACAD
1000
RTMaterial
1005
0
  0
LINE
  8
F01_OUT
  5
3EF
 10
3.9
 20
-20.5
 30
0.0
 11
3.875
 21
-20.5
 31
0.0
1001
ACAD
1000
RTMaterial
1005
0
  0
LINE
  8
F01_OUT
  5
3F0
 10
4.2
 20
-20.5
 30
0.0
 11
4.5
 21
-20.5
 31
0.0
1001
ACAD
1000
RTMaterial
1005
0
  0
LINE
  8
F01_OUT
  5
3F1
 10
11.45
 20
-11.5
 30
0.0
 11
10.95
 21
-11.5
 31
0.0
1001
ACAD
1000
RTMaterial
1005
0
  0
LINE
  8
F01_OUT
  5
3F2
 10
10.95
 20
-11.5
 30
0.0
 11
10.7
 21
-11.5
 31
0.0
1001
ACAD
1000
RTMaterial
1005
0
  0
LINE
  8
F01_OUT
  5
3F3
 10
12.9
 20
-11.5
 30
0.0
 11
11.45
 21
-11.5
 31
0.0
1001
ACAD
1000
RTMaterial
1005
0
  0
LINE
  8
F01_OUT
  5
3F4
 10
19.0
 20
-11.5
 30
0.0
 11
15.8
 21
-11.5
 31
0.0
1001
ACAD
1000
RTMaterial
1005
0
  0
LINE
  8
F01_OUT
  5
3F5
 10
12.9
 20
-11.5
 30
0.0
 11
13.2
 21
-11.5
 31
0.0
1001
ACAD
1000
RTMaterial
1005
0
  0
LINE
  8
F01_OUT
  5
3F6
 10
20.36038
 20
-11.5
 30
0.0
 11
19.0
 21
-11.5
 31
0.0
1001
ACAD
1000
RTMaterial
1005
0
  0
LINE
  8
F01_OUT
  5
3F7
 10
10.7
 20
-11.5
 30
0.0
 11
10.45
 21
-11.5
 31
0.0
1001
ACAD
1000
RTMaterial
1005
0
  0
LINE
  8
F01_OUT
  5
3F8
 10
2.75
 20
-11.5
 30
0.0
 11
2.25
 21
-11.5
 31
0.0
1001
ACAD
1000
RTMaterial
1005
0
  0
LINE
  8
F01_OUT
  5
3F9
 10
6.95
 20
-11.5
 30
0.0
 11
6.45
 21
-11.5
 31
0.0
1001
ACAD
1000
RTMaterial
1005
0
  0
LINE
  8
F01_OUT
  5
3FA
 10
8.7
 20
-11.5
 30
0.0
 11
6.95
 21
-11.5
 31
0.0
1001
ACAD
1000
RTMaterial
1005
0
  0
LINE
  8
F01_OUT
  5
3FB
 10
5.95
 20
-11.5
 30
0.0
 11
4.5
 21
-11.5
 31
0.0
1001
ACAD
1000
RTMaterial
1005
0
  0
LINE
  8
F01_OUT
  5
3FC
 10
4.2
 20
-11.5
 30
0.0
 11
4.5
 21
-11.5
 31
0.0
1001
ACAD
1000
RTMaterial
1005
0
  0
LINE
  8
F01_OUT
  5
3FD
 10
4.2
 20
-11.5
 30
0.0
 11
2.75
 21
-11.5
 31
0.0
1001
ACAD
1000
RTMaterial
1005
0
  0
LINE
  8
F01_OUT
  5
3FE
 10
6.45
 20
-11.5
 30
0.0
 11
5.95
 21
-11.5
 31
0.0
1001
ACAD
1000
RTMaterial
1005
0
  0
LINE
  8
F01_OUT
  5
3FF
 10
10.45
 20
-11.5
 30
0.0
 11
8.7
 21
-11.5
 31
0.0
1001
ACAD
1000
RTMaterial
1005
0
  0
LINE
  8
F01_OUT
  5
400
 10
-11.45
 20
-11.5
 30
0.0
 11
-12.9
 21
-11.5
 31
0.0
1001
ACAD
1000
RTMaterial
1005
0
  0
LINE
  8
F01_OUT
  5
401
 10
-11.2
 20
-20.5
 30
0.0
 11
-12.2
 21
-20.5
 31
0.0
1001
ACAD
1000
RTMaterial
1005
0
  0
LINE
  8
F01_OUT
  5
402
 10
-12.2
 20
-20.5
 30
0.0
 11
-12.5
 21
-20.5
 31
0.0
1001
ACAD
1000
RTMaterial
1005
0
  0
LINE
  8
F01_OUT
  5
403
 10
-12.5
 20
-20.5
 30
0.0
 11
-12.575
 21
-20.5
 31
0.0
1001
ACAD
1000
RTMaterial
1005
0
  0
LINE
  8
F01_OUT
  5
404
 10
-7.45
 20
-20.5
 30
0.0
 11
-11.2
 21
-20.5
 31
0.0
1001
ACAD
1000
RTMaterial
1005
0
  0
LINE
  8
F01_OUT
  5
405
 10
-4.5
 20
-20.5
 30
0.0
 11
-4.825
 21
-20.5
 31
0.0
1001
ACAD
1000
RTMaterial
1005
0
  0
LINE
  8
F01_OUT
  5
406
 10
-5.9
 20
-20.5
 30
0.0
 11
-7.45
 21
-20.5
 31
0.0
1001
ACAD
1000
RTMaterial
1005
0
  0
LINE
  8
F01_OUT
  5
407
 10
-4.825
 20
-20.5
 30
0.0
 11
-4.9
 21
-20.5
 31
0.0
1001
ACAD
1000
RTMaterial
1005
0
  0
LINE
  8
F01_OUT
  5
408
 10
-4.9
 20
-20.5
 30
0.0
 11
-5.9
 21
-20.5
 31
0.0
1001
ACAD
1000
RTMaterial
1005
0
  0
LINE
  8
F01_OUT
  5
409
 10
-10.7
 20
-11.5
 30
0.0
 11
-10.95
 21
-11.5
 31
0.0
1001
ACAD
1000
RTMaterial
1005
0
  0
LINE
  8
F01_OUT
  5
40A
 10
2.25
 20
-11.5
 30
0.0
 11
1.75
 21
-11.5
 31
0.0
1001
ACAD
1000
RTMaterial
1005
0
  0
LINE
  8
F01_OUT
  5
40B
 10
-10.95
 20
-11.5
 30
0.0
 11
-11.45
 21
-11.5
 31
0.0
1001
ACAD
1000
RTMaterial
1005
0
  0
LINE
  8
F01_OUT
  5
40C
 10
-2.25
 20
-11.5
 30
0.0
 11
-2.75
 21
-11.5
 31
0.0
1001
ACAD
1000
RTMaterial
1005
0
  0
LINE
  8
F01_OUT
  5
40D
 10
-6.45
 20
-11.5
 30
0.0
 11
-6.95
 21
-11.5
 31
0.0
1001
ACAD
1000
RTMaterial
1005
0
  0
LINE
  8
F01_OUT
  5
40E
 10
-5.95
 20
-11.5
 30
0.0
 11
-6.45
 21
-11.5
 31
0.0
1001
ACAD
1000
RTMaterial
1005
0
  0
LINE
  8
F01_OUT
  5
40F
 10
-4.5
 20
-11.5
 30
0.0
 11
-5.95
 21
-11.5
 31
0.0
1001
ACAD
1000
RTMaterial
1005
0
  0
LINE
  8
F01_OUT
  5
410
 10
-8.7
 20
-11.5
 30
0.0
 11
-10.45
 21
-11.5
 31
0.0
1001
ACAD
1000
RTMaterial
1005
0
  0
CIRCLE
  8
F01_OUT
  5
411
 10
-17.4
 20
15.5
 30
0.0
 40
3.0
1001
ACAD
1000
RTMaterial
1005
0
  0
LINE
  8
F01_OUT
  5
412
 10
-122.664428
 20
-17.05
 30
0.0
 11
-122.664428
 21
-17.65
 31
0.0
1001
ACAD
1000
RTMaterial
1005
0
  0
LINE
  8
F01_OUT
  5
413
 10
-122.664428
 20
15.699999
 30
0.0
 11
-122.664428
 21
-17.05
 31
0.0
1001
ACAD
1000
RTMaterial
1005
0
  0
LINE
  8
F01_OUT
  5
414
 10
-123.864428
 20
-17.65
 30
0.0
 11
-122.664428
 21
-17.65
 31
0.0
1001
ACAD
1000
RTMaterial
1005
0
  0
LINE
  8
F01_OUT
  5
415
 10
-123.964428
 20
-17.05
 30
0.0
 11
-122.664428
 21
-17.05
 31
0.0
1001
ACAD
1000
RTMaterial
1005
0
  0
LINE
  8
F01_OUT
  5
416
 10
-125.664428
 20
-20.5
 30
0.0
 11
-125.664428
 21
-24.0
 31
0.0
1001
ACAD
1000
RTMaterial
1005
0
  0
LINE
  8
F01_OUT
  5
417
 10
-125.664428
 20
-20.0
 30
0.0
 11
-125.664428
 21
-20.5
 31
0.0
1001
ACAD
1000
RTMaterial
1005
0
  0
LINE
  8
F01_OUT
  5
418
 10
-125.664428
 20
-17.65
 30
0.0
 11
-125.664428
 21
-20.0
 31
0.0
1001
ACAD
1000
RTMaterial
1005
0
  0
LINE
  8
F01_OUT
  5
419
 10
-124.864428
 20
-16.45
 30
0.0
 11
-124.064428
 21
-16.45
 31
0.0
1001
ACAD
1000
RTMaterial
1005
0
  0
LINE
  8
F01_OUT
  5
41A
 10
-125.664428
 20
-17.65
 30
0.0
 11
-124.864428
 21
-16.45
 31
0.0
1001
ACAD
1000
RTMaterial
1005
0
  0
LINE
  8
F01_OUT
  5
41B
 10
-123.964428
 20
-17.05
 30
0.0
 11
-124.064428
 21
-16.45
 31
0.0
1001
ACAD
1000
RTMaterial
1005
0
  0
LINE
  8
F01_OUT
  5
41C
 10
-123.864428
 20
-17.65
 30
0.0
 11
-123.964428
 21
-17.05
 31
0.0
1001
ACAD
1000
RTMaterial
1005
0
  0
LINE
  8
F01_OUT
  5
41D
 10
-125.664428
 20
-24.0
 30
0.0
 11
-120.164428
 21
-24.0
 31
0.0
1001
ACAD
1000
RTMaterial
1005
0
  0
LINE
  8
F01_OUT
  5
41E
 10
-119.664428
 20
-23.0
 30
0.0
 11
-119.664428
 21
-23.5
 31
0.0
1001
ACAD
1000
RTMaterial
1005
0
  0
LINE
  8
F01_OUT
  5
41F
 10
-119.664428
 20
-20.5
 30
0.0
 11
-119.664428
 21
-23.0
 31
0.0
1001
ACAD
1000
RTMaterial
1005
0
  0
LINE
  8
F01_OUT
  5
420
 10
-105.164428
 20
-16.0
 30
0.0
 11
-104.86058
 21
-16.0
 31
0.0
1001
ACAD
1000
RTMaterial
1005
0
  0
LINE
  8
F01_OUT
  5
421
 10
-106.164428
 20
-17.0
 30
0.0
 11
-106.164428
 21
-17.5
 31
0.0
1001
ACAD
1000
RTMaterial
1005
0
  0
LINE
  8
F01_OUT
  5
422
 10
-106.164428
 20
-16.0
 30
0.0
 11
-106.164428
 21
-17.0
 31
0.0
1001
ACAD
1000
RTMaterial
1005
0
  0
LINE
  8
F01_OUT
  5
423
 10
-106.164428
 20
-16.0
 30
0.0
 11
-105.164428
 21
-16.0
 31
0.0
1001
ACAD
1000
RTMaterial
1005
0
  0
LINE
  8
F01_OUT
  5
424
 10
-119.664428
 20
-16.0
 30
0.0
 11
-106.164428
 21
-16.0
 31
0.0
1001
ACAD
1000
RTMaterial
1005
0
  0
LINE
  8
F01_OUT
  5
425
 10
-104.42135
 20
-16.25359
 30
0.0
 11
-104.86058
 21
-16.0
 31
0.0
1001
ACAD
1000
RTMaterial
1005
0
  0
LINE
  8
F01_OUT
  5
426
 10
-119.664428
 20
-19.585787
 30
0.0
 11
-119.664428
 21
-20.5
 31
0.0
1001
ACAD
1000
RTMaterial
1005
0
  0
LINE
  8
F01_OUT
  5
427
 10
-119.664428
 20
-19.085787
 30
0.0
 11
-119.664428
 21
-19.585787
 31
0.0
1001
ACAD
1000
RTMaterial
1005
0
  0
LINE
  8
F01_OUT
  5
428
 10
-119.664428
 20
-19.085787
 30
0.0
 11
-119.664428
 21
-16.0
 31
0.0
1001
ACAD
1000
RTMaterial
1005
0
  0
LINE
  8
F01_OUT
  5
429
 10
-99.664428
 20
-20.5
 30
0.0
 11
-99.664428
 21
-19.0
 31
0.0
1001
ACAD
1000
RTMaterial
1005
0
  0
LINE
  8
F01_OUT
  5
42A
 10
-98.664428
 20
-20.5
 30
0.0
 11
-98.664428
 21
20.5
 31
0.0
1001
ACAD
1000
RTMaterial
1005
0
  0
LINE
  8
F01_OUT
  5
42B
 10
-99.664428
 20
-20.5
 30
0.0
 11
-119.664428
 21
-20.5
 31
0.0
1001
ACAD
1000
RTMaterial
1005
0
  0
LINE
  8
F01_OUT
  5
42C
 10
-97.664428
 20
-20.5
 30
0.0
 11
-98.664428
 21
-20.5
 31
0.0
1001
ACAD
1000
RTMaterial
1005
0
  0
LINE
  8
F01_OUT
  5
42D
 10
-98.664428
 20
-20.5
 30
0.0
 11
-99.664428
 21
-20.5
 31
0.0
1001
ACAD
1000
RTMaterial
1005
0
  0
LINE
  8
F01_OUT
  5
42E
 10
-96.164428
 20
-20.5
 30
0.0
 11
-97.664428
 21
-20.5
 31
0.0
1001
ACAD
1000
RTMaterial
1005
0
  0
LINE
  8
F01_OUT
  5
42F
 10
-105.664428
 20
-18.0
 30
0.0
 11
-101.396479
 21
-18.0
 31
0.0
1001
ACAD
1000
RTMaterial
1005
0
  0
LINE
  8
F01_OUT
  5
430
 10
-98.664428
 20
-19.0
 30
0.0
 11
-99.664428
 21
-19.0
 31
0.0
1001
ACAD
1000
RTMaterial
1005
0
  0
LINE
  8
F01_OUT
  5
431
 10
-105.664428
 20
-18.0
 30
0.0
 11
-106.164428
 21
-17.5
 31
0.0
1001
ACAD
1000
RTMaterial
1005
0
  0
LINE
  8
F01_OUT
  5
432
 10
-104.62135
 20
-17.0
 30
0.0
 11
-105.164428
 21
-17.0
 31
0.0
1001
ACAD
1000
RTMaterial
1005
0
  0
LINE
  8
F01_OUT
  5
433
 10
-105.164428
 20
-17.0
 30
0.0
 11
-106.164428
 21
-17.0
 31
0.0
1001
ACAD
1000
RTMaterial
1005
0
  0
LINE
  8
F01_OUT
  5
434
 10
-101.396479
 20
-18.0
 30
0.0
 11
-99.664428
 21
-19.0
 31
0.0
1001
ACAD
1000
RTMaterial
1005
0
  0
LINE
  8
F01_OUT
  5
435
 10
-120.164428
 20
24.0
 30
0.0
 11
-125.664428
 21
24.0
 31
0.0
1001
ACAD
1000
RTMaterial
1005
0
  0
LINE
  8
F01_OUT
  5
437
 10
-119.664428
 20
23.0
 30
0.0
 11
-119.664428
 21
23.5
 31
0.0
1001
ACAD
1000
RTMaterial
1005
0
  0
LINE
  8
F01_OUT
  5
438
 10
-119.664428
 20
20.5
 30
0.0
 11
-119.664428
 21
23.0
 31
0.0
1001
ACAD
1000
RTMaterial
1005
0
  0
LINE
  8
F01_OUT
  5
439
 10
-122.464428
 20
19.0
 30
0.0
 11
-122.514428
 21
19.0
 31
0.0
1001
ACAD
1000
RTMaterial
1005
0
  0
LINE
  8
F01_OUT
  5
43A
 10
-122.514428
 20
19.0
 30
0.0
 11
-123.564428
 21
19.0
 31
0.0
1001
ACAD
1000
RTMaterial
1005
0
  0
LINE
  8
F01_OUT
  5
43B
 10
-122.264428
 20
17.19282
 30
0.0
 11
-122.264428
 21
18.8
 31
0.0
1001
ACAD
1000
RTMaterial
1005
0
  0
LINE
  8
F01_OUT
  5
43C
 10
-122.264428
 20
18.8
 30
0.0
 11
-122.264428
 21
19.0
 31
0.0
1001
ACAD
1000
RTMaterial
1005
0
  0
LINE
  8
F01_OUT
  5
43D
 10
-123.764428
 20
19.0
 30
0.0
 11
-123.764428
 21
18.8
 31
0.0
1001
ACAD
1000
RTMaterial
1005
0
  0
LINE
  8
F01_OUT
  5
43E
 10
-123.764428
 20
18.8
 30
0.0
 11
-123.764428
 21
17.1
 31
0.0
1001
ACAD
1000
RTMaterial
1005
0
  0
LINE
  8
F01_OUT
  5
43F
 10
-125.664428
 20
15.7
 30
0.0
 11
-125.664428
 21
24.0
 31
0.0
1001
ACAD
1000
RTMaterial
1005
0
  0
LINE
  8
F01_OUT
  5
442
 10
-122.664428
 20
15.699999
 30
0.0
 11
-122.264428
 21
17.19282
 31
0.0
1001
ACAD
1000
RTMaterial
1005
0
  0
LINE
  8
F01_OUT
  5
443
 10
-125.664428
 20
15.7
 30
0.0
 11
-124.744718
 21
15.7
 31
0.0
1001
ACAD
1000
RTMaterial
1005
0
  0
LINE
  8
F01_OUT
  5
444
 10
-123.764428
 20
17.1
 30
0.0
 11
-124.744718
 21
15.7
 31
0.0
1001
ACAD
1000
RTMaterial
1005
0
  0
LINE
  8
F01_OUT
  5
445
 10
-97.664428
 20
20.5
 30
0.0
 11
-98.664428
 21
20.5
 31
0.0
1001
ACAD
1000
RTMaterial
1005
0
  0
LINE
  8
F01_OUT
  5
446
 10
-97.664428
 20
20.5
 30
0.0
 11
-96.164428
 21
20.5
 31
0.0
1001
ACAD
1000
RTMaterial
1005
0
  0
LINE
  8
F01_OUT
  5
447
 10
-106.164428
 20
17.5
 30
0.0
 11
-106.164428
 21
17.0
 31
0.0
1001
ACAD
1000
RTMaterial
1005
0
  0
LINE
  8
F01_OUT
  5
448
 10
-106.164428
 20
17.5
 30
0.0
 11
-105.664428
 21
18.0
 31
0.0
1001
ACAD
1000
RTMaterial
1005
0
  0
LINE
  8
F01_OUT
  5
449
 10
-104.86058
 20
16.0
 30
0.0
 11
-104.42135
 21
16.253589
 31
0.0
1001
ACAD
1000
RTMaterial
1005
0
  0
LINE
  8
F01_OUT
  5
44A
 10
-106.164428
 20
17.0
 30
0.0
 11
-106.164428
 21
16.0
 31
0.0
1001
ACAD
1000
RTMaterial
1005
0
  0
LINE
  8
F01_OUT
  5
44B
 10
-119.664428
 20
16.0
 30
0.0
 11
-106.164428
 21
16.0
 31
0.0
1001
ACAD
1000
RTMaterial
1005
0
  0
LINE
  8
F01_OUT
  5
44C
 10
-119.664428
 20
16.0
 30
0.0
 11
-119.664428
 21
19.085786
 31
0.0
1001
ACAD
1000
RTMaterial
1005
0
  0
LINE
  8
F01_OUT
  5
44D
 10
-119.664428
 20
20.5
 30
0.0
 11
-99.664428
 21
20.5
 31
0.0
1001
ACAD
1000
RTMaterial
1005
0
  0
LINE
  8
F01_OUT
  5
44E
 10
-99.664428
 20
20.5
 30
0.0
 11
-98.664428
 21
20.5
 31
0.0
1001
ACAD
1000
RTMaterial
1005
0
  0
LINE
  8
F01_OUT
  5
44F
 10
-99.664428
 20
20.5
 30
0.0
 11
-99.664428
 21
19.0
 31
0.0
1001
ACAD
1000
RTMaterial
1005
0
  0
LINE
  8
F01_OUT
  5
450
 10
-119.664428
 20
20.5
 30
0.0
 11
-119.664428
 21
19.585786
 31
0.0
1001
ACAD
1000
RTMaterial
1005
0
  0
LINE
  8
F01_OUT
  5
451
 10
-119.664428
 20
19.585786
 30
0.0
 11
-119.664428
 21
19.085786
 31
0.0
1001
ACAD
1000
RTMaterial
1005
0
  0
LINE
  8
F01_OUT
  5
452
 10
-105.164428
 20
17.0
 30
0.0
 11
-104.62135
 21
17.0
 31
0.0
1001
ACAD
1000
RTMaterial
1005
0
  0
LINE
  8
F01_OUT
  5
453
 10
-106.164428
 20
17.0
 30
0.0
 11
-105.164428
 21
17.0
 31
0.0
1001
ACAD
1000
RTMaterial
1005
0
  0
LINE
  8
F01_OUT
  5
454
 10
-105.664428
 20
18.0
 30
0.0
 11
-101.396479
 21
18.0
 31
0.0
1001
ACAD
1000
RTMaterial
1005
0
  0
LINE
  8
F01_OUT
  5
455
 10
-105.164428
 20
16.0
 30
0.0
 11
-104.86058
 21
16.0
 31
0.0
1001
ACAD
1000
RTMaterial
1005
0
  0
LINE
  8
F01_OUT
  5
456
 10
-106.164428
 20
16.0
 30
0.0
 11
-105.164428
 21
16.0
 31
0.0
1001
ACAD
1000
RTMaterial
1005
0
  0
LINE
  8
F01_OUT
  5
457
 10
-98.664428
 20
19.0
 30
0.0
 11
-99.664428
 21
19.0
 31
0.0
1001
ACAD
1000
RTMaterial
1005
0
  0
LINE
  8
F01_OUT
  5
458
 10
-99.664428
 20
19.0
 30
0.0
 11
-101.396479
 21
18.0
 31
0.0
1001
ACAD
1000
RTMaterial
1005
0
  0
ARC
  8
F01_OUT
  5
459
 10
-120.164428
 20
-23.5
 30
0.0
 40
0.5
 50
270.0
 51
0.0
1001
ACAD
1000
RTMaterial
1005
0
  0
ARC
  8
F01_OUT
  5
45A
 10
-104.62135
 20
-16.6
 30
0.0
 40
0.4
 50
270.0
 51
60.0
1001
ACAD
1000
RTMaterial
1005
0
  0
ARC
  8
F01_OUT
  5
45B
 10
-120.164428
 20
23.5
 30
0.0
 40
0.5
 50
0.0
 51
90.0
1001
ACAD
1000
RTMaterial
1005
0
  0
ARC
  8
F01_OUT
  5
45C
 10
-122.464428
 20
18.8
 30
0.0
 40
0.2
 50
0.0
 51
90.0
1001
ACAD
1000
RTMaterial
1005
0
  0
ARC
  8
F01_OUT
  5
45D
 10
-123.564428
 20
18.8
 30
0.0
 40
0.2
 50
90.0
 51
180.0
1001
ACAD
1000
RTMaterial
1005
0
  0
ARC
  8
F01_OUT
  5
45E
 10
-123.014428
 20
19.0
 30
0.0
 40
0.75
 50
0.0
 51
180.0
1001
ACAD
1000
RTMaterial
1005
0
  0
ARC
  8
F01_OUT
  5
45F
 10
-104.62135
 20
16.6
 30
0.0
 40
0.4
 50
300.0
 51
90.0
1001
ACAD
1000
RTMaterial
1005
0
  0
LINE
  8
F01_OUT
  5
460
 10
-122.514428
 20
16.8
 30
0.0
 11
-122.514428
 21
16.910353
 31
0.0
1001
ACAD
1000
RTMaterial
1005
0
  0
LINE
  8
F01_OUT
  5
461
 10
-123.714428
 20
16.8
 30
0.0
 11
-123.714428
 21
16.910353
 31
0.0
1001
ACAD
1000
RTMaterial
1005
0
  0
LINE
  8
F01_OUT
  5
462
 10
-123.714428
 20
16.910353
 30
0.0
 11
-123.714428
 21
18.932287
 31
0.0
1001
ACAD
1000
RTMaterial
1005
0
  0
LINE
  8
F01_OUT
  5
463
 10
-122.514428
 20
16.910353
 30
0.0
 11
-122.514428
 21
19.0
 31
0.0
1001
ACAD
1000
RTMaterial
1005
0
  0
ARC
  8
F01_OUT
  5
464
 10
-123.114428
 20
16.8
 30
0.0
 40
0.6
 50
90.0
 51
180.0
1001
ACAD
1000
RTMaterial
1005
0
  0
ARC
  8
F01_OUT
  5
465
 10
-123.114428
 20
16.8
 30
0.0
 40
0.6
 50
0.0
 51
90.0
1001
ACAD
1000
RTMaterial
1005
0
  0
ARC
  8
F01_OUT
  5
466
 10
-123.114428
 20
16.8
 30
0.0
 40
0.6
 50
180.0
 51
0.0
1001
ACAD
1000
RTMaterial
1005
0
  0
ARC
  8
F01_OUT
  5
467
 10
-78.464428
 20
-9.5
 30
0.0
 40
0.5
 50
0.0
 51
90.0
1001
ACAD
1000
RTMaterial
1005
0
  0
ARC
  8
F01_OUT
  5
468
 10
-78.464428
 20
9.5
 30
0.0
 40
0.5
 50
270.0
 51
0.0
1001
ACAD
1000
RTMaterial
1005
0
  0
ARC
  8
F01_OUT
  5
469
 10
-94.459279
 20
23.0
 30
0.0
 40
1.0
 50
90.0
 51
135.572996
1001
ACAD
1000
RTMaterial
1005
0
  0
ARC
  8
F01_OUT
  5
46A
 10
-79.669577
 20
23.0
 30
0.0
 40
1.0
 50
44.427004
 51
90.0
1001
ACAD
1000
RTMaterial
1005
0
  0
ARC
  8
F01_OUT
  5
46B
 10
-94.459279
 20
23.0
 30
0.0
 40
1.0
 50
135.572996
 51
165.0
1001
ACAD
1000
RTMaterial
1005
0
  0
ARC
  8
F01_OUT
  5
46C
 10
-79.669577
 20
23.0
 30
0.0
 40
1.0
 50
15.0
 51
44.427004
1001
ACAD
1000
RTMaterial
1005
0
  0
ARC
  8
F01_OUT
  5
46D
 10
-78.964428
 20
20.368347
 30
0.0
 40
1.0
 50
0.0
 51
7.565094
1001
ACAD
1000
RTMaterial
1005
0
  0
ARC
  8
F01_OUT
  5
46E
 10
-78.964428
 20
20.368347
 30
0.0
 40
1.0
 50
7.565094
 51
15.0
1001
ACAD
1000
RTMaterial
1005
0
  0
ARC
  8
F01_OUT
  5
46F
 10
-78.964428
 20
-20.368348
 30
0.0
 40
1.0
 50
345.0
 51
0.0
1001
ACAD
1000
RTMaterial
1005
0
  0
ARC
  8
F01_OUT
  5
470
 10
-79.669577
 20
-23.0
 30
0.0
 40
1.0
 50
270.0
 51
315.572996
1001
ACAD
1000
RTMaterial
1005
0
  0
ARC
  8
F01_OUT
  5
471
 10
-94.459279
 20
-23.0
 30
0.0
 40
1.0
 50
224.427004
 51
270.0
1001
ACAD
1000
RTMaterial
1005
0
  0
ARC
  8
F01_OUT
  5
472
 10
-79.669577
 20
-23.0
 30
0.0
 40
1.0
 50
315.572996
 51
345.0
1001
ACAD
1000
RTMaterial
1005
0
  0
ARC
  8
F01_OUT
  5
473
 10
-94.459279
 20
-23.0
 30
0.0
 40
1.0
 50
195.0
 51
224.427004
1001
ACAD
1000
RTMaterial
1005
0
  0
LINE
  8
F01_OUT
  5
474
 10
-77.964428
 20
17.309005
 30
0.0
 11
-77.964428
 21
14.966025
 31
0.0
1001
ACAD
1000
RTMaterial
1005
0
  0
LINE
  8
F01_OUT
  5
475
 10
-77.964428
 20
13.408947
 30
0.0
 11
-77.964428
 21
11.5
 31
0.0
1001
ACAD
1000
RTMaterial
1005
0
  0
LINE
  8
F01_OUT
  5
476
 10
-77.964428
 20
13.6
 30
0.0
 11
-77.964428
 21
13.408947
 31
0.0
1001
ACAD
1000
RTMaterial
1005
0
  0
LINE
  8
F01_OUT
  5
477
 10
-77.964428
 20
14.966025
 30
0.0
 11
-77.964428
 21
13.6
 31
0.0
1001
ACAD
1000
RTMaterial
1005
0
  0
LINE
  8
F01_OUT
  5
478
 10
-77.964428
 20
-10.8
 30
0.0
 11
-77.964428
 21
-11.5
 31
0.0
1001
ACAD
1000
RTMaterial
1005
0
  0
LINE
  8
F01_OUT
  5
479
 10
-77.964428
 20
-17.309006
 30
0.0
 11
-77.964428
 21
-18.75
 31
0.0
1001
ACAD
1000
RTMaterial
1005
0
  0
LINE
  8
F01_OUT
  5
47A
 10
-77.964428
 20
10.6
 30
0.0
 11
-77.964428
 21
11.5
 31
0.0
1001
ACAD
1000
RTMaterial
1005
0
  0
LINE
  8
F01_OUT
  5
47B
 10
-77.964428
 20
-13.6
 30
0.0
 11
-77.964428
 21
-14.966026
 31
0.0
1001
ACAD
1000
RTMaterial
1005
0
  0
LINE
  8
F01_OUT
  5
47C
 10
-77.964428
 20
-13.408948
 30
0.0
 11
-77.964428
 21
-13.6
 31
0.0
1001
ACAD
1000
RTMaterial
1005
0
  0
LINE
  8
F01_OUT
  5
47D
 10
-77.964428
 20
-10.8
 30
0.0
 11
-77.964428
 21
-10.6
 31
0.0
1001
ACAD
1000
RTMaterial
1005
0
  0
LINE
  8
F01_OUT
  5
47E
 10
-77.964428
 20
-11.75
 30
0.0
 11
-77.964428
 21
-13.408948
 31
0.0
1001
ACAD
1000
RTMaterial
1005
0
  0
LINE
  8
F01_OUT
  5
47F
 10
-77.964428
 20
-11.5
 30
0.0
 11
-77.964428
 21
-11.75
 31
0.0
1001
ACAD
1000
RTMaterial
1005
0
  0
LINE
  8
F01_OUT
  5
480
 10
-77.964428
 20
-10.6
 30
0.0
 11
-77.964428
 21
-9.5
 31
0.0
1001
ACAD
1000
RTMaterial
1005
0
  0
LINE
  8
F01_OUT
  5
481
 10
-77.964428
 20
-14.966026
 30
0.0
 11
-77.964428
 21
-17.309006
 31
0.0
1001
ACAD
1000
RTMaterial
1005
0
  0
LINE
  8
F01_OUT
  5
482
 10
-77.964428
 20
9.5
 30
0.0
 11
-77.964428
 21
10.6
 31
0.0
1001
ACAD
1000
RTMaterial
1005
0
  0
LINE
  8
F01_OUT
  5
483
 10
-77.964428
 20
19.4
 30
0.0
 11
-77.964428
 21
18.75
 31
0.0
1001
ACAD
1000
RTMaterial
1005
0
  0
LINE
  8
F01_OUT
  5
484
 10
-77.964428
 20
18.75
 30
0.0
 11
-77.964428
 21
17.309005
 31
0.0
1001
ACAD
1000
RTMaterial
1005
0
  0
LINE
  8
F01_OUT
  5
485
 10
-81.664428
 20
8.9
 30
0.0
 11
-81.664428
 21
9.0
 31
0.0
1001
ACAD
1000
RTMaterial
1005
0
  0
LINE
  8
F01_OUT
  5
486
 10
-81.464428
 20
9.0
 30
0.0
 11
-78.464428
 21
9.0
 31
0.0
1001
ACAD
1000
RTMaterial
1005
0
  0
LINE
  8
F01_OUT
  5
487
 10
-81.664428
 20
9.0
 30
0.0
 11
-81.464428
 21
9.0
 31
0.0
1001
ACAD
1000
RTMaterial
1005
0
  0
LINE
  8
F01_OUT
  5
488
 10
-81.664428
 20
8.5
 30
0.0
 11
-81.664428
 21
8.9
 31
0.0
1001
ACAD
1000
RTMaterial
1005
0
  0
LINE
  8
F01_OUT
  5
489
 10
-81.664428
 20
3.0
 30
0.0
 11
-81.664428
 21
7.4
 31
0.0
1001
ACAD
1000
RTMaterial
1005
0
  0
LINE
  8
F01_OUT
  5
48A
 10
-81.664428
 20
7.499999
 30
0.0
 11
-81.664428
 21
8.5
 31
0.0
1001
ACAD
1000
RTMaterial
1005
0
  0
LINE
  8
F01_OUT
  5
48B
 10
-81.664428
 20
7.4
 30
0.0
 11
-81.664428
 21
7.499999
 31
0.0
1001
ACAD
1000
RTMaterial
1005
0
  0
LINE
  8
F01_OUT
  5
48C
 10
-81.664428
 20
2.75
 30
0.0
 11
-81.664428
 21
3.0
 31
0.0
1001
ACAD
1000
RTMaterial
1005
0
  0
LINE
  8
F01_OUT
  5
48D
 10
-81.664428
 20
1.6
 30
0.0
 11
-81.664428
 21
2.75
 31
0.0
1001
ACAD
1000
RTMaterial
1005
0
  0
LINE
  8
F01_OUT
  5
48E
 10
-81.664428
 20
1.55
 30
0.0
 11
-81.664428
 21
1.6
 31
0.0
1001
ACAD
1000
RTMaterial
1005
0
  0
LINE
  8
F01_OUT
  5
48F
 10
-97.664428
 20
20.5
 30
0.0
 11
-96.164428
 21
20.5
 31
0.0
1001
ACAD
1000
RTMaterial
1005
0
  0
LINE
  8
F01_OUT
  5
490
 10
-97.664428
 20
20.5
 30
0.0
 11
-98.664428
 21
20.5
 31
0.0
1001
ACAD
1000
RTMaterial
1005
0
  0
LINE
  8
F01_OUT
  5
491
 10
-77.964428
 20
19.4
 30
0.0
 11
-77.964428
 21
20.368347
 31
0.0
1001
ACAD
1000
RTMaterial
1005
0
  0
LINE
  8
F01_OUT
  5
492
 10
-94.459279
 20
24.0
 30
0.0
 11
-79.669577
 21
24.0
 31
0.0
1001
ACAD
1000
RTMaterial
1005
0
  0
LINE
  8
F01_OUT
  5
493
 10
-95.425204
 20
23.258819
 30
0.0
 11
-96.164428
 21
20.5
 31
0.0
1001
ACAD
1000
RTMaterial
1005
0
  0
LINE
  8
F01_OUT
  5
494
 10
-78.703651
 20
23.258819
 30
0.0
 11
-77.998502
 21
20.627166
 31
0.0
1001
ACAD
1000
RTMaterial
1005
0
  0
LINE
  8
F01_OUT
  5
495
 10
-81.664428
 20
-1.55
 30
0.0
 11
-81.664428
 21
1.55
 31
0.0
1001
ACAD
1000
RTMaterial
1005
0
  0
LINE
  8
F01_OUT
  5
496
 10
-81.664428
 20
-7.4
 30
0.0
 11
-81.664428
 21
-2.75
 31
0.0
1001
ACAD
1000
RTMaterial
1005
0
  0
LINE
  8
F01_OUT
  5
497
 10
-81.664428
 20
-2.75
 30
0.0
 11
-81.664428
 21
-1.6
 31
0.0
1001
ACAD
1000
RTMaterial
1005
0
  0
LINE
  8
F01_OUT
  5
498
 10
-81.664428
 20
-8.9
 30
0.0
 11
-81.664428
 21
-7.5
 31
0.0
1001
ACAD
1000
RTMaterial
1005
0
  0
LINE
  8
F01_OUT
  5
499
 10
-81.664428
 20
-1.6
 30
0.0
 11
-81.664428
 21
-1.55
 31
0.0
1001
ACAD
1000
RTMaterial
1005
0
  0
LINE
  8
F01_OUT
  5
49A
 10
-81.664428
 20
-7.5
 30
0.0
 11
-81.664428
 21
-7.4
 31
0.0
1001
ACAD
1000
RTMaterial
1005
0
  0
LINE
  8
F01_OUT
  5
49B
 10
-81.664428
 20
-8.9
 30
0.0
 11
-81.664428
 21
-9.0
 31
0.0
1001
ACAD
1000
RTMaterial
1005
0
  0
LINE
  8
F01_OUT
  5
49C
 10
-81.464428
 20
-9.0
 30
0.0
 11
-78.464428
 21
-9.0
 31
0.0
1001
ACAD
1000
RTMaterial
1005
0
  0
LINE
  8
F01_OUT
  5
49D
 10
-81.664428
 20
-9.0
 30
0.0
 11
-81.464428
 21
-9.0
 31
0.0
1001
ACAD
1000
RTMaterial
1005
0
  0
LINE
  8
F01_OUT
  5
49E
 10
-77.964428
 20
-18.75
 30
0.0
 11
-77.964428
 21
-19.4
 31
0.0
1001
ACAD
1000
RTMaterial
1005
0
  0
LINE
  8
F01_OUT
  5
49F
 10
-77.964428
 20
-20.368348
 30
0.0
 11
-77.964428
 21
-19.4
 31
0.0
1001
ACAD
1000
RTMaterial
1005
0
  0
LINE
  8
F01_OUT
  5
4A0
 10
-96.164428
 20
-20.5
 30
0.0
 11
-97.664428
 21
-20.5
 31
0.0
1001
ACAD
1000
RTMaterial
1005
0
  0
LINE
  8
F01_OUT
  5
4A1
 10
-97.664428
 20
-20.5
 30
0.0
 11
-98.664428
 21
-20.5
 31
0.0
1001
ACAD
1000
RTMaterial
1005
0
  0
LINE
  8
F01_OUT
  5
4A2
 10
-77.998502
 20
-20.627167
 30
0.0
 11
-78.703651
 21
-23.25882
 31
0.0
1001
ACAD
1000
RTMaterial
1005
0
  0
LINE
  8
F01_OUT
  5
4A3
 10
-94.459279
 20
-24.0
 30
0.0
 11
-79.669577
 21
-24.0
 31
0.0
1001
ACAD
1000
RTMaterial
1005
0
  0
LINE
  8
F01_OUT
  5
4A4
 10
-96.164428
 20
-20.5
 30
0.0
 11
-95.425204
 21
-23.25882
 31
0.0
1001
ACAD
1000
RTMaterial
1005
0
  0
LINE
  8
F01_OUT
  5
4A5
 10
-81.664428
 20
9.0
 30
0.0
 11
-81.464428
 21
9.0
 31
0.0
1001
ACAD
1000
RTMaterial
1005
0
  0
LINE
  8
F01_OUT
  5
4A6
 10
-81.664428
 20
-9.0
 30
0.0
 11
-81.464428
 21
-9.0
 31
0.0
1001
ACAD
1000
RTMaterial
1005
0
  0
LINE
  8
F01_OUT
  5
4A7
 10
-77.964428
 20
11.5
 30
0.0
 11
-77.864428
 21
11.5
 31
0.0
1001
ACAD
1000
RTMaterial
1005
0
  0
LINE
  8
F01_OUT
  5
4A8
 10
-77.864428
 20
10.6
 30
0.0
 11
-77.964428
 21
10.6
 31
0.0
1001
ACAD
1000
RTMaterial
1005
0
  0
LINE
  8
F01_OUT
  5
4A9
 10
-77.864428
 20
11.5
 30
0.0
 11
-77.864428
 21
10.6
 31
0.0
1001
ACAD
1000
RTMaterial
1005
0
  0
LINE
  8
F01_OUT
  5
4AA
 10
-77.864428
 20
10.6
 30
0.0
 11
-77.864428
 21
10.4
 31
0.0
1001
ACAD
1000
RTMaterial
1005
0
  0
LINE
  8
F01_OUT
  5
4AB
 10
-77.964428
 20
-10.4
 30
0.0
 11
-77.864428
 21
-10.4
 31
0.0
1001
ACAD
1000
RTMaterial
1005
0
  0
LINE
  8
F01_OUT
  5
4AC
 10
-77.864428
 20
-10.6
 30
0.0
 11
-77.964428
 21
-10.6
 31
0.0
1001
ACAD
1000
RTMaterial
1005
0
  0
LINE
  8
F01_OUT
  5
4AD
 10
-77.864428
 20
10.4
 30
0.0
 11
-77.964428
 21
10.4
 31
0.0
1001
ACAD
1000
RTMaterial
1005
0
  0
LINE
  8
F01_OUT
  5
4AE
 10
-77.152236
 20
11.5
 30
0.0
 11
-77.35704
 21
11.5
 31
0.0
1001
ACAD
1000
RTMaterial
1005
0
  0
LINE
  8
F01_OUT
  5
4AF
 10
-77.864428
 20
11.5
 30
0.0
 11
-77.35704
 21
11.5
 31
0.0
1001
ACAD
1000
RTMaterial
1005
0
  0
LINE
  8
F01_OUT
  5
4B0
 10
-76.664428
 20
11.5
 30
0.0
 11
-77.152236
 21
11.5
 31
0.0
1001
ACAD
1000
RTMaterial
1005
0
  0
LINE
  8
F01_OUT
  5
4B1
 10
-81.664428
 20
8.9
 30
0.0
 11
-81.664428
 21
9.0
 31
0.0
1001
ACAD
1000
RTMaterial
1005
0
  0
LINE
  8
F01_OUT
  5
4B2
 10
-76.664428
 20
8.9
 30
0.0
 11
-76.664428
 21
11.5
 31
0.0
1001
ACAD
1000
RTMaterial
1005
0
  0
LINE
  8
F01_OUT
  5
4B3
 10
-81.664428
 20
8.9
 30
0.0
 11
-76.664428
 21
8.9
 31
0.0
1001
ACAD
1000
RTMaterial
1005
0
  0
LINE
  8
F01_OUT
  5
4B4
 10
-81.664428
 20
8.5
 30
0.0
 11
-81.664428
 21
8.9
 31
0.0
1001
ACAD
1000
RTMaterial
1005
0
  0
LINE
  8
F01_OUT
  5
4B5
 10
-81.664428
 20
3.0
 30
0.0
 11
-81.664428
 21
7.4
 31
0.0
1001
ACAD
1000
RTMaterial
1005
0
  0
LINE
  8
F01_OUT
  5
4B6
 10
-81.664428
 20
7.499999
 30
0.0
 11
-81.664428
 21
8.5
 31
0.0
1001
ACAD
1000
RTMaterial
1005
0
  0
LINE
  8
F01_OUT
  5
4B7
 10
-81.664428
 20
7.4
 30
0.0
 11
-81.664428
 21
7.499999
 31
0.0
1001
ACAD
1000
RTMaterial
1005
0
  0
LINE
  8
F01_OUT
  5
4B8
 10
-81.664428
 20
2.75
 30
0.0
 11
-81.664428
 21
3.0
 31
0.0
1001
ACAD
1000
RTMaterial
1005
0
  0
LINE
  8
F01_OUT
  5
4B9
 10
-81.664428
 20
1.6
 30
0.0
 11
-81.664428
 21
2.75
 31
0.0
1001
ACAD
1000
RTMaterial
1005
0
  0
LINE
  8
F01_OUT
  5
4BA
 10
-81.664428
 20
1.55
 30
0.0
 11
-81.664428
 21
1.6
 31
0.0
1001
ACAD
1000
RTMaterial
1005
0
  0
LINE
  8
F01_OUT
  5
4BB
 10
-81.664428
 20
-7.4
 30
0.0
 11
-81.664428
 21
-2.75
 31
0.0
1001
ACAD
1000
RTMaterial
1005
0
  0
LINE
  8
F01_OUT
  5
4BC
 10
-81.664428
 20
-2.75
 30
0.0
 11
-81.664428
 21
-1.6
 31
0.0
1001
ACAD
1000
RTMaterial
1005
0
  0
LINE
  8
F01_OUT
  5
4BD
 10
-81.664428
 20
-8.9
 30
0.0
 11
-81.664428
 21
-7.5
 31
0.0
1001
ACAD
1000
RTMaterial
1005
0
  0
LINE
  8
F01_OUT
  5
4BE
 10
-81.664428
 20
-1.6
 30
0.0
 11
-81.664428
 21
-1.55
 31
0.0
1001
ACAD
1000
RTMaterial
1005
0
  0
LINE
  8
F01_OUT
  5
4BF
 10
-81.664428
 20
-7.5
 30
0.0
 11
-81.664428
 21
-7.4
 31
0.0
1001
ACAD
1000
RTMaterial
1005
0
  0
LINE
  8
F01_OUT
  5
4C0
 10
-81.664428
 20
-8.9
 30
0.0
 11
-81.664428
 21
-9.0
 31
0.0
1001
ACAD
1000
RTMaterial
1005
0
  0
LINE
  8
F01_OUT
  5
4C1
 10
-76.664428
 20
-8.9
 30
0.0
 11
-76.664428
 21
8.9
 31
0.0
1001
ACAD
1000
RTMaterial
1005
0
  0
LINE
  8
F01_OUT
  5
4C2
 10
-76.664428
 20
-11.5
 30
0.0
 11
-77.152236
 21
-11.5
 31
0.0
1001
ACAD
1000
RTMaterial
1005
0
  0
LINE
  8
F01_OUT
  5
4C3
 10
-76.664428
 20
-11.5
 30
0.0
 11
-76.664428
 21
-8.9
 31
0.0
1001
ACAD
1000
RTMaterial
1005
0
  0
LINE
  8
F01_OUT
  5
4C4
 10
-77.864428
 20
-11.5
 30
0.0
 11
-77.35704
 21
-11.5
 31
0.0
1001
ACAD
1000
RTMaterial
1005
0
  0
LINE
  8
F01_OUT
  5
4C5
 10
-77.152236
 20
-11.5
 30
0.0
 11
-77.35704
 21
-11.5
 31
0.0
1001
ACAD
1000
RTMaterial
1005
0
  0
LINE
  8
F01_OUT
  5
4C6
 10
-77.964428
 20
-11.5
 30
0.0
 11
-77.864428
 21
-11.5
 31
0.0
1001
ACAD
1000
RTMaterial
1005
0
  0
LINE
  8
F01_OUT
  5
4C7
 10
-77.864428
 20
-11.5
 30
0.0
 11
-77.864428
 21
-10.6
 31
0.0
1001
ACAD
1000
RTMaterial
1005
0
  0
LINE
  8
F01_OUT
  5
4C8
 10
-77.864428
 20
-10.6
 30
0.0
 11
-77.864428
 21
-10.4
 31
0.0
1001
ACAD
1000
RTMaterial
1005
0
  0
LINE
  8
F01_OUT
  5
4C9
 10
-76.664428
 20
-8.9
 30
0.0
 11
-81.664428
 21
-8.9
 31
0.0
1001
ACAD
1000
RTMaterial
1005
0
  0
LINE
  8
F01_OUT
  5
4CA
 10
-77.973132
 20
20.5
 30
0.0
 11
-77.152236
 21
20.5
 31
0.0
1001
ACAD
1000
RTMaterial
1005
0
  0
LINE
  8
F01_OUT
  5
4CB
 10
-77.964428
 20
18.75
 30
0.0
 11
-77.964428
 21
17.309005
 31
0.0
1001
ACAD
1000
RTMaterial
1005
0
  0
LINE
  8
F01_OUT
  5
4CC
 10
-77.964428
 20
19.4
 30
0.0
 11
-77.964428
 21
18.75
 31
0.0
1001
ACAD
1000
RTMaterial
1005
0
  0
LINE
  8
F01_OUT
  5
4CD
 10
-77.864428
 20
11.5
 30
0.0
 11
-77.35704
 21
11.5
 31
0.0
1001
ACAD
1000
RTMaterial
1005
0
  0
LINE
  8
F01_OUT
  5
4CE
 10
-77.152236
 20
11.5
 30
0.0
 11
-77.35704
 21
11.5
 31
0.0
1001
ACAD
1000
RTMaterial
1005
0
  0
LINE
  8
F01_OUT
  5
4CF
 10
-77.964428
 20
19.4
 30
0.0
 11
-76.941494
 21
19.4
 31
0.0
1001
ACAD
1000
RTMaterial
1005
0
  0
LINE
  8
F01_OUT
  5
4D0
 10
-77.964428
 20
11.5
 30
0.0
 11
-77.864428
 21
11.5
 31
0.0
1001
ACAD
1000
RTMaterial
1005
0
  0
LINE
  8
F01_OUT
  5
4D1
 10
-77.964428
 20
14.966025
 30
0.0
 11
-77.964428
 21
13.6
 31
0.0
1001
ACAD
1000
RTMaterial
1005
0
  0
LINE
  8
F01_OUT
  5
4D2
 10
-77.964428
 20
13.6
 30
0.0
 11
-77.964428
 21
13.408947
 31
0.0
1001
ACAD
1000
RTMaterial
1005
0
  0
LINE
  8
F01_OUT
  5
4D3
 10
-77.964428
 20
13.408947
 30
0.0
 11
-77.964428
 21
11.5
 31
0.0
1001
ACAD
1000
RTMaterial
1005
0
  0
LINE
  8
F01_OUT
  5
4D4
 10
-77.964428
 20
17.309005
 30
0.0
 11
-77.964428
 21
14.966025
 31
0.0
1001
ACAD
1000
RTMaterial
1005
0
  0
ARC
  8
F01_OUT
  5
4D5
 10
-97.664428
 20
16.0
 30
0.0
 40
21.0
 50
9.317473
 51
12.373625
1001
ACAD
1000
RTMaterial
1005
0
  0
ARC
  8
F01_OUT
  5
4D6
 10
-97.664428
 20
16.0
 30
0.0
 40
21.0
 50
347.626375
 51
9.317473
1001
ACAD
1000
RTMaterial
1005
0
  0
LINE
  8
F01_OUT
  5
4D7
 10
-77.964428
 20
-19.4
 30
0.0
 11
-76.941494
 21
-19.4
 31
0.0
1001
ACAD
1000
RTMaterial
1005
0
  0
LINE
  8
F01_OUT
  5
4D8
 10
-77.964428
 20
-11.5
 30
0.0
 11
-77.864428
 21
-11.5
 31
0.0
1001
ACAD
1000
RTMaterial
1005
0
  0
LINE
  8
F01_OUT
  5
4D9
 10
-77.152236
 20
-11.5
 30
0.0
 11
-77.35704
 21
-11.5
 31
0.0
1001
ACAD
1000
RTMaterial
1005
0
  0
LINE
  8
F01_OUT
  5
4DA
 10
-77.864428
 20
-11.5
 30
0.0
 11
-77.35704
 21
-11.5
 31
0.0
1001
ACAD
1000
RTMaterial
1005
0
  0
LINE
  8
F01_OUT
  5
4DB
 10
-77.973132
 20
-20.5
 30
0.0
 11
-77.152236
 21
-20.5
 31
0.0
1001
ACAD
1000
RTMaterial
1005
0
  0
LINE
  8
F01_OUT
  5
4DC
 10
-77.964428
 20
-18.75
 30
0.0
 11
-77.964428
 21
-19.4
 31
0.0
1001
ACAD
1000
RTMaterial
1005
0
  0
LINE
  8
F01_OUT
  5
4DD
 10
-77.964428
 20
-14.966026
 30
0.0
 11
-77.964428
 21
-17.309006
 31
0.0
1001
ACAD
1000
RTMaterial
1005
0
  0
LINE
  8
F01_OUT
  5
4DE
 10
-77.964428
 20
-11.5
 30
0.0
 11
-77.964428
 21
-11.75
 31
0.0
1001
ACAD
1000
RTMaterial
1005
0
  0
LINE
  8
F01_OUT
  5
4DF
 10
-77.964428
 20
-11.75
 30
0.0
 11
-77.964428
 21
-13.408948
 31
0.0
1001
ACAD
1000
RTMaterial
1005
0
  0
LINE
  8
F01_OUT
  5
4E0
 10
-77.964428
 20
-13.408948
 30
0.0
 11
-77.964428
 21
-13.6
 31
0.0
1001
ACAD
1000
RTMaterial
1005
0
  0
LINE
  8
F01_OUT
  5
4E1
 10
-77.964428
 20
-13.6
 30
0.0
 11
-77.964428
 21
-14.966026
 31
0.0
1001
ACAD
1000
RTMaterial
1005
0
  0
LINE
  8
F01_OUT
  5
4E2
 10
-77.964428
 20
-17.309006
 30
0.0
 11
-77.964428
 21
-18.75
 31
0.0
1001
ACAD
1000
RTMaterial
1005
0
  0
LINE
  8
F01_OUT
  5
4E3
 10
-77.964428
 20
-10.8
 30
0.0
 11
-77.964428
 21
-11.5
 31
0.0
1001
ACAD
1000
RTMaterial
1005
0
  0
ARC
  8
F01_OUT
  5
4E4
 10
-97.664428
 20
-16.0
 30
0.0
 40
21.0
 50
347.626375
 51
350.682527
1001
ACAD
1000
RTMaterial
1005
0
  0
ARC
  8
F01_OUT
  5
4E5
 10
-97.664428
 20
-16.0
 30
0.0
 40
21.0
 50
350.682527
 51
12.373625
1001
ACAD
1000
RTMaterial
1005
0
  0
LINE
  8
F03_CNT
  5
4FE
 10
-87.172459
 20
-15.5
 30
0.0
 11
-93.29222
 21
-15.5
 31
0.0
1001
ACAD
1000
RTMaterial
1005
0
  0
LINE
  8
F03_CNT
  5
4FF
 10
57.685377
 20
-20.0
 30
0.0
 11
47.185377
 21
-20.0
 31
0.0
1001
ACAD
1000
RTMaterial
1005
0
  0
LINE
  8
F03_CNT
  5
500
 10
52.435377
 20
-14.75
 30
0.0
 11
52.435377
 21
-25.25
 31
0.0
1001
ACAD
1000
RTMaterial
1005
0
  0
LINE
  8
F03_CNT
  5
501
 10
92.685377
 20
-20.0
 30
0.0
 11
82.185377
 21
-20.0
 31
0.0
1001
ACAD
1000
RTMaterial
1005
0
  0
LINE
  8
F03_CNT
  5
502
 10
87.435377
 20
-14.75
 30
0.0
 11
87.435377
 21
-25.25
 31
0.0
1001
ACAD
1000
RTMaterial
1005
0
  0
LINE
  8
F03_CNT
  5
503
 10
92.685377
 20
20.0
 30
0.0
 11
82.185377
 21
20.0
 31
0.0
1001
ACAD
1000
RTMaterial
1005
0
  0
LINE
  8
F03_CNT
  5
504
 10
87.435377
 20
25.25
 30
0.0
 11
87.435377
 21
14.75
 31
0.0
1001
ACAD
1000
RTMaterial
1005
0
  0
LINE
  8
F03_CNT
  5
505
 10
57.685377
 20
20.0
 30
0.0
 11
47.185377
 21
20.0
 31
0.0
1001
ACAD
1000
RTMaterial
1005
0
  0
LINE
  8
F03_CNT
  5
506
 10
52.435377
 20
25.25
 30
0.0
 11
52.435377
 21
14.75
 31
0.0
1001
ACAD
1000
RTMaterial
1005
0
  0
LINE
  8
F03_CNT
  5
507
 10
69.935377
 20
25.729852
 30
0.0
 11
69.935377
 21
-25.265148
 31
0.0
1001
ACAD
1000
RTMaterial
1005
0
  0
LINE
  8
F03_CNT
  5
508
 10
94.396329
 20
0.0
 30
0.0
 11
45.201153
 21
0.0
 31
0.0
1001
ACAD
1000
RTMaterial
1005
0
  0
LINE
  8
F03_CNT
  5
509
 10
-41.836773
 20
0.0
 30
0.0
 11
-139.887798
 21
0.0
 31
0.0
1001
ACAD
1000
RTMaterial
1005
0
  0
LINE
  8
F03_CNT
  5
50A
 10
-87.172459
 20
15.5
 30
0.0
 11
-93.29222
 21
15.5
 31
0.0
1001
ACAD
1000
RTMaterial
1005
0
  0
LINE
  8
F03_CNT
  5
50B
 10
-17.4
 20
20.75
 30
0.0
 11
-17.4
 21
10.25
 31
0.0
1001
ACAD
1000
RTMaterial
1005
0
  0
LINE
  8
F03_CNT
  5
50C
 10
-12.15
 20
15.5
 30
0.0
 11
-22.65
 21
15.5
 31
0.0
1001
ACAD
1000
RTMaterial
1005
0
  0
LINE
  8
F03_CNT
  5
50D
 10
8.7
 20
20.75
 30
0.0
 11
8.7
 21
10.25
 31
0.0
1001
ACAD
1000
RTMaterial
1005
0
  0
LINE
  8
F03_CNT
  5
50E
 10
13.95
 20
15.5
 30
0.0
 11
3.45
 21
15.5
 31
0.0
1001
ACAD
1000
RTMaterial
1005
0
  0
LINE
  8
F03_CNT
  5
50F
 10
17.4
 20
20.75
 30
0.0
 11
17.4
 21
10.25
 31
0.0
1001
ACAD
1000
RTMaterial
1005
0
  0
LINE
  8
F03_CNT
  5
510
 10
22.65
 20
15.5
 30
0.0
 11
12.15
 21
15.5
 31
0.0
1001
ACAD
1000
RTMaterial
1005
0
  0
LINE
  8
F03_CNT
  5
511
 10
-8.7
 20
20.75
 30
0.0
 11
-8.7
 21
10.25
 31
0.0
1001
ACAD
1000
RTMaterial
1005
0
  0
LINE
  8
F03_CNT
  5
512
 10
-3.45
 20
15.5
 30
0.0
 11
-13.95
 21
15.5
 31
0.0
1001
ACAD
1000
RTMaterial
1005
0
  0
LINE
  8
F03_CNT
  5
513
 10
5.25
 20
15.5
 30
0.0
 11
-5.25
 21
15.5
 31
0.0
1001
ACAD
1000
RTMaterial
1005
0
  0
LINE
  8
F03_CNT
  5
514
 10
0.0
 20
25.729852
 30
0.0
 11
0.0
 21
-25.265148
 31
0.0
1001
ACAD
1000
RTMaterial
1005
0
  0
LINE
  8
F03_CNT
  5
515
 10
5.25
 20
-15.5
 30
0.0
 11
-5.25
 21
-15.5
 31
0.0
1001
ACAD
1000
RTMaterial
1005
0
  0
LINE
  8
F03_CNT
  5
516
 10
-17.4
 20
-10.25
 30
0.0
 11
-17.4
 21
-20.75
 31
0.0
1001
ACAD
1000
RTMaterial
1005
0
  0
LINE
  8
F03_CNT
  5
517
 10
-12.15
 20
-15.5
 30
0.0
 11
-22.65
 21
-15.5
 31
0.0
1001
ACAD
1000
RTMaterial
1005
0
  0
LINE
  8
F03_CNT
  5
518
 10
8.7
 20
-10.25
 30
0.0
 11
8.7
 21
-20.75
 31
0.0
1001
ACAD
1000
RTMaterial
1005
0
  0
LINE
  8
F03_CNT
  5
519
 10
13.95
 20
-15.5
 30
0.0
 11
3.45
 21
-15.5
 31
0.0
1001
ACAD
1000
RTMaterial
1005
0
  0
LINE
  8
F03_CNT
  5
51A
 10
17.4
 20
-10.25
 30
0.0
 11
17.4
 21
-20.75
 31
0.0
1001
ACAD
1000
RTMaterial
1005
0
  0
LINE
  8
F03_CNT
  5
51B
 10
22.65
 20
-15.5
 30
0.0
 11
12.15
 21
-15.5
 31
0.0
1001
ACAD
1000
RTMaterial
1005
0
  0
LINE
  8
F03_CNT
  5
51C
 10
-8.7
 20
-10.25
 30
0.0
 11
-8.7
 21
-20.75
 31
0.0
1001
ACAD
1000
RTMaterial
1005
0
  0
LINE
  8
F03_CNT
  5
51D
 10
-3.45
 20
-15.5
 30
0.0
 11
-13.95
 21
-15.5
 31
0.0
1001
ACAD
1000
RTMaterial
1005
0
  0
LINE
  8
F03_CNT
  5
51E
 10
24.460952
 20
0.0
 30
0.0
 11
-24.734224
 21
0.0
 31
0.0
1001
ACAD
1000
RTMaterial
1005
0
  0
LINE
  8
F10_IMG3
  5
51F
 10
-42.664428
 20
-0.8
 30
0.0
 11
-42.664428
 21
0.8
 31
0.0
1001
ACAD
1000
RTMaterial
1005
0
  0
LINE
  8
F10_IMG3
  5
520
 10
-42.664428
 20
0.8
 30
0.0
 11
-43.464428
 21
0.8
 31
0.0
1001
ACAD
1000
RTMaterial
1005
0
  0
LINE
  8
F10_IMG3
  5
521
 10
-43.464428
 20
-0.8
 30
0.0
 11
-42.664428
 21
-0.8
 31
0.0
1001
ACAD
1000
RTMaterial
1005
0
  0
LINE
  8
F10_IMG3
  5
522
 10
-68.864428
 20
11.8
 30
0.0
 11
-73.164428
 21
11.8
 31
0.0
1001
ACAD
1000
RTMaterial
1005
0
  0
LINE
  8
F10_IMG3
  5
523
 10
-73.164428
 20
11.8
 30
0.0
 11
-74.164428
 21
10.8
 31
0.0
1001
ACAD
1000
RTMaterial
1005
0
  0
LINE
  8
F10_IMG3
  5
524
 10
-74.264428
 20
10.7
 30
0.0
 11
-76.641215
 21
8.323213
 31
0.0
1001
ACAD
1000
RTMaterial
1005
0
  0
LINE
  8
F10_IMG3
  5
525
 10
-74.164428
 20
10.8
 30
0.0
 11
-74.264428
 21
10.7
 31
0.0
1001
ACAD
1000
RTMaterial
1005
0
  0
LINE
  8
F10_IMG3
  5
526
 10
-75.464428
 20
10.7
 30
0.0
 11
-74.264428
 21
10.7
 31
0.0
1001
ACAD
1000
RTMaterial
1005
0
  0
LINE
  8
F10_IMG3
  5
527
 10
-75.464428
 20
10.7
 30
0.0
 11
-75.664428
 21
10.7
 31
0.0
1001
ACAD
1000
RTMaterial
1005
0
  0
LINE
  8
F10_IMG3
  5
528
 10
-75.664428
 20
10.7
 30
0.0
 11
-76.664428
 21
9.7
 31
0.0
1001
ACAD
1000
RTMaterial
1005
0
  0
LINE
  8
F10_IMG3
  5
529
 10
-75.964428
 20
-9.0
 30
0.0
 11
-73.164428
 21
-11.8
 31
0.0
1001
ACAD
1000
RTMaterial
1005
0
  0
LINE
  8
F10_IMG3
  5
52A
 10
-76.641215
 20
9.2
 30
0.0
 11
-76.664428
 21
9.2
 31
0.0
1001
ACAD
1000
RTMaterial
1005
0
  0
LINE
  8
F10_IMG3
  5
52B
 10
-76.641215
 20
8.323213
 30
0.0
 11
-76.664428
 21
8.3
 31
0.0
1001
ACAD
1000
RTMaterial
1005
0
  0
LINE
  8
F10_IMG3
  5
52C
 10
-76.641215
 20
9.2
 30
0.0
 11
-76.641215
 21
8.323213
 31
0.0
1001
ACAD
1000
RTMaterial
1005
0
  0
LINE
  8
F10_IMG3
  5
52D
 10
-76.664428
 20
5.75
 30
0.0
 11
-76.664428
 21
8.3
 31
0.0
1001
ACAD
1000
RTMaterial
1005
0
  0
LINE
  8
F10_IMG3
  5
52E
 10
-76.664428
 20
9.2
 30
0.0
 11
-76.664428
 21
9.7
 31
0.0
1001
ACAD
1000
RTMaterial
1005
0
  0
LINE
  8
F10_IMG3
  5
52F
 10
-68.864428
 20
-11.8
 30
0.0
 11
-73.164428
 21
-11.8
 31
0.0
1001
ACAD
1000
RTMaterial
1005
0
  0
LINE
  8
F10_IMG3
  5
530
 10
-76.664428
 20
-8.3
 30
0.0
 11
-76.664428
 21
-7.058609
 31
0.0
1001
ACAD
1000
RTMaterial
1005
0
  0
LINE
  8
F10_IMG3
  5
531
 10
-76.664428
 20
2.75
 30
0.0
 11
-76.664428
 21
3.5
 31
0.0
1001
ACAD
1000
RTMaterial
1005
0
  0
LINE
  8
F10_IMG3
  5
532
 10
-76.664428
 20
-4.35
 30
0.0
 11
-76.664428
 21
2.75
 31
0.0
1001
ACAD
1000
RTMaterial
1005
0
  0
LINE
  8
F10_IMG3
  5
533
 10
-76.664428
 20
-5.85
 30
0.0
 11
-76.664428
 21
-4.35
 31
0.0
1001
ACAD
1000
RTMaterial
1005
0
  0
LINE
  8
F10_IMG3
  5
534
 10
-76.664428
 20
-6.0
 30
0.0
 11
-76.664428
 21
-5.85
 31
0.0
1001
ACAD
1000
RTMaterial
1005
0
  0
LINE
  8
F10_IMG3
  5
535
 10
-76.664428
 20
3.5
 30
0.0
 11
-76.664428
 21
4.25
 31
0.0
1001
ACAD
1000
RTMaterial
1005
0
  0
LINE
  8
F10_IMG3
  5
536
 10
-76.664428
 20
4.25
 30
0.0
 11
-76.664428
 21
5.75
 31
0.0
1001
ACAD
1000
RTMaterial
1005
0
  0
LINE
  8
F10_IMG3
  5
537
 10
-75.964428
 20
-9.0
 30
0.0
 11
-76.664428
 21
-8.3
 31
0.0
1001
ACAD
1000
RTMaterial
1005
0
  0
LINE
  8
F10_IMG3
  5
538
 10
-76.664428
 20
-6.5
 30
0.0
 11
-76.664428
 21
-6.0
 31
0.0
1001
ACAD
1000
RTMaterial
1005
0
  0
LINE
  8
F10_IMG3
  5
539
 10
-76.664428
 20
-7.058609
 30
0.0
 11
-76.664428
 21
-6.5
 31
0.0
1001
ACAD
1000
RTMaterial
1005
0
  0
ARC
  8
F10_IMG3
  5
53A
 10
-67.864428
 20
-12.0
 30
0.0
 40
1.0
 50
180.0
 51
240.0
1001
ACAD
1000
RTMaterial
1005
0
  0
ARC
  8
F10_IMG3
  5
53B
 10
-45.464428
 20
-12.0
 30
0.0
 40
1.0
 50
300.0
 51
0.0
1001
ACAD
1000
RTMaterial
1005
0
  0
ARC
  8
F10_IMG3
  5
53C
 10
-46.169577
 20
-13.5
 30
0.0
 40
1.0
 50
270.0
 51
315.572996
1001
ACAD
1000
RTMaterial
1005
0
  0
ARC
  8
F10_IMG3
  5
53D
 10
-67.159279
 20
-13.5
 30
0.0
 40
1.0
 50
224.427004
 51
270.0
1001
ACAD
1000
RTMaterial
1005
0
  0
ARC
  8
F10_IMG3
  5
53E
 10
-67.159279
 20
-13.5
 30
0.0
 40
1.0
 50
195.0
 51
224.427004
1001
ACAD
1000
RTMaterial
1005
0
  0
ARC
  8
F10_IMG3
  5
53F
 10
-46.169577
 20
-13.5
 30
0.0
 40
1.0
 50
315.572996
 51
345.0
1001
ACAD
1000
RTMaterial
1005
0
  0
ARC
  8
F10_IMG3
  5
540
 10
-46.169577
 20
13.5
 30
0.0
 40
1.0
 50
44.427004
 51
90.0
1001
ACAD
1000
RTMaterial
1005
0
  0
ARC
  8
F10_IMG3
  5
541
 10
-46.169577
 20
13.5
 30
0.0
 40
1.0
 50
15.0
 51
44.427004
1001
ACAD
1000
RTMaterial
1005
0
  0
ARC
  8
F10_IMG3
  5
542
 10
-45.464428
 20
12.0
 30
0.0
 40
1.0
 50
44.427004
 51
60.0
1001
ACAD
1000
RTMaterial
1005
0
  0
ARC
  8
F10_IMG3
  5
543
 10
-45.464428
 20
12.0
 30
0.0
 40
1.0
 50
0.0
 51
44.427004
1001
ACAD
1000
RTMaterial
1005
0
  0
ARC
  8
F10_IMG3
  5
544
 10
-67.864428
 20
12.0
 30
0.0
 40
1.0
 50
135.572996
 51
180.0
1001
ACAD
1000
RTMaterial
1005
0
  0
ARC
  8
F10_IMG3
  5
545
 10
-67.864428
 20
12.0
 30
0.0
 40
1.0
 50
120.0
 51
135.572996
1001
ACAD
1000
RTMaterial
1005
0
  0
ARC
  8
F10_IMG3
  5
546
 10
-67.159279
 20
13.5
 30
0.0
 40
1.0
 50
90.0
 51
135.572996
1001
ACAD
1000
RTMaterial
1005
0
  0
ARC
  8
F10_IMG3
  5
547
 10
-67.159279
 20
13.5
 30
0.0
 40
1.0
 50
135.572996
 51
165.0
1001
ACAD
1000
RTMaterial
1005
0
  0
LINE
  8
F10_IMG3
  5
548
 10
-44.464428
 20
-12.0
 30
0.0
 11
-44.464428
 21
-11.0
 31
0.0
1001
ACAD
1000
RTMaterial
1005
0
  0
LINE
  8
F10_IMG3
  5
549
 10
-68.864428
 20
-11.8
 30
0.0
 11
-68.864428
 21
-12.0
 31
0.0
1001
ACAD
1000
RTMaterial
1005
0
  0
LINE
  8
F10_IMG3
  5
54A
 10
-46.169577
 20
-14.5
 30
0.0
 11
-67.159279
 21
-14.5
 31
0.0
1001
ACAD
1000
RTMaterial
1005
0
  0
LINE
  8
F10_IMG3
  5
54B
 10
-68.364428
 20
-12.866026
 30
0.0
 11
-68.125204
 21
-13.75882
 31
0.0
1001
ACAD
1000
RTMaterial
1005
0
  0
LINE
  8
F10_IMG3
  5
54C
 10
-45.203651
 20
-13.75882
 30
0.0
 11
-44.964428
 21
-12.866026
 31
0.0
1001
ACAD
1000
RTMaterial
1005
0
  0
LINE
  8
F10_IMG3
  5
54D
 10
-44.464428
 20
11.0
 30
0.0
 11
-44.464428
 21
12.0
 31
0.0
1001
ACAD
1000
RTMaterial
1005
0
  0
LINE
  8
F10_IMG3
  5
54E
 10
-44.964428
 20
12.866025
 30
0.0
 11
-45.203651
 21
13.758819
 31
0.0
1001
ACAD
1000
RTMaterial
1005
0
  0
LINE
  8
F10_IMG3
  5
54F
 10
-68.864428
 20
11.8
 30
0.0
 11
-68.864428
 21
12.0
 31
0.0
1001
ACAD
1000
RTMaterial
1005
0
  0
LINE
  8
F10_IMG3
  5
550
 10
-67.159279
 20
14.5
 30
0.0
 11
-46.169577
 21
14.5
 31
0.0
1001
ACAD
1000
RTMaterial
1005
0
  0
LINE
  8
F10_IMG3
  5
551
 10
-68.364428
 20
12.866025
 30
0.0
 11
-68.125204
 21
13.758819
 31
0.0
1001
ACAD
1000
RTMaterial
1005
0
  0
ARC
  8
F10_IMG3
  5
552
 10
-64.464428
 20
6.5
 30
0.0
 40
21.0
 50
348.741367
 51
8.764932
1001
ACAD
1000
RTMaterial
1005
0
  0
ARC
  8
F10_IMG3
  5
553
 10
-64.464428
 20
-6.5
 30
0.0
 40
21.0
 50
347.626375
 51
351.235068
1001
ACAD
1000
RTMaterial
1005
0
  0
ARC
  8
F10_IMG3
  5
554
 10
-64.464428
 20
-6.5
 30
0.0
 40
21.0
 50
351.235068
 51
11.258633
1001
ACAD
1000
RTMaterial
1005
0
  0
ARC
  8
F10_IMG3
  5
555
 10
-64.464428
 20
6.5
 30
0.0
 40
21.0
 50
8.764932
 51
12.373625
1001
ACAD
1000
RTMaterial
1005
0
  0
LINE
  8
F10_IMG3
  5
556
 10
-44.464428
 20
-11.0
 30
0.0
 11
-43.952236
 21
-11.0
 31
0.0
1001
ACAD
1000
RTMaterial
1005
0
  0
LINE
  8
F10_IMG3
  5
557
 10
-43.664428
 20
-2.1
 30
0.0
 11
-43.664428
 21
-2.4
 31
0.0
1001
ACAD
1000
RTMaterial
1005
0
  0
LINE
  8
F10_IMG3
  5
558
 10
-43.464428
 20
-2.1
 30
0.0
 11
-43.664428
 21
-2.1
 31
0.0
1001
ACAD
1000
RTMaterial
1005
0
  0
LINE
  8
F10_IMG3
  5
559
 10
-43.664428
 20
-2.4
 30
0.0
 11
-43.868554
 21
-2.4
 31
0.0
1001
ACAD
1000
RTMaterial
1005
0
  0
LINE
  8
F10_IMG3
  5
55A
 10
-43.464428
 20
2.1
 30
0.0
 11
-43.464428
 21
-2.1
 31
0.0
1001
ACAD
1000
RTMaterial
1005
0
  0
LINE
  8
F10_IMG3
  5
55B
 10
-43.664428
 20
2.1
 30
0.0
 11
-43.464428
 21
2.1
 31
0.0
1001
ACAD
1000
RTMaterial
1005
0
  0
LINE
  8
F10_IMG3
  5
55C
 10
-43.868554
 20
2.4
 30
0.0
 11
-43.664428
 21
2.4
 31
0.0
1001
ACAD
1000
RTMaterial
1005
0
  0
LINE
  8
F10_IMG3
  5
55D
 10
-43.664428
 20
2.4
 30
0.0
 11
-43.664428
 21
2.1
 31
0.0
1001
ACAD
1000
RTMaterial
1005
0
  0
LINE
  8
F10_IMG3
  5
55E
 10
-44.464428
 20
11.0
 30
0.0
 11
-43.952236
 21
11.0
 31
0.0
1001
ACAD
1000
RTMaterial
1005
0
  0
LINE
  8
F04_HID
  5
560
 10
-89.664428
 20
-11.6
 30
0.0
 11
-89.664428
 21
-19.2
 31
0.0
1001
ACAD
1000
RTMaterial
1005
0
  0
LINE
  8
F04_HID
  5
561
 10
-90.664428
 20
-19.2
 30
0.0
 11
-89.664428
 21
-19.2
 31
0.0
1001
ACAD
1000
RTMaterial
1005
0
  0
LINE
  8
F04_HID
  5
562
 10
-90.664428
 20
-11.6
 30
0.0
 11
-90.664428
 21
-19.2
 31
0.0
1001
ACAD
1000
RTMaterial
1005
0
  0
LINE
  8
F04_HID
  5
563
 10
-90.664428
 20
-11.6
 30
0.0
 11
-89.664428
 21
-11.6
 31
0.0
1001
ACAD
1000
RTMaterial
1005
0
  0
LINE
  8
F04_HID
  5
564
 10
-90.664428
 20
11.6
 30
0.0
 11
-89.664428
 21
11.6
 31
0.0
1001
ACAD
1000
RTMaterial
1005
0
  0
LINE
  8
F04_HID
  5
565
 10
-90.664428
 20
11.6
 30
0.0
 11
-90.664428
 21
19.2
 31
0.0
1001
ACAD
1000
RTMaterial
1005
0
  0
LINE
  8
F04_HID
  5
566
 10
-90.664428
 20
19.2
 30
0.0
 11
-89.664428
 21
19.2
 31
0.0
1001
ACAD
1000
RTMaterial
1005
0
  0
LINE
  8
F04_HID
  5
567
 10
-89.664428
 20
11.6
 30
0.0
 11
-89.664428
 21
19.2
 31
0.0
1001
ACAD
1000
RTMaterial
1005
0
  0
LINE
  8
F09_IMG2
  5
568
 10
-59.964428
 20
-1.4
 30
0.0
 11
-59.864428
 21
-1.4
 31
0.0
1001
ACAD
1000
RTMaterial
1005
0
  0
LINE
  8
F09_IMG2
  5
569
 10
-59.864428
 20
-1.1
 30
0.0
 11
-59.864428
 21
-1.4
 31
0.0
1001
ACAD
1000
RTMaterial
1005
0
  0
LINE
  8
F09_IMG2
  5
56A
 10
-59.864428
 20
1.1
 30
0.0
 11
-59.864428
 21
-1.1
 31
0.0
1001
ACAD
1000
RTMaterial
1005
0
  0
LINE
  8
F09_IMG2
  5
56B
 10
-59.864428
 20
1.4
 30
0.0
 11
-59.964428
 21
1.4
 31
0.0
1001
ACAD
1000
RTMaterial
1005
0
  0
LINE
  8
F09_IMG2
  5
56C
 10
-59.864428
 20
1.1
 30
0.0
 11
-59.864428
 21
1.4
 31
0.0
1001
ACAD
1000
RTMaterial
1005
0
  0
LINE
  8
F09_IMG2
  5
56D
 10
-69.897101
 20
15.0
 30
0.0
 11
-62.431755
 21
15.0
 31
0.0
1001
ACAD
1000
RTMaterial
1005
0
  0
LINE
  8
F09_IMG2
  5
56E
 10
-76.664428
 20
9.0
 30
0.0
 11
-76.664428
 21
-9.0
 31
0.0
1001
ACAD
1000
RTMaterial
1005
0
  0
LINE
  8
F09_IMG2
  5
56F
 10
-71.468275
 20
12.0
 30
0.0
 11
-76.664428
 21
9.0
 31
0.0
1001
ACAD
1000
RTMaterial
1005
0
  0
LINE
  8
F09_IMG2
  5
570
 10
-71.468275
 20
12.0
 30
0.0
 11
-70.863027
 21
14.258819
 31
0.0
1001
ACAD
1000
RTMaterial
1005
0
  0
LINE
  8
F09_IMG2
  5
571
 10
-62.431755
 20
-15.0
 30
0.0
 11
-69.897101
 21
-15.0
 31
0.0
1001
ACAD
1000
RTMaterial
1005
0
  0
LINE
  8
F09_IMG2
  5
572
 10
-71.468275
 20
-12.0
 30
0.0
 11
-76.664428
 21
-9.0
 31
0.0
1001
ACAD
1000
RTMaterial
1005
0
  0
LINE
  8
F09_IMG2
  5
573
 10
-70.863027
 20
-14.25882
 30
0.0
 11
-71.468275
 21
-12.0
 31
0.0
1001
ACAD
1000
RTMaterial
1005
0
  0
LINE
  8
F09_IMG2
  5
574
 10
-60.164428
 20
-11.600001
 30
0.0
 11
-60.264428
 21
-11.600001
 31
0.0
1001
ACAD
1000
RTMaterial
1005
0
  0
LINE
  8
F09_IMG2
  5
575
 10
-60.355366
 20
-11.404983
 30
0.0
 11
-60.264428
 21
-11.600001
 31
0.0
1001
ACAD
1000
RTMaterial
1005
0
  0
LINE
  8
F09_IMG2
  5
576
 10
-59.964428
 20
-11.400001
 30
0.0
 11
-60.164428
 21
-11.600001
 31
0.0
1001
ACAD
1000
RTMaterial
1005
0
  0
LINE
  8
F09_IMG2
  5
577
 10
-61.465829
 20
-14.25882
 30
0.0
 11
-60.878505
 21
-12.066897
 31
0.0
1001
ACAD
1000
RTMaterial
1005
0
  0
LINE
  8
F09_IMG2
  5
578
 10
-59.964428
 20
11.4
 30
0.0
 11
-59.664428
 21
11.1
 31
0.0
1001
ACAD
1000
RTMaterial
1005
0
  0
LINE
  8
F09_IMG2
  5
579
 10
-59.664428
 20
10.5
 30
0.0
 11
-59.664428
 21
11.1
 31
0.0
1001
ACAD
1000
RTMaterial
1005
0
  0
LINE
  8
F09_IMG2
  5
57A
 10
-59.664428
 20
-11.100001
 30
0.0
 11
-59.964428
 21
-11.400001
 31
0.0
1001
ACAD
1000
RTMaterial
1005
0
  0
LINE
  8
F09_IMG2
  5
57B
 10
-59.664428
 20
-10.500001
 30
0.0
 11
-59.664428
 21
-11.100001
 31
0.0
1001
ACAD
1000
RTMaterial
1005
0
  0
LINE
  8
F09_IMG2
  5
57C
 10
-59.964428
 20
-1.4
 30
0.0
 11
-59.964428
 21
-10.200001
 31
0.0
1001
ACAD
1000
RTMaterial
1005
0
  0
LINE
  8
F09_IMG2
  5
57D
 10
-60.264428
 20
11.6
 30
0.0
 11
-60.164428
 21
11.6
 31
0.0
1001
ACAD
1000
RTMaterial
1005
0
  0
LINE
  8
F09_IMG2
  5
57E
 10
-59.964428
 20
1.4
 30
0.0
 11
-59.964428
 21
10.2
 31
0.0
1001
ACAD
1000
RTMaterial
1005
0
  0
LINE
  8
F09_IMG2
  5
57F
 10
-60.355366
 20
11.404982
 30
0.0
 11
-60.264428
 21
11.6
 31
0.0
1001
ACAD
1000
RTMaterial
1005
0
  0
LINE
  8
F09_IMG2
  5
580
 10
-59.964428
 20
-1.4
 30
0.0
 11
-59.964428
 21
1.4
 31
0.0
1001
ACAD
1000
RTMaterial
1005
0
  0
LINE
  8
F09_IMG2
  5
581
 10
-60.164428
 20
11.6
 30
0.0
 11
-59.964428
 21
11.4
 31
0.0
1001
ACAD
1000
RTMaterial
1005
0
  0
LINE
  8
F09_IMG2
  5
582
 10
-61.465829
 20
14.258819
 30
0.0
 11
-60.878505
 21
12.066896
 31
0.0
1001
ACAD
1000
RTMaterial
1005
0
  0
ARC
  8
F09_IMG2
  5
583
 10
-62.431755
 20
14.0
 30
0.0
 40
1.0
 50
15.0
 51
90.0
1001
ACAD
1000
RTMaterial
1005
0
  0
ARC
  8
F09_IMG2
  5
584
 10
-69.897101
 20
14.0
 30
0.0
 40
1.0
 50
90.0
 51
165.0
1001
ACAD
1000
RTMaterial
1005
0
  0
ARC
  8
F09_IMG2
  5
585
 10
-69.897101
 20
-14.0
 30
0.0
 40
1.0
 50
195.0
 51
270.0
1001
ACAD
1000
RTMaterial
1005
0
  0
ARC
  8
F09_IMG2
  5
586
 10
-62.431755
 20
-14.0
 30
0.0
 40
1.0
 50
270.0
 51
345.0
1001
ACAD
1000
RTMaterial
1005
0
  0
ARC
  8
F09_IMG2
  5
587
 10
-59.964428
 20
10.5
 30
0.0
 40
0.3
 50
270.0
 51
0.0
1001
ACAD
1000
RTMaterial
1005
0
  0
ARC
  8
F09_IMG2
  5
588
 10
-59.964428
 20
-10.500001
 30
0.0
 40
0.3
 50
0.0
 51
90.0
1001
ACAD
1000
RTMaterial
1005
0
  0
LINE
  8
F09_IMG2
  5
589
 10
-60.378505
 20
-12.5
 30
0.0
 11
-60.378505
 21
-11.418342
 31
0.0
1001
ACAD
1000
RTMaterial
1005
0
  0
LINE
  8
F09_IMG2
  5
58A
 10
-60.378505
 20
-12.5
 30
0.0
 11
-60.878505
 21
-12.5
 31
0.0
1001
ACAD
1000
RTMaterial
1005
0
  0
LINE
  8
F09_IMG2
  5
58B
 10
-60.878505
 20
-12.5
 30
0.0
 11
-60.878505
 21
-12.066897
 31
0.0
1001
ACAD
1000
RTMaterial
1005
0
  0
LINE
  8
F09_IMG2
  5
58C
 10
-60.378505
 20
11.418341
 30
0.0
 11
-60.378505
 21
12.5
 31
0.0
1001
ACAD
1000
RTMaterial
1005
0
  0
LINE
  8
F09_IMG2
  5
58D
 10
-60.878505
 20
12.066896
 30
0.0
 11
-60.878505
 21
12.5
 31
0.0
1001
ACAD
1000
RTMaterial
1005
0
  0
LINE
  8
F09_IMG2
  5
58E
 10
-60.378505
 20
12.5
 30
0.0
 11
-60.878505
 21
12.5
 31
0.0
1001
ACAD
1000
RTMaterial
1005
0
  0
INSERT
  8
F05_PRO
  5
5AB
  2
_OPEN30
 10
85.953742
 20
-18.306703
 30
0.0
 41
2.77
 42
2.77
 50
311.185926
 43
2.77
1001
ACAD
1000
DSTYLE
1002
{
1070
     6
1000
OPEN30
1070
    41
1040
2.77
1002
}
  0
LINE
  8
F05_PRO
  5
1061
 10
84.129684
 20
-16.222066
 30
0.0
 11
53.917012
 21
18.306702
 31
0.0
1001
ACAD
1000
R13OBJECT
1002
{
1005
5AB
1002
}
  0
INSERT
  8
F05_PRO
  5
5AC
  2
_OPEN30
 10
53.917012
 20
18.306702
 30
0.0
 41
2.77
 42
2.77
 50
131.185926
 43
2.77
1001
ACAD
1000
DSTYLE
1002
{
1070
     6
1000
OPEN30
1070
    41
1040
2.77
1002
}
  0
LINE
  8
F05_PRO
  5
1062
 10
55.74107
 20
16.222065
 30
0.0
 11
85.953742
 21
-18.306703
 31
0.0
1001
ACAD
1000
R13OBJECT
1002
{
1005
5AC
1002
}
  0
INSERT
  8
F05_PRO
  5
5AD
  2
_OPEN30
 10
85.953742
 20
18.306702
 30
0.0
 41
2.77
 42
2.77
 50
48.814074
 43
2.77
1001
ACAD
1000
DSTYLE
1002
{
1070
     6
1000
OPEN30
1070
    41
1040
2.77
1002
}
  0
LINE
  8
F05_PRO
  5
1063
 10
84.129684
 20
16.222065
 30
0.0
 11
53.917012
 21
-18.306703
 31
0.0
1001
ACAD
1000
R13OBJECT
1002
{
1005
5AD
1002
}
  0
INSERT
  8
F05_PRO
  5
5AE
  2
_OPEN30
 10
53.917012
 20
-18.306703
 30
0.0
 41
2.77
 42
2.77
 50
228.814074
 43
2.77
1001
ACAD
1000
DSTYLE
1002
{
1070
     6
1000
OPEN30
1070
    41
1040
2.77
1002
}
  0
LINE
  8
F05_PRO
  5
1064
 10
55.74107
 20
-16.222066
 30
0.0
 11
85.953742
 21
18.306702
 31
0.0
1001
ACAD
1000
R13OBJECT
1002
{
1005
5AE
1002
}
  0
INSERT
  8
F02_DIM
  5
5AF
  2
_OPEN30
 10
89.004464
 20
21.612596
 30
0.0
 41
2.77
 42
2.77
 50
229.867294
 43
2.77
1001
ACAD
1000
DSTYLE
1002
{
1070
     6
1000
OPEN30
1070
    41
1040
2.77
1002
}
  0
POLYLINE
  8
F02_DIM
  5
1065
 66
     1
 10
0.0
 20
0.0
 30
0.0
 70
   128
1001
ACAD
1000
R13OBJECT
1002
{
1005
5AF
1002
}
  0
VERTEX
  8
F02_DIM
  5
1066
 10
90.789896
 20
23.730409
 30
0.0
  0
VERTEX
  8
F02_DIM
  5
1067
 10
94.779458
 20
28.462682
 30
0.0
  0
VERTEX
  8
F02_DIM
  5
1068
 10
106.778462
 20
28.462682
 30
0.0
  0
SEQEND
  8
F02_DIM
  5
1069
  0
INSERT
  8
F05_PRO
  5
5E4
  2
_DOTSMALL
 10
-1.451399
 20
17.317838
 30
0.0
 41
2.32
 42
2.32
 50
320.82515
 43
2.32
1001
ACAD
1000
DSTYLE
1002
{
1070
     6
1000
DOTSMALL
1070
    41
1040
2.32
1070
   341
1005
4C099A04000005E0
1070
   344
1005
C8159A04000005E0
1002
}
  0
LINE
  8
F05_PRO
  5
106A
 10
-1.451399
 20
17.317838
 30
0.0
 11
-25.90426
 21
37.243238
 31
0.0
1001
ACAD
1000
R13OBJECT
1002
{
1005
5E4
1002
}
  0
INSERT
  8
F05_PRO
  5
5E5
  2
_DOTSMALL
 10
-9.66757
 20
17.225521
 30
0.0
 41
2.32
 42
2.32
 50
309.046061
 43
2.32
1001
ACAD
1000
DSTYLE
1002
{
1070
     6
1000
DOTSMALL
1070
    41
1040
2.32
1070
   341
1005
60149A04000005E0
1070
   344
1005
2C2F9A04000005E0
1002
}
  0
LINE
  8
F05_PRO
  5
106B
 10
-9.66757
 20
17.225521
 30
0.0
 11
-25.90426
 21
37.243238
 31
0.0
1001
ACAD
1000
R13OBJECT
1002
{
1005
5E5
1002
}
  0
INSERT
  8
F05_PRO
  5
5E6
  2
_DOTSMALL
 10
18.842161
 20
16.569678
 30
0.0
 41
2.32
 42
2.32
 50
216.339928
 43
2.32
1001
ACAD
1000
DSTYLE
1002
{
1070
     6
1000
DOTSMALL
1070
    41
1040
2.32
1070
   341
1005
40099A04000005E0
1070
   344
1005
BC159A04000005E0
1002
}
  0
POLYLINE
  8
F05_PRO
  5
106C
 66
     1
 10
0.0
 20
0.0
 30
0.0
 70
   128
1001
ACAD
1000
R13OBJECT
1002
{
1005
5E6
1002
}
  0
VERTEX
  8
F05_PRO
  5
106D
 10
18.842161
 20
16.569678
 30
0.0
  0
VERTEX
  8
F05_PRO
  5
106E
 10
24.05136
 20
20.401807
 30
0.0
  0
VERTEX
  8
F05_PRO
  5
106F
 10
39.295635
 20
20.401807
 30
0.0
  0
SEQEND
  8
F05_PRO
  5
1070
  0
INSERT
  8
F05_PRO
  5
5E8
  2
_DOTSMALL
 10
9.625744
 20
17.49132
 30
0.0
 41
2.32
 42
2.32
 50
252.548853
 43
2.32
1001
ACAD
1000
DSTYLE
1002
{
1070
     6
1000
DOTSMALL
1070
    41
1040
2.32
1070
   341
1005
54149A04000005E0
1070
   344
1005
202F9A04000005E0
1002
}
  0
POLYLINE
  8
F05_PRO
  5
1071
 66
     1
 10
0.0
 20
0.0
 30
0.0
 70
   128
1001
ACAD
1000
R13OBJECT
1002
{
1005
5E8
1002
}
  0
VERTEX
  8
F05_PRO
  5
1072
 10
9.625744
 20
17.49132
 30
0.0
  0
VERTEX
  8
F05_PRO
  5
1073
 10
19.794589
 20
49.838924
 30
0.0
  0
VERTEX
  8
F05_PRO
  5
1074
 10
34.536937
 20
49.838924
 30
0.0
  0
SEQEND
  8
F05_PRO
  5
1075
  0
INSERT
  8
F05_PRO
  5
5EA
  2
_DOTSMALL
 10
-19.039967
 20
17.026011
 30
0.0
 41
2.32
 42
2.32
 50
288.753733
 43
2.32
1001
ACAD
1000
DSTYLE
1002
{
1070
     6
1000
DOTSMALL
1070
    41
1040
2.32
1070
   341
1005
34099A04000005E0
1070
   344
1005
B0159A04000005E0
1002
}
  0
POLYLINE
  8
F05_PRO
  5
1076
 66
     1
 10
0.0
 20
0.0
 30
0.0
 70
   128
1001
ACAD
1000
R13OBJECT
1002
{
1005
5EA
1002
}
  0
VERTEX
  8
F05_PRO
  5
1077
 10
-19.039967
 20
17.026011
 30
0.0
  0
VERTEX
  8
F05_PRO
  5
1078
 10
-25.90426
 20
37.243238
 30
0.0
  0
VERTEX
  8
F05_PRO
  5
1079
 10
-35.019315
 20
37.243238
 30
0.0
  0
SEQEND
  8
F05_PRO
  5
107A
  0
LINE
  8
F05_PRO
  5
67A
 10
21.026705
 20
-10.810178
 30
0.0
 11
24.677994
 21
-11.540436
 31
0.0
1001
ACAD
1000
RTMaterial
1005
0
  0
LINE
  8
F05_PRO
  5
67B
 10
21.107845
 20
10.205019
 30
0.0
 11
24.840274
 21
11.503256
 31
0.0
1001
ACAD
1000
RTMaterial
1005
0
  0
LINE
  8
F08_IMG
  5
A76
 10
-136.664428
 20
-12.2
 30
0.0
 11
-122.664428
 21
-12.2
 31
0.0
1001
ACAD
1000
RTMaterial
1005
0
  0
LINE
  8
F08_IMG
  5
A77
 10
-123.664428
 20
-13.2
 30
0.0
 11
-123.664428
 21
-17.05
 31
0.0
1001
ACAD
1000
RTMaterial
1005
0
  0
LINE
  8
F08_IMG
  5
A78
 10
-123.664428
 20
17.65
 30
0.0
 11
-123.664428
 21
13.8
 31
0.0
1001
ACAD
1000
RTMaterial
1005
0
  0
LINE
  8
F08_IMG
  5
A79
 10
-137.664428
 20
-13.2
 30
0.0
 11
-123.664428
 21
-13.2
 31
0.0
1001
ACAD
1000
RTMaterial
1005
0
  0
LINE
  8
F08_IMG
  5
A7A
 10
-137.664428
 20
13.8
 30
0.0
 11
-123.664428
 21
13.8
 31
0.0
1001
ACAD
1000
RTMaterial
1005
0
  0
LINE
  8
F08_IMG
  5
A7B
 10
-137.664428
 20
13.8
 30
0.0
 11
-137.664428
 21
-13.2
 31
0.0
1001
ACAD
1000
RTMaterial
1005
0
  0
LINE
  8
F08_IMG
  5
A7C
 10
-136.664428
 20
12.8
 30
0.0
 11
-136.664428
 21
-12.2
 31
0.0
1001
ACAD
1000
RTMaterial
1005
0
  0
LINE
  8
F08_IMG
  5
A7D
 10
-136.664428
 20
12.8
 30
0.0
 11
-122.664428
 21
12.8
 31
0.0
1001
ACAD
1000
RTMaterial
1005
0
  0
LINE
  8
F08_IMG
  5
A7E
 10
-122.664428
 20
-12.2
 30
0.0
 11
-122.664428
 21
-17.05
 31
0.0
1001
ACAD
1000
RTMaterial
1005
0
  0
ARC
  8
F05_PRO
  5
D83
 10
-124.857608
 20
-73.950373
 30
0.0
 40
3.78
 50
182.729155
 51
279.960292
1001
ACAD
1000
ASC_BOUNDS
1002
{
1070
    19
1002
}
  0
ARC
  8
F05_PRO
  5
D84
 10
-132.324933
 20
-70.125357
 30
0.0
 40
1.575
 50
90.0
 51
168.003101
  0
LINE
  8
F05_PRO
  5
D85
 10
-132.79863
 20
-77.550357
 30
0.0
 11
-132.07188
 21
-74.130357
 31
0.0
  0
LINE
  8
F05_PRO
  5
D86
 10
-135.512913
 20
-77.550357
 30
0.0
 11
-133.865533
 21
-69.797979
 31
0.0
  0
LINE
  8
F05_PRO
  5
D87
 10
-135.512913
 20
-77.550357
 30
0.0
 11
-132.79863
 21
-77.550357
 31
0.0
  0
ARC
  8
F05_PRO
  5
D88
 10
-123.341645
 20
-72.153269
 30
0.0
 40
3.191557
 50
2.961866
 51
93.426847
  0
ARC
  8
F05_PRO
  5
D89
 10
-123.327098
 20
-72.115839
 30
0.0
 40
3.745468
 50
1.499529
 51
100.57959
1001
ACAD
1000
ASC_BOUNDS
1002
{
1070
    19
1002
}
  0
LINE
  8
F05_PRO
  5
D8A
 10
-131.616705
 20
-71.988357
 30
0.0
 11
-131.451479
 21
-71.21082
 31
0.0
  0
ARC
  8
F05_PRO
  5
D8B
 10
-123.16968
 20
-74.016183
 30
0.0
 40
5.449335
 50
144.533818
 51
158.153358
  0
POLYLINE
  8
F05_PRO
  5
D8C
 66
     1
 10
0.0
 20
0.0
 30
0.0
 70
   128
  0
VERTEX
  8
F05_PRO
  5
107B
 10
-123.532418
 20
-68.967419
 30
0.0
  0
VERTEX
  8
F05_PRO
  5
107C
 10
-124.306981
 20
-69.078971
 30
0.0
  0
VERTEX
  8
F05_PRO
  5
107D
 10
-125.067558
 20
-69.349355
 30
0.0
  0
VERTEX
  8
F05_PRO
  5
107E
 10
-125.789542
 20
-69.769822
 30
0.0
  0
VERTEX
  8
F05_PRO
  5
107F
 10
-126.449573
 20
-70.326767
 30
0.0
  0
VERTEX
  8
F05_PRO
  5
1080
 10
-127.026295
 20
-71.002172
 30
0.0
  0
VERTEX
  8
F05_PRO
  5
1081
 10
-127.50105
 20
-71.774184
 30
0.0
  0
VERTEX
  8
F05_PRO
  5
1082
 10
-127.858476
 20
-72.617824
 30
0.0
  0
SEQEND
  8
F05_PRO
  5
1083
  0
LINE
  8
F05_PRO
  5
D8D
 10
-126.80976
 20
-72.636357
 30
0.0
 11
-119.582913
 21
-72.636357
 31
0.0
  0
LINE
  8
F05_PRO
  5
D8E
 10
-126.672322
 20
-71.988357
 30
0.0
 11
-120.154352
 21
-71.988357
 31
0.0
  0
ARC
  8
F05_PRO
  5
D8F
 10
-125.227205
 20
-72.16741
 30
0.0
 40
5.051744
 50
280.279158
 51
339.332945
1001
ACAD
1000
ASC_BOUNDS
1002
{
1070
    19
1002
}
  0
ARC
  8
F05_PRO
  5
D90
 10
-125.068785
 20
-72.308983
 30
0.0
 40
5.433708
 50
279.159834
 51
342.417868
1001
ACAD
1000
ASC_BOUNDS
1002
{
1070
    19
1002
}
  0
LINE
  8
F05_PRO
  5
D91
 10
-126.672322
 20
-71.988357
 30
0.0
 11
-126.80976
 21
-72.636357
 31
0.0
  0
LINE
  8
F05_PRO
  5
D92
 10
-131.616705
 20
-71.988357
 30
0.0
 11
-128.227661
 21
-71.988357
 31
0.0
  0
POLYLINE
  8
F05_PRO
  5
D93
 66
     1
 10
0.0
 20
0.0
 30
0.0
 70
   128
  0
VERTEX
  8
F05_PRO
  5
1084
 10
-127.858476
 20
-72.617824
 30
0.0
  0
VERTEX
  8
F05_PRO
  5
1085
 10
-128.027961
 20
-73.388821
 30
0.0
  0
VERTEX
  8
F05_PRO
  5
1086
 10
-128.064259
 20
-74.141765
 30
0.0
  0
SEQEND
  8
F05_PRO
  5
1087
  0
LINE
  8
F05_PRO
  5
D94
 10
-132.07188
 20
-74.130357
 30
0.0
 11
-128.63332
 21
-74.130357
 31
0.0
  0
ARC
  8
F05_PRO
  5
D95
 10
-124.703191
 20
-73.77962
 30
0.0
 40
3.379597
 50
186.002385
 51
276.412304
1001
ACAD
1000
ASC_BOUNDS
1002
{
1070
    19
1002
}
  0
LINE
  8
F05_PRO
  5
D96
 10
-119.888913
 20
-73.950357
 30
0.0
 11
-120.500555
 21
-73.950357
 31
0.0
  0
LINE
  8
F05_PRO
  5
D97
 10
-119.582913
 20
-72.636357
 30
0.0
 11
-119.582913
 21
-72.017824
 31
0.0
  0
LINE
  8
F05_PRO
  5
D98
 10
-126.670413
 20
-68.550357
 30
0.0
 11
-126.967413
 21
-69.99691
 31
0.0
  0
ARC
  8
F05_PRO
  5
D99
 10
-123.277108
 20
-73.398601
 30
0.0
 40
5.01895
 50
98.442625
 51
137.3304
1001
ACAD
1000
ASC_BOUNDS
1002
{
1070
    19
1002
}
  0
LINE
  8
F05_PRO
  5
D9A
 10
-131.011307
 20
-70.854357
 30
0.0
 11
-127.607935
 21
-70.854357
 31
0.0
  0
ARC
  8
F05_PRO
  5
D9B
 10
-131.011307
 20
-71.304357
 30
0.0
 40
0.45
 50
90.0
 51
168.003101
  0
LINE
  8
F05_PRO
  5
D9C
 10
-132.324933
 20
-68.550357
 30
0.0
 11
-126.670413
 21
-68.550357
 31
0.0
  0
TEXT
  8
F05_PRO
  5
D9D
 10
-92.353361
 20
-77.717604
 30
0.0
 40
4.0
  1
SK06A, SK06G, SK06L
 41
0.8
  7
FSTD1
  0
TEXT
  8
F05_PRO
  5
D9E
 10
-110.579229
 20
-77.717604
 30
0.0
 40
4.0
  1
Type
  7
FSTD1
  0
TEXT
  8
F05_PRO
  5
D9F
 10
78.346127
 20
-97.965294
 30
0.0
 40
2.0
  1
図面番号
  7
FSTD1
  0
LINE
  8
F05_PRO
  5
DA0
 10
27.413854
 20
-94.910343
 30
0.0
 11
103.406254
 21
-94.910343
 31
0.0
  0
LINE
  8
F05_PRO
  5
DA1
 10
27.413854
 20
-98.909943
 30
0.0
 11
103.406254
 21
-98.909943
 31
0.0
  0
LINE
  8
F05_PRO
  5
DA2
 10
27.413854
 20
-102.909543
 30
0.0
 11
103.406254
 21
-102.909543
 31
0.0
  0
LINE
  8
F05_PRO
  5
DA3
 10
27.413854
 20
-106.909143
 30
0.0
 11
103.406254
 21
-106.909143
 31
0.0
  0
LINE
  8
F05_PRO
  5
DA4
 10
27.413854
 20
-110.908743
 30
0.0
 11
103.406254
 21
-110.908743
 31
0.0
  0
LINE
  8
F05_PRO
  5
DA5
 10
51.411454
 20
-94.910343
 30
0.0
 11
51.411454
 21
-110.908743
 31
0.0
  0
LINE
  8
F05_PRO
  5
DA6
 10
71.409454
 20
-94.910343
 30
0.0
 11
71.409454
 21
-110.908743
 31
0.0
  0
LINE
  8
F05_PRO
  5
DA7
 10
27.413854
 20
-94.910343
 30
0.0
 11
27.413854
 21
-110.908743
 31
0.0
  0
LINE
  8
F05_PRO
  5
DA8
 10
35.413054
 20
-94.910343
 30
0.0
 11
35.413054
 21
-110.908743
 31
0.0
  0
TEXT
  8
F05_PRO
  5
DA9
 10
29.36117
 20
-105.803707
 30
0.0
 40
2.0
  1
変更
  7
FSTD1
  0
TEXT
  8
F05_PRO
  5
DAA
 10
29.36117
 20
-102.025585
 30
0.0
 40
2.0
  1
作成
  7
FSTD1
  0
TEXT
  8
F05_PRO
  5
DAB
 10
52.775911
 20
-102.025585
 30
0.0
 40
2.0
  1
SK06A
  7
FSTD1
  0
TEXT
  8
F05_PRO
  5
DAC
 10
58.299986
 20
-97.965294
 30
0.0
 40
2.0
  1
ﾌｧｲﾙ名
  7
FSTD1
  0
TEXT
  8
F05_PRO
  5
DAD
 10
37.487801
 20
-102.025585
 30
0.0
 40
2.0
  1
2011-10
  7
FSTD1
  0
TEXT
  8
F05_PRO
  5
DAE
 10
40.984497
 20
-97.965294
 30
0.0
 40
2.0
  1
日付
  7
FSTD1
  0
LINE
  8
F05_PRO
  5
DAF
 10
103.406254
 20
-94.910343
 30
0.0
 11
103.406254
 21
-110.908743
 31
0.0
  0
LINE
  8
F05_PRO
  5
DB0
 10
95.407054
 20
-94.910343
 30
0.0
 11
95.407054
 21
-110.908743
 31
0.0
  0
TEXT
  8
F05_PRO
  5
DB1
 10
97.494027
 20
-97.965294
 30
0.0
 40
2.0
  1
変更
  7
FSTD1
  0
TEXT
  8
F05_PRO
  5
DB5
 10
-132.743166
 20
-44.184755
 30
0.0
 40
2.5
  1
※1 : 補助接点ユニット(SZ1KA□)(ヘッドオン)を取り付けた場合
  7
FSTD1
  0
TEXT
  8
F05_PRO
  5
DB6
 10
-132.743166
 20
-49.363779
 30
0.0
 40
2.5
  1
※2 : 補助接点ユニット(SZ1FA□)(ヘッドオン)を取り付けた場合
  7
FSTD1
  0
DIMENSION
  8
F02_DIM
  5
DC5
  2
*D2
 10
-119.664428
 20
28.385959
 30
0.0
 11
-122.664428
 21
30.885959
 31
0.0
 12
-60.327257
 22
-77.183901
 32
0.0
 13
-125.664428
 23
24.0
 33
0.0
 14
-119.664428
 24
23.5
 34
0.0
  3
FSTD1
1001
ACAD
1000
DSTYLE
1002
{
1070
    40
1040
1.0
1002
}
  0
DIMENSION
  8
F02_DIM
  5
DD4
  2
*D3
 10
-89.664428
 20
34.916754
 30
0.0
 11
-107.664428
 21
37.416754
 31
0.0
 12
-60.327257
 22
-77.183901
 32
0.0
 13
-125.664428
 23
24.0
 33
0.0
 14
-89.664428
 24
19.2
 34
0.0
  3
FSTD1
1001
ACAD
1000
DSTYLE
1002
{
1070
    40
1040
1.0
1002
}
  0
LINE
  8
F08_IMG
  5
DD5
 10
-123.664428
 20
-17.05
 30
0.0
 11
-122.664428
 21
-17.05
 31
0.0
  0
LINE
  8
F08_IMG
  5
DD6
 10
-123.664428
 20
17.65
 30
0.0
 11
-122.664428
 21
17.65
 31
0.0
  0
LINE
  8
F08_IMG
  5
DD7
 10
-122.664428
 20
12.8
 30
0.0
 11
-122.664428
 21
17.65
 31
0.0
1001
ACAD
1000
RTMaterial
1005
0
  0
DIMENSION
  8
F02_DIM
  5
DFE
  2
*D4
 10
-76.664428
 20
41.795682
 30
0.0
 11
-101.164428
 21
44.295682
 31
0.0
 12
-60.327257
 22
-77.183901
 32
0.0
 13
-125.664428
 23
24.0
 33
0.0
 14
-76.664428
 24
11.5
 34
0.0
  3
FSTD1
1001
ACAD
1000
DSTYLE
1002
{
1070
    40
1040
1.0
1002
}
  0
DIMENSION
  8
F02_DIM
  5
E0B
  2
*D5
 10
-137.664428
 20
48.432284
 30
0.0
 11
-107.164428
 21
50.932284
 31
0.0
 12
-60.327257
 22
-77.183901
 32
0.0
 13
-76.664428
 23
11.5
 33
0.0
 14
-137.664428
 24
13.8
 34
0.0
  3
FSTD1
1001
ACAD
1000
DSTYLE
1002
{
1070
    40
1040
1.0
1002
}
  0
TEXT
  8
F02_DIM
  5
E17
 10
-103.735441
 20
50.009584
 30
0.0
 40
2.5
  1
(レール高さ15の場合)
 41
0.8
  7
FSTD1
  0
DIMENSION
  8
F02_DIM
  5
E24
  2
*D6
 10
-59.664428
 20
41.795682
 30
0.0
 11
-68.164428
 21
44.295682
 31
0.0
 12
-60.327257
 22
-77.183901
 32
0.0
  1
(<>)
 13
-76.664428
 23
11.5
 33
0.0
 14
-59.664428
 24
11.1
 34
0.0
  3
FSTD1
1001
ACAD
1000
DSTYLE
1002
{
1070
    40
1040
1.0
1002
}
  0
DIMENSION
  8
F02_DIM
  5
E31
  2
*D7
 10
-42.664428
 20
48.432284
 30
0.0
 11
-59.664428
 21
50.932284
 31
0.0
 12
-60.327257
 22
-77.183901
 32
0.0
  1
(<>)
 13
-76.664428
 23
11.5
 33
0.0
 14
-42.664428
 24
0.8
 34
0.0
  3
FSTD1
1001
ACAD
1000
DSTYLE
1002
{
1070
    40
1040
1.0
1002
}
  0
TEXT
  8
F02_DIM
  5
E32
 10
-63.241403
 20
44.412055
 30
0.0
 40
2.5
  1
※2
  7
FSTD1
  0
TEXT
  8
F02_DIM
  5
E33
 10
-54.336816
 20
49.807657
 30
0.0
 40
2.5
  1
※1
  7
FSTD1
  0
POLYLINE
  8
F02_DIM
  5
F78
 66
     1
 10
0.0
 20
0.0
 30
0.0
 70
     1
  0
VERTEX
  8
F02_DIM
  5
1088
 10
65.347542
 20
36.064502
 30
0.0
  0
VERTEX
  8
F02_DIM
  5
1089
 10
74.185059
 20
36.064502
 30
0.0
  0
VERTEX
  8
F02_DIM
  5
108A
 10
74.185059
 20
31.411117
 30
0.0
  0
VERTEX
  8
F02_DIM
  5
108B
 10
65.347542
 20
31.411117
 30
0.0
  0
SEQEND
  8
F02_DIM
  5
108C
  0
POLYLINE
  8
F02_DIM
  5
F79
 66
     1
 10
0.0
 20
0.0
 30
0.0
 70
     1
  0
VERTEX
  8
F02_DIM
  5
108D
 10
97.891562
 20
3.677695
 30
0.0
  0
VERTEX
  8
F02_DIM
  5
108E
 10
102.586703
 20
3.677695
 30
0.0
  0
VERTEX
  8
F02_DIM
  5
108F
 10
102.586703
 20
-3.353348
 30
0.0
  0
VERTEX
  8
F02_DIM
  5
1090
 10
97.891562
 20
-3.353348
 30
0.0
  0
SEQEND
  8
F02_DIM
  5
1091
  0
DIMENSION
  8
F02_DIM
  5
F86
  2
*D8
 10
-8.7
 20
37.224384
 30
0.0
 11
-13.05
 21
39.724384
 31
0.0
 12
-60.327257
 22
-77.183901
 32
0.0
 13
-17.4
 23
20.75
 33
0.0
 14
-8.7
 24
20.75
 34
0.0
  3
FSTD1
1001
ACAD
1000
DSTYLE
1002
{
1070
    40
1040
1.0
1002
}
  0
DIMENSION
  8
F02_DIM
  5
F95
  2
*D9
 10
3.875
 20
30.343879
 30
0.0
 11
0.0
 21
30.343879
 31
0.0
 12
-60.327257
 22
-77.183901
 32
0.0
 70
   128
  1
7.7
 13
-3.875
 23
23.7
 33
0.0
 14
3.875
 24
23.7
 34
0.0
  3
FSTD1
1001
ACAD
1000
DSTYLE
1002
{
1070
    40
1040
1.0
1002
}
  0
TEXT
  8
F05_PRO
  5
FB0
 10
-34.454445
 20
41.40911
 30
0.0
 40
2.5
  1
主端子
  7
FSTD1
  0
TEXT
  8
F05_PRO
  5
FB1
 10
-34.454445
 20
38.40911
 30
0.0
 40
2.5
  1
M3.5
  7
FSTD1
  0
TEXT
  8
F05_PRO
  5
FB2
 10
21.464916
 20
54.048436
 30
0.0
 40
2.5
  1
補助端子
  7
FSTD1
  0
TEXT
  8
F05_PRO
  5
FB3
 10
21.464916
 20
51.048436
 30
0.0
 40
2.5
  1
M3.5
  7
FSTD1
  0
TEXT
  8
F05_PRO
  5
FB4
 10
24.570526
 20
24.640087
 30
0.0
 40
2.5
  1
コイル端子
  7
FSTD1
  0
TEXT
  8
F05_PRO
  5
FB5
 10
24.570526
 20
21.640087
 30
0.0
 40
2.5
  1
M3.5
  7
FSTD1
  0
DIMENSION
  8
F02_DIM
  5
FC2
  2
*D10
 10
22.5
 20
45.125562
 30
0.0
 11
0.0
 21
47.625562
 31
0.0
 12
-60.327257
 22
-77.183901
 32
0.0
 13
-22.5
 23
23.7
 33
0.0
 14
22.5
 24
23.7
 34
0.0
  3
FSTD1
1001
ACAD
1000
DSTYLE
1002
{
1070
    40
1040
1.0
1002
}
  0
DIMENSION
  8
F02_DIM
  5
FCF
  2
*D11
 10
-26.712205
 20
-15.5
 30
0.0
 11
-29.212205
 21
0.0
 31
0.0
 12
-60.327257
 22
-77.183901
 32
0.0
 13
-22.65
 23
15.5
 33
0.0
 14
-22.65
 24
-15.5
 34
0.0
 50
90.0
  3
FSTD1
1001
ACAD
1000
DSTYLE
1002
{
1070
    40
1040
1.0
1002
}
  0
DIMENSION
  8
F02_DIM
  5
FDC
  2
*D12
 10
-33.142887
 20
-24.0
 30
0.0
 11
-35.642887
 21
0.0
 31
0.0
 12
-60.327257
 22
-77.183901
 32
0.0
 13
-22.2
 23
24.0
 33
0.0
 14
-22.2
 24
-24.0
 34
0.0
 50
90.0
  3
FSTD1
1001
ACAD
1000
DSTYLE
1002
{
1070
    40
1040
1.0
1002
}
  0
TEXT
  8
F05_PRO
  5
FDD
 10
95.482154
 20
32.311461
 30
0.0
 40
2.5
  1
取付穴
  7
FSTD1
  0
TEXT
  8
F05_PRO
  5
FDE
 10
95.482154
 20
29.311461
 30
0.0
 40
2.5
  1
2XM4
  7
FSTD1
  0
TEXT
  8
F05_PRO
  5
FDF
 10
59.727303
 20
42.76453
 30
0.0
 40
3.0
  1
取付穴寸法図
  7
FSTD1
  0
TEXT
  8
F05_PRO
  5
FE0
 10
44.790263
 20
-37.176408
 30
0.0
 40
2.5
  1
対角線の取付穴2ヵ所で取付けてください。
  7
FSTD1
  0
DIMENSION
  8
F02_DIM
  5
FED
  2
*D13
 10
87.435377
 20
30.875118
 30
0.0
 11
69.935377
 21
33.375118
 31
0.0
 12
-60.327257
 22
-77.183901
 32
0.0
 13
52.435377
 23
25.25
 33
0.0
 14
87.435377
 24
-14.75
 34
0.0
  3
FSTD1
1001
ACAD
1000
DSTYLE
1002
{
1070
    40
1040
1.0
1002
}
  0
DIMENSION
  8
F02_DIM
  5
FFA
  2
*D14
 10
102.991688
 20
-20.0
 30
0.0
 11
100.491688
 21
0.0
 31
0.0
 12
-60.327257
 22
-77.183901
 32
0.0
 13
92.685377
 23
20.0
 33
0.0
 14
57.685377
 24
-20.0
 34
0.0
 50
90.0
  3
FSTD1
1001
ACAD
1000
DSTYLE
1002
{
1070
    40
1040
1.0
1002
}
  0
TEXT
  8
F05_PRO
  5
FFB
 10
-92.353361
 20
-84.217915
 30
0.0
 40
4.0
  1
SK09A, SK09G, SK09L
 41
0.8
  7
FSTD1
  0
TEXT
  8
F05_PRO
  5
FFC
 10
-92.353361
 20
-90.486073
 30
0.0
 40
4.0
  1
SK12A, SK12G, SK12L
 41
0.8
  7
FSTD1
  0
TEXT
  8
F05_PRO
  5
1024
 10
72.773911
 20
-102.025585
 30
0.0
 40
2.0
  1
F0A0 03 20(5)
  7
FSTD1
  0
TEXT
  8
F05_PRO
  5
102D
 10
-19.353303
 20
9.252227
 30
0.0
 40
1.8
  1
1
 41
0.7
  7
FSTD2
  0
TEXT
  8
F05_PRO
  5
102E
 10
-16.123095
 20
9.305091
 30
0.0
 40
1.8
  1
L1
 41
0.7
  7
FSTD2
  0
TEXT
  8
F05_PRO
  5
102F
 10
-11.372733
 20
9.311285
 30
0.0
 40
1.8
  1
3
 41
0.7
  7
FSTD2
  0
TEXT
  8
F05_PRO
  5
1030
 10
-7.628725
 20
9.279447
 30
0.0
 40
1.8
  1
L2
 41
0.7
  7
FSTD2
  0
TEXT
  8
F05_PRO
  5
1031
 10
-2.432387
 20
9.30438
 30
0.0
 40
1.8
  1
5
 41
0.7
  7
FSTD2
  0
TEXT
  8
F05_PRO
  5
1032
 10
1.152595
 20
9.316698
 30
0.0
 40
1.8
  1
L3
 41
0.7
  7
FSTD2
  0
TEXT
  8
F05_PRO
  5
1033
 10
5.639955
 20
9.308951
 30
0.0
 40
1.8
  1
13
 41
0.7
  7
FSTD2
  0
TEXT
  8
F05_PRO
  5
1034
 10
14.170204
 20
9.355823
 30
0.0
 40
1.8
  1
A1
 41
0.7
  7
FSTD2
  0
TEXT
  8
F05_PRO
  5
1035
 10
19.832457
 20
9.417719
 30
0.0
 40
1.8
  1
+
 41
0.7
  7
FSTD2
  0
TEXT
  8
F05_PRO
  5
1036
 10
-19.489814
 20
-11.079272
 30
0.0
 40
1.8
  1
2
 41
0.7
  7
FSTD2
  0
TEXT
  8
F05_PRO
  5
1037
 10
-16.104483
 20
-11.116907
 30
0.0
 40
1.8
  1
T1
 41
0.7
  7
FSTD2
  0
TEXT
  8
F05_PRO
  5
1038
 10
-11.112552
 20
-11.097182
 30
0.0
 40
1.8
  1
4
 41
0.7
  7
FSTD2
  0
TEXT
  8
F05_PRO
  5
1039
 10
-7.899356
 20
-11.020095
 30
0.0
 40
1.8
  1
T2
 41
0.7
  7
FSTD2
  0
TEXT
  8
F05_PRO
  5
103A
 10
-2.276262
 20
-11.00037
 30
0.0
 40
1.8
  1
6
 41
0.7
  7
FSTD2
  0
TEXT
  8
F05_PRO
  5
103B
 10
1.011558
 20
-10.957721
 30
0.0
 40
1.8
  1
T3
 41
0.7
  7
FSTD2
  0
TEXT
  8
F05_PRO
  5
103C
 10
6.013535
 20
-11.000406
 30
0.0
 40
1.8
  1
14
 41
0.7
  7
FSTD2
  0
TEXT
  8
F05_PRO
  5
103D
 10
14.034724
 20
-10.907943
 30
0.0
 40
1.8
  1
A2
 41
0.7
  7
FSTD2
  0
TEXT
  8
F05_PRO
  5
103E
 10
19.532392
 20
-10.995677
 30
0.0
 40
1.8
  1
-
 41
0.7
  7
FSTD2
  0
TEXT
  8
F05_PRO
  5
1041
 10
9.690227
 20
9.232707
 30
0.0
 40
1.8
  1
NO
 41
0.7
  7
FSTD2
  0
TEXT
  8
F05_PRO
  5
1055
 10
26.710677
 20
10.481069
 30
0.0
 40
2.5
  1
※3
  7
FSTD1
  0
TEXT
  8
F05_PRO
  5
1056
 10
26.558731
 20
-13.633117
 30
0.0
 40
2.5
  1
※3
  7
FSTD1
  0
TEXT
  8
F05_PRO
  5
1057
 10
-92.353361
 20
-109.836795
 30
0.0
 40
4.0
  1
SK12AH, SK12GH, SK12LH
 41
0.8
  7
FSTD1
  0
TEXT
  8
F05_PRO
  5
1058
 10
-92.353361
 20
-103.568638
 30
0.0
 40
4.0
  1
SK09AH, SK09GH, SK09LH
 41
0.8
  7
FSTD1
  0
TEXT
  8
F05_PRO
  5
1059
 10
-92.353361
 20
-97.068326
 30
0.0
 40
4.0
  1
SK06AH, SK06GH, SK06LH
 41
0.8
  7
FSTD1
  0
TEXT
  8
F05_PRO
  5
105A
 10
-132.743166
 20
-55.038286
 30
0.0
 40
2.5
  1
※3 : DC操作器の場合
  7
FSTD1
  0
ENDSEC
  0
EOF
