  0
SECTION
  2
HEADER
  9
$ACADVER
  1
AC1009
  9
$INSBASE
 10
0.0
 20
0.0
 30
0.0
  9
$EXTMIN
 10
-90.115627
 20
-235.373169
 30
0.0
  9
$EXTMAX
 10
430.943121
 20
74.840049
 30
0.0
  9
$LIMMIN
 10
0.0
 20
0.0
  9
$LIMMAX
 10
420.0
 20
297.0
  9
$ORTHOMODE
 70
     0
  9
$REGENMODE
 70
     1
  9
$FILLMODE
 70
     1
  9
$QTEXTMODE
 70
     0
  9
$MIRRTEXT
 70
     1
  9
$DRAGMODE
 70
     2
  9
$LTSCALE
 40
1.0
  9
$OSMODE
 70
    33
  9
$ATTMODE
 70
     1
  9
$TEXTSIZE
 40
3.0
  9
$TRACEWID
 40
1.0
  9
$TEXTSTYLE
  7
STANDARD
  9
$CLAYER
  8
0
  9
$CELTYPE
  6
BYLAYER
  9
$CECOLOR
 62
   256
  9
$DIMSCALE
 40
1.0
  9
$DIMASZ
 40
3.0
  9
$DIMEXO
 40
1.0
  9
$DIMDLI
 40
0.38
  9
$DIMRND
 40
0.0
  9
$DIMDLE
 40
0.0
  9
$DIMEXE
 40
1.0
  9
$DIMTP
 40
0.2
  9
$DIMTM
 40
0.0
  9
$DIMTXT
 40
4.0
  9
$DIMCEN
 40
0.09
  9
$DIMTSZ
 40
0.0
  9
$DIMTOL
 70
     0
  9
$DIMLIM
 70
     0
  9
$DIMTIH
 70
     0
  9
$DIMTOH
 70
     0
  9
$DIMSE1
 70
     0
  9
$DIMSE2
 70
     0
  9
$DIMTAD
 70
     1
  9
$DIMZIN
 70
     8
  9
$DIMBLK
  1

  9
$DIMASO
 70
     1
  9
$DIMSHO
 70
     1
  9
$DIMPOST
  1

  9
$DIMAPOST
  1

  9
$DIMALT
 70
     0
  9
$DIMALTD
 70
     4
  9
$DIMALTF
 40
0.0394
  9
$DIMLFAC
 40
1.0
  9
$DIMTOFL
 70
     1
  9
$DIMTVP
 40
0.0
  9
$DIMTIX
 70
     0
  9
$DIMSOXD
 70
     0
  9
$DIMSAH
 70
     1
  9
$DIMBLK1
  1
_OPEN30
  9
$DIMBLK2
  1
_OPEN30
  9
$DIMSTYLE
  2
FSTD1
  9
$DIMCLRD
 70
     0
  9
$DIMCLRE
 70
     0
  9
$DIMCLRT
 70
     0
  9
$DIMTFAC
 40
0.7
  9
$DIMGAP
 40
1.0
  9
$LUNITS
 70
     2
  9
$LUPREC
 70
     4
  9
$SKETCHINC
 40
1.0
  9
$FILLETRAD
 40
0.3
  9
$AUNITS
 70
     0
  9
$AUPREC
 70
     0
  9
$MENU
  1
acad
  9
$ELEVATION
 40
0.0
  9
$PELEVATION
 40
0.0
  9
$THICKNESS
 40
0.0
  9
$LIMCHECK
 70
     0
  9
$BLIPMODE
 70
     0
  9
$CHAMFERA
 40
2.5
  9
$CHAMFERB
 40
2.5
  9
$SKPOLY
 70
     0
  9
$TDCREATE
 40
2454768.395636608
  9
$TDUPDATE
 40
2454852.504996018
  9
$TDINDWG
 40
0.1751379630
  9
$TDUSRTIMER
 40
0.1751379630
  9
$USRTIMER
 70
     1
  9
$ANGBASE
 50
0.0
  9
$ANGDIR
 70
     0
  9
$PDMODE
 70
     0
  9
$PDSIZE
 40
0.0
  9
$PLINEWID
 40
0.0
  9
$COORDS
 70
     1
  9
$SPLFRAME
 70
     0
  9
$SPLINETYPE
 70
     6
  9
$SPLINESEGS
 70
     8
  9
$ATTDIA
 70
     0
  9
$ATTREQ
 70
     1
  9
$HANDLING
 70
     1
  9
$HANDSEED
  5
6396
  9
$SURFTAB1
 70
     6
  9
$SURFTAB2
 70
     6
  9
$SURFTYPE
 70
     6
  9
$SURFU
 70
     6
  9
$SURFV
 70
     6
  9
$UCSNAME
  2

  9
$UCSORG
 10
0.0
 20
0.0
 30
0.0
  9
$UCSXDIR
 10
1.0
 20
0.0
 30
0.0
  9
$UCSYDIR
 10
0.0
 20
1.0
 30
0.0
  9
$PUCSNAME
  2

  9
$PUCSORG
 10
0.0
 20
0.0
 30
0.0
  9
$PUCSXDIR
 10
1.0
 20
0.0
 30
0.0
  9
$PUCSYDIR
 10
0.0
 20
1.0
 30
0.0
  9
$USERI1
 70
     0
  9
$USERI2
 70
     0
  9
$USERI3
 70
     0
  9
$USERI4
 70
     0
  9
$USERI5
 70
     0
  9
$USERR1
 40
0.0
  9
$USERR2
 40
0.0
  9
$USERR3
 40
0.0
  9
$USERR4
 40
0.0
  9
$USERR5
 40
0.0
  9
$WORLDVIEW
 70
     1
  9
$SHADEDGE
 70
     3
  9
$SHADEDIF
 70
    70
  9
$TILEMODE
 70
     1
  9
$MAXACTVP
 70
    16
  9
$PINSBASE
 10
0.0
 20
0.0
 30
0.0
  9
$PLIMCHECK
 70
     0
  9
$PEXTMIN
 10
1.000000E+20
 20
1.000000E+20
 30
1.000000E+20
  9
$PEXTMAX
 10
-1.000000E+20
 20
-1.000000E+20
 30
-1.000000E+20
  9
$PLIMMIN
 10
0.0
 20
0.0
  9
$PLIMMAX
 10
420.0
 20
297.0
  9
$UNITMODE
 70
     0
  9
$VISRETAIN
 70
     1
  9
$PLINEGEN
 70
     0
  9
$PSLTSCALE
 70
     1
  9
$TREEDEPTH
 70
  3020
  9
$DWGCODEPAGE
  3
dos932
  0
ENDSEC
  0
SECTION
  2
TABLES
  0
TABLE
  2
VPORT
 70
     2
  0
VPORT
  2
*ACTIVE
 70
     0
 10
0.0
 20
0.0
 11
1.0
 21
1.0
 12
170.402741
 22
-53.204685
 13
0.0
 23
0.0
 14
10.0
 24
10.0
 15
10.0
 25
10.0
 16
0.0
 26
0.0
 36
1.0
 17
0.0
 27
0.0
 37
0.0
 40
367.235555
 41
1.475202
 42
50.0
 43
0.0
 44
0.0
 50
0.0
 51
0.0
 71
     0
 72
   100
 73
     1
 74
     1
 75
     0
 76
     0
 77
     0
 78
     0
  0
ENDTAB
  0
TABLE
  2
LTYPE
 70
     4
  0
LTYPE
  2
CONTINUOUS
 70
    64
  3
Solid line
 72
    65
 73
     0
 40
0.0
  0
LTYPE
  2
CENTER
 70
    64
  3
Center ____ _ ____ _ ____ _ ____ _ ____ _ ____
 72
    65
 73
     4
 40
50.8
 49
31.75
 49
-6.35
 49
6.35
 49
-6.35
  0
LTYPE
  2
DASHED
 70
    64
  3
Dashed __ __ __ __ __ __ __ __ __ __ __ __ __ _
 72
    65
 73
     2
 40
19.05
 49
12.7
 49
-6.35
  0
LTYPE
  2
PHANTOM
 70
    64
  3
Phantom ______  __  __  ______  __  __  ______
 72
    65
 73
     6
 40
63.5
 49
31.75
 49
-6.35
 49
6.35
 49
-6.35
 49
6.35
 49
-6.35
  0
ENDTAB
  0
TABLE
  2
LAYER
 70
    10
  0
LAYER
  2
0
 70
    64
 62
     7
  6
CONTINUOUS
  0
LAYER
  2
DEFPOINTS
 70
    64
 62
     7
  6
CONTINUOUS
  0
LAYER
  2
F03_CNT
 70
    64
 62
     1
  6
CENTER
  0
LAYER
  2
F02_DIM
 70
    64
 62
     4
  6
CONTINUOUS
  0
LAYER
  2
F05_PRO
 70
    64
 62
     4
  6
CONTINUOUS
  0
LAYER
  2
F01_OUT
 70
    64
 62
     6
  6
CONTINUOUS
  0
LAYER
  2
F06_CUT
 70
    64
 62
     6
  6
CONTINUOUS
  0
LAYER
  2
F04_HID
 70
    64
 62
     3
  6
DASHED
  0
LAYER
  2
F07_COO
 70
    64
 62
     3
  6
PHANTOM
  0
LAYER
  2
F08_IMG
 70
    64
 62
     2
  6
PHANTOM
  0
ENDTAB
  0
TABLE
  2
STYLE
 70
     2
  0
STYLE
  2
STANDARD
 70
    64
 40
0.0
 41
1.0
 50
0.0
 71
     0
 42
3.0
  3
txt.shx
  4
bigfont.shx
  0
STYLE
  2
FSTD1
 70
    64
 40
0.0
 41
1.0
 50
0.0
 71
     0
 42
4.1656
  3
txt.shx
  4
extfont.shx
  0
ENDTAB
  0
TABLE
  2
VIEW
 70
     0
  0
ENDTAB
  0
TABLE
  2
UCS
 70
     0
  0
ENDTAB
  0
TABLE
  2
APPID
 70
     2
  0
APPID
  2
ACAD
 70
    64
  0
ENDTAB
  0
TABLE
  2
DIMSTYLE
 70
     2
  0
DIMSTYLE
  2
STANDARD
 70
     0
  3

  4

  5

  6

  7

 40
1.0
 41
2.5
 42
0.625
 43
3.75
 44
1.25
 45
0.0
 46
0.0
 47
0.0
 48
0.0
140
2.5
141
2.5
142
0.0
143
0.0394
144
1.0
145
0.0
146
1.0
147
0.625
 71
     0
 72
     0
 73
     0
 74
     0
 75
     0
 76
     0
 77
     1
 78
     8
170
     0
171
     4
172
     1
173
     0
174
     0
175
     0
176
     0
177
     0
178
     0
  0
DIMSTYLE
  2
FSTD1
 70
    64
  3

  4

  5

  6
_OPEN30
  7
_OPEN30
 40
1.0
 41
3.0
 42
1.0
 43
0.38
 44
1.0
 45
0.0
 46
0.0
 47
0.2
 48
0.0
140
4.0
141
0.09
142
0.0
143
0.0394
144
1.0
145
0.0
146
0.7
147
1.0
 71
     0
 72
     0
 73
     0
 74
     0
 75
     0
 76
     0
 77
     1
 78
     8
170
     0
171
     4
172
     1
173
     1
174
     0
175
     0
176
     0
177
     0
178
     0
  0
ENDTAB
  0
ENDSEC
  0
SECTION
  2
BLOCKS
  0
BLOCK
  8
0
  5
24
  2
_OPEN30
 70
    66
 10
0.0
 20
0.0
 30
0.0
  3
_OPEN30
  0
LINE
  8
0
  6
BYBLOCK
 62
     0
  5
21
 10
-1.0
 20
0.267949
 30
0.0
 11
0.0
 21
0.0
 31
0.0
  0
LINE
  8
0
  6
BYBLOCK
 62
     0
  5
22
 10
0.0
 20
0.0
 30
0.0
 11
-1.0
 21
-0.267949
 31
0.0
  0
LINE
  8
0
  6
BYBLOCK
 62
     0
  5
23
 10
0.0
 20
0.0
 30
0.0
 11
-1.0
 21
0.0
 31
0.0
  0
ENDBLK
  8
0
  5
25
  0
BLOCK
  8
0
  5
4052
  2
*D1
 70
    65
 10
0.0
 20
0.0
 30
0.0
  3
*D1
  0
LINE
  8
0
  6
BYBLOCK
 62
     0
  5
4053
 10
-11.055047
 20
-7.512297
 30
0.0
 11
-11.055047
 21
-9.432854
 31
0.0
  0
LINE
  8
0
  6
BYBLOCK
 62
     0
  5
4054
 10
11.054939
 20
-7.512297
 30
0.0
 11
11.054939
 21
-9.432854
 31
0.0
  0
LINE
  8
0
  6
BYBLOCK
 62
     0
  5
4055
 10
-8.055047
 20
-8.432854
 30
0.0
 11
8.054939
 21
-8.432854
 31
0.0
  0
INSERT
  8
0
  6
BYBLOCK
 62
     0
  5
4056
  2
_OPEN30
 10
-11.055047
 20
-8.432854
 30
0.0
 41
3.0
 42
3.0
 50
180.0
 43
3.0
  0
INSERT
  8
0
  6
BYBLOCK
 62
     0
  5
4057
  2
_OPEN30
 10
11.054939
 20
-8.432854
 30
0.0
 41
3.0
 42
3.0
 43
3.0
  0
TEXT
  8
0
  6
BYBLOCK
 62
     0
  5
4058
 10
1.088568
 20
-7.432854
 30
0.0
 40
4.0
  1
22
  0
POINT
  8
DEFPOINTS
  6
BYBLOCK
 62
     0
  5
4059
 10
-11.055047
 20
-6.512297
 30
0.0
  0
POINT
  8
DEFPOINTS
  6
BYBLOCK
 62
     0
  5
405A
 10
11.054939
 20
-6.512297
 30
0.0
  0
POINT
  8
DEFPOINTS
  6
BYBLOCK
 62
     0
  5
405B
 10
11.054939
 20
-8.432854
 30
0.0
  0
ENDBLK
  8
0
  5
405C
  0
BLOCK
  8
0
  5
409F
  2
*D2
 70
    65
 10
0.0
 20
0.0
 30
0.0
  3
*D3
  0
LINE
  8
0
  6
BYBLOCK
 62
     0
  5
40A0
 10
269.354166
 20
-131.438718
 30
0.0
 11
269.354166
 21
-139.739032
 31
0.0
  0
LINE
  8
0
  6
BYBLOCK
 62
     0
  5
40A1
 10
293.354167
 20
-132.378058
 30
0.0
 11
293.354167
 21
-139.739032
 31
0.0
  0
LINE
  8
0
  6
BYBLOCK
 62
     0
  5
40A2
 10
272.354166
 20
-138.739032
 30
0.0
 11
290.354167
 21
-138.739032
 31
0.0
  0
INSERT
  8
0
  6
BYBLOCK
 62
     0
  5
40A3
  2
_OPEN30
 10
269.354166
 20
-138.739032
 30
0.0
 41
3.0
 42
3.0
 50
180.0
 43
3.0
  0
INSERT
  8
0
  6
BYBLOCK
 62
     0
  5
40A4
  2
_OPEN30
 10
293.354167
 20
-138.739032
 30
0.0
 41
3.0
 42
3.0
 43
3.0
  0
TEXT
  8
0
  6
BYBLOCK
 62
     0
  5
40A5
 10
278.020833
 20
-137.739032
 30
0.0
 40
4.0
  1
24
  0
POINT
  8
DEFPOINTS
  6
BYBLOCK
 62
     0
  5
40A6
 10
269.354166
 20
-130.438718
 30
0.0
  0
POINT
  8
DEFPOINTS
  6
BYBLOCK
 62
     0
  5
40A7
 10
293.354167
 20
-131.378058
 30
0.0
  0
POINT
  8
DEFPOINTS
  6
BYBLOCK
 62
     0
  5
40A8
 10
293.354167
 20
-138.739032
 30
0.0
  0
ENDBLK
  8
0
  5
40A9
  0
BLOCK
  8
0
  5
40AA
  2
*D3
 70
    65
 10
0.0
 20
0.0
 30
0.0
  3
*D4
  0
LINE
  8
0
  6
BYBLOCK
 62
     0
  5
40AB
 10
224.167958
 20
-123.378058
 30
0.0
 11
240.666182
 21
-123.378058
 31
0.0
  0
LINE
  8
0
  6
BYBLOCK
 62
     0
  5
40AC
 10
225.440559
 20
-116.378057
 30
0.0
 11
240.666182
 21
-116.378057
 31
0.0
  0
LINE
  8
0
  6
BYBLOCK
 62
     0
  5
40AD
 10
239.666182
 20
-126.378058
 30
0.0
 11
239.666182
 21
-129.378058
 31
0.0
  0
LINE
  8
0
  6
BYBLOCK
 62
     0
  5
40AE
 10
239.666182
 20
-113.378057
 30
0.0
 11
239.666182
 21
-110.378057
 31
0.0
  0
LINE
  8
0
  6
BYBLOCK
 62
     0
  5
40AF
 10
239.666182
 20
-123.378058
 30
0.0
 11
239.666182
 21
-116.378057
 31
0.0
  0
INSERT
  8
0
  6
BYBLOCK
 62
     0
  5
40B0
  2
_OPEN30
 10
239.666182
 20
-123.378058
 30
0.0
 41
3.0
 42
3.0
 50
90.0
 43
3.0
  0
INSERT
  8
0
  6
BYBLOCK
 62
     0
  5
40B1
  2
_OPEN30
 10
239.666182
 20
-116.378057
 30
0.0
 41
3.0
 42
3.0
 50
270.0
 43
3.0
  0
TEXT
  8
0
  6
BYBLOCK
 62
     0
  5
40B2
 10
238.666182
 20
-121.211391
 30
0.0
 40
4.0
  1
7
 50
90.0
  0
POINT
  8
DEFPOINTS
  6
BYBLOCK
 62
     0
  5
40B3
 10
223.167958
 20
-123.378058
 30
0.0
  0
POINT
  8
DEFPOINTS
  6
BYBLOCK
 62
     0
  5
40B4
 10
224.440559
 20
-116.378057
 30
0.0
  0
POINT
  8
DEFPOINTS
  6
BYBLOCK
 62
     0
  5
40B5
 10
239.666182
 20
-116.378057
 30
0.0
  0
ENDBLK
  8
0
  5
40B6
  0
BLOCK
  8
0
  5
40B7
  2
*D4
 70
    65
 10
0.0
 20
0.0
 30
0.0
  3
*D5
  0
LINE
  8
0
  6
BYBLOCK
 62
     0
  5
40B8
 10
207.440559
 20
-132.378058
 30
0.0
 11
207.440559
 21
-139.739032
 31
0.0
  0
LINE
  8
0
  6
BYBLOCK
 62
     0
  5
40B9
 10
224.440559
 20
-132.378058
 30
0.0
 11
224.440559
 21
-139.739032
 31
0.0
  0
LINE
  8
0
  6
BYBLOCK
 62
     0
  5
40BA
 10
210.440559
 20
-138.739032
 30
0.0
 11
221.440559
 21
-138.739032
 31
0.0
  0
INSERT
  8
0
  6
BYBLOCK
 62
     0
  5
40BB
  2
_OPEN30
 10
207.440559
 20
-138.739032
 30
0.0
 41
3.0
 42
3.0
 50
180.0
 43
3.0
  0
INSERT
  8
0
  6
BYBLOCK
 62
     0
  5
40BC
  2
_OPEN30
 10
224.440559
 20
-138.739032
 30
0.0
 41
3.0
 42
3.0
 43
3.0
  0
TEXT
  8
0
  6
BYBLOCK
 62
     0
  5
40BD
 10
213.273893
 20
-137.739032
 30
0.0
 40
4.0
  1
17
  0
POINT
  8
DEFPOINTS
  6
BYBLOCK
 62
     0
  5
40BE
 10
207.440559
 20
-131.378058
 30
0.0
  0
POINT
  8
DEFPOINTS
  6
BYBLOCK
 62
     0
  5
40BF
 10
224.440559
 20
-131.378058
 30
0.0
  0
POINT
  8
DEFPOINTS
  6
BYBLOCK
 62
     0
  5
40C0
 10
224.440559
 20
-138.739032
 30
0.0
  0
ENDBLK
  8
0
  5
40C1
  0
BLOCK
  8
0
  5
42D4
  2
*D5
 70
    65
 10
0.0
 20
0.0
 30
0.0
  3
*D6
  0
LINE
  8
0
  6
BYBLOCK
 62
     0
  5
42D5
 10
373.38286
 20
-103.161841
 30
0.0
 11
359.012948
 21
-118.475418
 31
0.0
  0
LINE
  8
0
  6
BYBLOCK
 62
     0
  5
42D6
 10
351.143711
 20
-126.861424
 30
0.0
 11
349.090866
 21
-129.049078
 31
0.0
  0
TEXT
  8
0
  6
BYBLOCK
 62
     0
  5
42D7
 10
363.757982
 20
-111.957393
 30
0.0
 40
4.0
  1
%%c5.5
 50
46.820871
  0
LINE
  8
0
  6
BYBLOCK
 62
     0
  5
42D8
 10
353.196555
 20
-124.67377
 30
0.0
 11
356.960104
 21
-120.663072
 31
0.0
  0
INSERT
  8
0
  6
BYBLOCK
 62
     0
  5
42D9
  2
_OPEN30
 10
353.196555
 20
-124.67377
 30
0.0
 41
3.0
 42
3.0
 50
46.820871
 43
3.0
  0
INSERT
  8
0
  6
BYBLOCK
 62
     0
  5
42DA
  2
_OPEN30
 10
356.960104
 20
-120.663072
 30
0.0
 41
3.0
 42
3.0
 50
226.820871
 43
3.0
  0
POINT
  8
DEFPOINTS
  6
BYBLOCK
 62
     0
  5
42DB
 10
356.960104
 20
-120.663072
 30
0.0
  0
POINT
  8
DEFPOINTS
  6
BYBLOCK
 62
     0
  5
42DC
 10
353.196555
 20
-124.67377
 30
0.0
  0
ENDBLK
  8
0
  5
42DD
  0
BLOCK
  8
0
  5
42EB
  2
*D6
 70
    65
 10
0.0
 20
0.0
 30
0.0
  3
*D7
  0
LINE
  8
0
  6
BYBLOCK
 62
     0
  5
42EC
 10
347.078328
 20
-130.168421
 30
0.0
 11
340.48431
 21
-130.168421
 31
0.0
  0
LINE
  8
0
  6
BYBLOCK
 62
     0
  5
42ED
 10
347.078328
 20
-115.168421
 30
0.0
 11
340.48431
 21
-115.168421
 31
0.0
  0
LINE
  8
0
  6
BYBLOCK
 62
     0
  5
42EE
 10
341.48431
 20
-127.168421
 30
0.0
 11
341.48431
 21
-118.168421
 31
0.0
  0
LINE
  8
0
  6
BYBLOCK
 62
     0
  5
42EF
 10
341.48431
 20
-115.168421
 30
0.0
 11
341.48431
 21
-91.501754
 31
0.0
  0
INSERT
  8
0
  6
BYBLOCK
 62
     0
  5
42F0
  2
_OPEN30
 10
341.48431
 20
-130.168421
 30
0.0
 41
3.0
 42
3.0
 50
270.0
 43
3.0
  0
INSERT
  8
0
  6
BYBLOCK
 62
     0
  5
42F1
  2
_OPEN30
 10
341.48431
 20
-115.168421
 30
0.0
 41
3.0
 42
3.0
 50
90.0
 43
3.0
  0
TEXT
  8
0
  6
BYBLOCK
 62
     0
  5
42F2
 10
340.48431
 20
-111.168421
 30
0.0
 40
4.0
  1
Max.15
 50
90.0
  0
POINT
  8
DEFPOINTS
  6
BYBLOCK
 62
     0
  5
42F3
 10
348.078328
 20
-130.168421
 30
0.0
  0
POINT
  8
DEFPOINTS
  6
BYBLOCK
 62
     0
  5
42F4
 10
348.078328
 20
-115.168421
 30
0.0
  0
POINT
  8
DEFPOINTS
  6
BYBLOCK
 62
     0
  5
42F5
 10
341.48431
 20
-115.168421
 30
0.0
  0
ENDBLK
  8
0
  5
42F6
  0
BLOCK
  8
0
  5
42DE
  2
*D7
 70
    65
 10
0.0
 20
0.0
 30
0.0
  3
*D8
  0
LINE
  8
0
  6
BYBLOCK
 62
     0
  5
42DF
 10
355.078329
 20
-131.418421
 30
0.0
 11
355.078329
 21
-140.097798
 31
0.0
  0
LINE
  8
0
  6
BYBLOCK
 62
     0
  5
42E0
 10
348.078328
 20
-131.168421
 30
0.0
 11
348.078328
 21
-140.097798
 31
0.0
  0
LINE
  8
0
  6
BYBLOCK
 62
     0
  5
42E1
 10
358.078329
 20
-139.097798
 30
0.0
 11
361.078329
 21
-139.097798
 31
0.0
  0
LINE
  8
0
  6
BYBLOCK
 62
     0
  5
42E2
 10
345.078328
 20
-139.097798
 30
0.0
 11
342.078328
 21
-139.097798
 31
0.0
  0
LINE
  8
0
  6
BYBLOCK
 62
     0
  5
42E3
 10
355.078329
 20
-139.097798
 30
0.0
 11
348.078328
 21
-139.097798
 31
0.0
  0
INSERT
  8
0
  6
BYBLOCK
 62
     0
  5
42E4
  2
_OPEN30
 10
355.078329
 20
-139.097798
 30
0.0
 41
3.0
 42
3.0
 50
180.0
 43
3.0
  0
INSERT
  8
0
  6
BYBLOCK
 62
     0
  5
42E5
  2
_OPEN30
 10
348.078328
 20
-139.097798
 30
0.0
 41
3.0
 42
3.0
 43
3.0
  0
TEXT
  8
0
  6
BYBLOCK
 62
     0
  5
42E6
 10
350.244996
 20
-138.097798
 30
0.0
 40
4.0
  1
7
  0
POINT
  8
DEFPOINTS
  6
BYBLOCK
 62
     0
  5
42E7
 10
355.078329
 20
-130.418421
 30
0.0
  0
POINT
  8
DEFPOINTS
  6
BYBLOCK
 62
     0
  5
42E8
 10
348.078328
 20
-130.168421
 30
0.0
  0
POINT
  8
DEFPOINTS
  6
BYBLOCK
 62
     0
  5
42E9
 10
348.078328
 20
-139.097798
 30
0.0
  0
ENDBLK
  8
0
  5
42EA
  0
BLOCK
  8
0
  5
42BD
  2
*D8
 70
    65
 10
0.0
 20
0.0
 30
0.0
  3
*D9
  0
LINE
  8
0
  6
BYBLOCK
 62
     0
  5
42BE
 10
326.496686
 20
-24.999994
 30
0.0
 11
326.496686
 21
-65.229004
 31
0.0
  0
LINE
  8
0
  6
BYBLOCK
 62
     0
  5
42BF
 10
396.496666
 20
-24.999994
 30
0.0
 11
396.496666
 21
-65.229004
 31
0.0
  0
LINE
  8
0
  6
BYBLOCK
 62
     0
  5
42C0
 10
329.496686
 20
-64.229004
 30
0.0
 11
393.496666
 21
-64.229004
 31
0.0
  0
INSERT
  8
0
  6
BYBLOCK
 62
     0
  5
42C1
  2
_OPEN30
 10
326.496686
 20
-64.229004
 30
0.0
 41
3.0
 42
3.0
 50
180.0
 43
3.0
  0
INSERT
  8
0
  6
BYBLOCK
 62
     0
  5
42C2
  2
_OPEN30
 10
396.496666
 20
-64.229004
 30
0.0
 41
3.0
 42
3.0
 43
3.0
  0
TEXT
  8
0
  6
BYBLOCK
 62
     0
  5
42C3
 10
352.830009
 20
-63.229004
 30
0.0
 40
4.0
  1
Min.74
  0
POINT
  8
DEFPOINTS
  6
BYBLOCK
 62
     0
  5
42C4
 10
326.496686
 20
-23.999994
 30
0.0
  0
POINT
  8
DEFPOINTS
  6
BYBLOCK
 62
     0
  5
42C5
 10
396.496666
 20
-23.999994
 30
0.0
  0
POINT
  8
DEFPOINTS
  6
BYBLOCK
 62
     0
  5
42C6
 10
396.496666
 20
-64.229004
 30
0.0
  0
ENDBLK
  8
0
  5
42C7
  0
BLOCK
  8
0
  5
42AA
  2
*D9
 70
    65
 10
0.0
 20
0.0
 30
0.0
  3
*D10
  0
LINE
  8
0
  6
BYBLOCK
 62
     0
  5
42AB
 10
303.567372
 20
46.247908
 30
0.0
 11
327.004501
 21
25.331677
 31
0.0
  0
TEXT
  8
0
  6
BYBLOCK
 62
     0
  5
42AC
 10
304.979307
 20
46.328158
 30
0.0
 40
4.0
  1
Max.R2
 50
318.253003
  0
LINE
  8
0
  6
BYBLOCK
 62
     0
  5
42AD
 10
328.496686
 20
23.999992
 30
0.0
 11
327.004501
 21
25.331677
 31
0.0
  0
INSERT
  8
0
  6
BYBLOCK
 62
     0
  5
42AE
  2
_OPEN30
 10
327.004501
 20
25.331677
 30
0.0
 41
3.0
 42
3.0
 50
318.253003
 43
3.0
  0
POINT
  8
DEFPOINTS
  6
BYBLOCK
 62
     0
  5
42AF
 10
327.004501
 20
25.331677
 30
0.0
  0
POINT
  8
DEFPOINTS
  6
BYBLOCK
 62
     0
  5
42B0
 10
328.496686
 20
23.999992
 30
0.0
  0
ENDBLK
  8
0
  5
42B1
  0
BLOCK
  8
0
  5
428F
  2
*D10
 70
    65
 10
0.0
 20
0.0
 30
0.0
  3
*D11
  0
LINE
  8
0
  6
BYBLOCK
 62
     0
  5
4290
 10
243.471297
 20
41.999988
 30
0.0
 11
298.548782
 21
41.999988
 31
0.0
  0
LINE
  8
0
  6
BYBLOCK
 62
     0
  5
4291
 10
267.837273
 20
-41.999988
 30
0.0
 11
298.548782
 21
-41.999988
 31
0.0
  0
LINE
  8
0
  6
BYBLOCK
 62
     0
  5
4292
 10
297.548782
 20
38.999988
 30
0.0
 11
297.548782
 21
-38.999988
 31
0.0
  0
INSERT
  8
0
  6
BYBLOCK
 62
     0
  5
4293
  2
_OPEN30
 10
297.548782
 20
41.999988
 30
0.0
 41
3.0
 42
3.0
 50
90.0
 43
3.0
  0
INSERT
  8
0
  6
BYBLOCK
 62
     0
  5
4294
  2
_OPEN30
 10
297.548782
 20
-41.999988
 30
0.0
 41
3.0
 42
3.0
 50
270.0
 43
3.0
  0
TEXT
  8
0
  6
BYBLOCK
 62
     0
  5
4295
 10
296.548782
 20
-3.333333
 30
0.0
 40
4.0
  1
84
 50
90.0
  0
POINT
  8
DEFPOINTS
  6
BYBLOCK
 62
     0
  5
4296
 10
242.471297
 20
41.999988
 30
0.0
  0
POINT
  8
DEFPOINTS
  6
BYBLOCK
 62
     0
  5
4297
 10
266.837273
 20
-41.999988
 30
0.0
  0
POINT
  8
DEFPOINTS
  6
BYBLOCK
 62
     0
  5
4298
 10
297.548782
 20
-41.999988
 30
0.0
  0
ENDBLK
  8
0
  5
4299
  0
BLOCK
  8
0
  5
429A
  2
*D11
 70
    65
 10
0.0
 20
0.0
 30
0.0
  3
*D12
  0
LINE
  8
0
  6
BYBLOCK
 62
     0
  5
429B
 10
234.244981
 20
32.450284
 30
0.0
 11
234.244981
 21
-65.229004
 31
0.0
  0
LINE
  8
0
  6
BYBLOCK
 62
     0
  5
429C
 10
259.244975
 20
-53.44942
 30
0.0
 11
259.244975
 21
-65.229004
 31
0.0
  0
LINE
  8
0
  6
BYBLOCK
 62
     0
  5
429D
 10
237.244981
 20
-64.229004
 30
0.0
 11
256.244975
 21
-64.229004
 31
0.0
  0
INSERT
  8
0
  6
BYBLOCK
 62
     0
  5
429E
  2
_OPEN30
 10
234.244981
 20
-64.229004
 30
0.0
 41
3.0
 42
3.0
 50
180.0
 43
3.0
  0
INSERT
  8
0
  6
BYBLOCK
 62
     0
  5
429F
  2
_OPEN30
 10
259.244975
 20
-64.229004
 30
0.0
 41
3.0
 42
3.0
 43
3.0
  0
TEXT
  8
0
  6
BYBLOCK
 62
     0
  5
42A0
 10
243.411645
 20
-63.229004
 30
0.0
 40
4.0
  1
25
  0
POINT
  8
DEFPOINTS
  6
BYBLOCK
 62
     0
  5
42A1
 10
234.244981
 20
33.450284
 30
0.0
  0
POINT
  8
DEFPOINTS
  6
BYBLOCK
 62
     0
  5
42A2
 10
259.244975
 20
-52.44942
 30
0.0
  0
POINT
  8
DEFPOINTS
  6
BYBLOCK
 62
     0
  5
42A3
 10
259.244975
 20
-64.229004
 30
0.0
  0
ENDBLK
  8
0
  5
42A4
  0
BLOCK
  8
0
  5
42B2
  2
*D12
 70
    65
 10
0.0
 20
0.0
 30
0.0
  3
*D13
  0
LINE
  8
0
  6
BYBLOCK
 62
     0
  5
42B3
 10
395.496668
 20
25.999992
 30
0.0
 11
413.261643
 21
25.999992
 31
0.0
  0
LINE
  8
0
  6
BYBLOCK
 62
     0
  5
42B4
 10
395.496668
 20
-25.999994
 30
0.0
 11
413.261643
 21
-25.999994
 31
0.0
  0
LINE
  8
0
  6
BYBLOCK
 62
     0
  5
42B5
 10
412.261643
 20
22.999992
 30
0.0
 11
412.261643
 21
-22.999994
 31
0.0
  0
INSERT
  8
0
  6
BYBLOCK
 62
     0
  5
42B6
  2
_OPEN30
 10
412.261643
 20
25.999992
 30
0.0
 41
3.0
 42
3.0
 50
90.0
 43
3.0
  0
INSERT
  8
0
  6
BYBLOCK
 62
     0
  5
42B7
  2
_OPEN30
 10
412.261643
 20
-25.999994
 30
0.0
 41
3.0
 42
3.0
 50
270.0
 43
3.0
  0
TEXT
  8
0
  6
BYBLOCK
 62
     0
  5
42B8
 10
411.261643
 20
-8.666668
 30
0.0
 40
4.0
  1
Min.52
 50
90.0
  0
POINT
  8
DEFPOINTS
  6
BYBLOCK
 62
     0
  5
42B9
 10
394.496668
 20
25.999992
 30
0.0
  0
POINT
  8
DEFPOINTS
  6
BYBLOCK
 62
     0
  5
42BA
 10
394.496668
 20
-25.999994
 30
0.0
  0
POINT
  8
DEFPOINTS
  6
BYBLOCK
 62
     0
  5
42BB
 10
412.261643
 20
-25.999994
 30
0.0
  0
ENDBLK
  8
0
  5
42BC
  0
BLOCK
  8
0
  5
55C5
  2
*D13
 70
    65
 10
0.0
 20
0.0
 30
0.0
  3
*D15
  0
LINE
  8
0
  6
BYBLOCK
 62
     0
  5
55C6
 10
-36.269731
 20
-49.165389
 30
0.0
 11
-36.269731
 21
-72.641196
 31
0.0
  0
LINE
  8
0
  6
BYBLOCK
 62
     0
  5
55C7
 10
13.730269
 20
-49.465389
 30
0.0
 11
13.730269
 21
-72.641196
 31
0.0
  0
LINE
  8
0
  6
BYBLOCK
 62
     0
  5
55C8
 10
-33.269731
 20
-71.641196
 30
0.0
 11
10.730269
 21
-71.641196
 31
0.0
  0
INSERT
  8
0
  6
BYBLOCK
 62
     0
  5
55C9
  2
_OPEN30
 10
-36.269731
 20
-71.641196
 30
0.0
 41
3.0
 42
3.0
 50
180.0
 43
3.0
  0
INSERT
  8
0
  6
BYBLOCK
 62
     0
  5
55CA
  2
_OPEN30
 10
13.730269
 20
-71.641196
 30
0.0
 41
3.0
 42
3.0
 43
3.0
  0
TEXT
  8
0
  6
BYBLOCK
 62
     0
  5
55CB
 10
-14.269731
 20
-70.641196
 30
0.0
 40
4.0
  1
50
  0
POINT
  8
DEFPOINTS
  6
BYBLOCK
 62
     0
  5
55CC
 10
-36.269731
 20
-48.165389
 30
0.0
  0
POINT
  8
DEFPOINTS
  6
BYBLOCK
 62
     0
  5
55CD
 10
13.730269
 20
-48.465389
 30
0.0
  0
POINT
  8
DEFPOINTS
  6
BYBLOCK
 62
     0
  5
55CE
 10
13.730269
 20
-71.641196
 30
0.0
  0
ENDBLK
  8
0
  5
55CF
  0
BLOCK
  8
0
  5
55D0
  2
*D14
 70
    65
 10
0.0
 20
0.0
 30
0.0
  3
*D16
  0
LINE
  8
0
  6
BYBLOCK
 62
     0
  5
55D1
 10
-47.269731
 20
-25.000032
 30
0.0
 11
-47.269731
 21
-81.932717
 31
0.0
  0
LINE
  8
0
  6
BYBLOCK
 62
     0
  5
55D2
 10
24.730269
 20
-25.000032
 30
0.0
 11
24.730269
 21
-81.932717
 31
0.0
  0
LINE
  8
0
  6
BYBLOCK
 62
     0
  5
55D3
 10
-44.269731
 20
-80.932717
 30
0.0
 11
21.730269
 21
-80.932717
 31
0.0
  0
INSERT
  8
0
  6
BYBLOCK
 62
     0
  5
55D4
  2
_OPEN30
 10
-47.269731
 20
-80.932717
 30
0.0
 41
3.0
 42
3.0
 50
180.0
 43
3.0
  0
INSERT
  8
0
  6
BYBLOCK
 62
     0
  5
55D5
  2
_OPEN30
 10
24.730269
 20
-80.932717
 30
0.0
 41
3.0
 42
3.0
 43
3.0
  0
TEXT
  8
0
  6
BYBLOCK
 62
     0
  5
55D6
 10
-14.603064
 20
-79.932717
 30
0.0
 40
4.0
  1
72
  0
POINT
  8
DEFPOINTS
  6
BYBLOCK
 62
     0
  5
55D7
 10
-47.269731
 20
-24.000032
 30
0.0
  0
POINT
  8
DEFPOINTS
  6
BYBLOCK
 62
     0
  5
55D8
 10
24.730269
 20
-24.000032
 30
0.0
  0
POINT
  8
DEFPOINTS
  6
BYBLOCK
 62
     0
  5
55D9
 10
24.730269
 20
-80.932717
 30
0.0
  0
ENDBLK
  8
0
  5
55DA
  0
BLOCK
  8
0
  5
55DB
  2
*D15
 70
    65
 10
0.0
 20
0.0
 30
0.0
  3
*D17
  0
LINE
  8
0
  6
BYBLOCK
 62
     0
  5
55DC
 10
-48.769731
 20
-47.5
 30
0.0
 11
-48.769731
 21
-92.133124
 31
0.0
  0
LINE
  8
0
  6
BYBLOCK
 62
     0
  5
55DD
 10
26.230269
 20
-47.5
 30
0.0
 11
26.230269
 21
-92.133124
 31
0.0
  0
LINE
  8
0
  6
BYBLOCK
 62
     0
  5
55DE
 10
-45.769731
 20
-91.133124
 30
0.0
 11
23.230269
 21
-91.133124
 31
0.0
  0
INSERT
  8
0
  6
BYBLOCK
 62
     0
  5
55DF
  2
_OPEN30
 10
-48.769731
 20
-91.133124
 30
0.0
 41
3.0
 42
3.0
 50
180.0
 43
3.0
  0
INSERT
  8
0
  6
BYBLOCK
 62
     0
  5
55E0
  2
_OPEN30
 10
26.230269
 20
-91.133124
 30
0.0
 41
3.0
 42
3.0
 43
3.0
  0
TEXT
  8
0
  6
BYBLOCK
 62
     0
  5
55E1
 10
-14.603064
 20
-90.133124
 30
0.0
 40
4.0
  1
75
  0
POINT
  8
DEFPOINTS
  6
BYBLOCK
 62
     0
  5
55E2
 10
-48.769731
 20
-46.5
 30
0.0
  0
POINT
  8
DEFPOINTS
  6
BYBLOCK
 62
     0
  5
55E3
 10
26.230269
 20
-46.5
 30
0.0
  0
POINT
  8
DEFPOINTS
  6
BYBLOCK
 62
     0
  5
55E4
 10
26.230269
 20
-91.133124
 30
0.0
  0
ENDBLK
  8
0
  5
55E5
  0
BLOCK
  8
0
  5
420A
  2
*D16
 70
    65
 10
0.0
 20
0.0
 30
0.0
  3
*D18
  0
LINE
  8
0
  6
BYBLOCK
 62
     0
  5
420B
 10
124.134383
 20
38.1
 30
0.0
 11
110.882267
 21
38.1
 31
0.0
  0
LINE
  8
0
  6
BYBLOCK
 62
     0
  5
420C
 10
124.134383
 20
45.9
 30
0.0
 11
110.882267
 21
45.9
 31
0.0
  0
LINE
  8
0
  6
BYBLOCK
 62
     0
  5
420D
 10
111.882267
 20
35.1
 30
0.0
 11
111.882267
 21
32.1
 31
0.0
  0
LINE
  8
0
  6
BYBLOCK
 62
     0
  5
420E
 10
111.882267
 20
48.9
 30
0.0
 11
111.882267
 21
65.9
 31
0.0
  0
LINE
  8
0
  6
BYBLOCK
 62
     0
  5
420F
 10
111.882267
 20
38.1
 30
0.0
 11
111.882267
 21
45.9
 31
0.0
  0
INSERT
  8
0
  6
BYBLOCK
 62
     0
  5
4210
  2
_OPEN30
 10
111.882267
 20
38.1
 30
0.0
 41
3.0
 42
3.0
 50
90.0
 43
3.0
  0
INSERT
  8
0
  6
BYBLOCK
 62
     0
  5
4211
  2
_OPEN30
 10
111.882267
 20
45.9
 30
0.0
 41
3.0
 42
3.0
 50
270.0
 43
3.0
  0
TEXT
  8
0
  6
BYBLOCK
 62
     0
  5
4212
 10
110.882267
 20
52.9
 30
0.0
 40
4.0
  1
%%c7.8
 50
90.0
  0
POINT
  8
DEFPOINTS
  6
BYBLOCK
 62
     0
  5
4213
 10
125.134383
 20
38.1
 30
0.0
  0
POINT
  8
DEFPOINTS
  6
BYBLOCK
 62
     0
  5
4214
 10
125.134383
 20
45.9
 30
0.0
  0
POINT
  8
DEFPOINTS
  6
BYBLOCK
 62
     0
  5
4215
 10
111.882267
 20
45.9
 30
0.0
  0
ENDBLK
  8
0
  5
4216
  0
BLOCK
  8
0
  5
41E3
  2
*D17
 70
    65
 10
0.0
 20
0.0
 30
0.0
  3
*D19
  0
LINE
  8
0
  6
BYBLOCK
 62
     0
  5
41E4
 10
177.134383
 20
39.55
 30
0.0
 11
187.38161
 21
39.55
 31
0.0
  0
LINE
  8
0
  6
BYBLOCK
 62
     0
  5
41E5
 10
176.935053
 20
44.45
 30
0.0
 11
187.38161
 21
44.45
 31
0.0
  0
LINE
  8
0
  6
BYBLOCK
 62
     0
  5
41E6
 10
186.38161
 20
36.55
 30
0.0
 11
186.38161
 21
33.55
 31
0.0
  0
LINE
  8
0
  6
BYBLOCK
 62
     0
  5
41E7
 10
186.38161
 20
47.45
 30
0.0
 11
186.38161
 21
64.45
 31
0.0
  0
LINE
  8
0
  6
BYBLOCK
 62
     0
  5
41E8
 10
186.38161
 20
39.55
 30
0.0
 11
186.38161
 21
44.45
 31
0.0
  0
INSERT
  8
0
  6
BYBLOCK
 62
     0
  5
41E9
  2
_OPEN30
 10
186.38161
 20
39.55
 30
0.0
 41
3.0
 42
3.0
 50
90.0
 43
3.0
  0
INSERT
  8
0
  6
BYBLOCK
 62
     0
  5
41EA
  2
_OPEN30
 10
186.38161
 20
44.45
 30
0.0
 41
3.0
 42
3.0
 50
270.0
 43
3.0
  0
TEXT
  8
0
  6
BYBLOCK
 62
     0
  5
41EB
 10
185.38161
 20
51.45
 30
0.0
 40
4.0
  1
%%c4.9
 50
90.0
  0
POINT
  8
DEFPOINTS
  6
BYBLOCK
 62
     0
  5
41EC
 10
176.134383
 20
39.55
 30
0.0
  0
POINT
  8
DEFPOINTS
  6
BYBLOCK
 62
     0
  5
41ED
 10
175.935053
 20
44.45
 30
0.0
  0
POINT
  8
DEFPOINTS
  6
BYBLOCK
 62
     0
  5
41EE
 10
186.38161
 20
44.45
 30
0.0
  0
ENDBLK
  8
0
  5
41EF
  0
BLOCK
  8
0
  5
41F1
  2
*D18
 70
    65
 10
0.0
 20
0.0
 30
0.0
  3
*D20
  0
LINE
  8
0
  6
BYBLOCK
 62
     0
  5
41F2
 10
176.134383
 20
38.55
 30
0.0
 11
176.134383
 21
28.385379
 31
0.0
  0
LINE
  8
0
  6
BYBLOCK
 62
     0
  5
41F3
 10
133.134383
 20
37.1
 30
0.0
 11
133.134383
 21
28.385379
 31
0.0
  0
LINE
  8
0
  6
BYBLOCK
 62
     0
  5
41F4
 10
173.134383
 20
29.385379
 30
0.0
 11
136.134383
 21
29.385379
 31
0.0
  0
INSERT
  8
0
  6
BYBLOCK
 62
     0
  5
41F5
  2
_OPEN30
 10
176.134383
 20
29.385379
 30
0.0
 41
3.0
 42
3.0
 43
3.0
  0
INSERT
  8
0
  6
BYBLOCK
 62
     0
  5
41F6
  2
_OPEN30
 10
133.134383
 20
29.385379
 30
0.0
 41
3.0
 42
3.0
 50
180.0
 43
3.0
  0
TEXT
  8
0
  6
BYBLOCK
 62
     0
  5
41F7
 10
151.30105
 20
30.385379
 30
0.0
 40
4.0
  1
43
  0
POINT
  8
DEFPOINTS
  6
BYBLOCK
 62
     0
  5
41F8
 10
176.134383
 20
39.55
 30
0.0
  0
POINT
  8
DEFPOINTS
  6
BYBLOCK
 62
     0
  5
41F9
 10
133.134383
 20
38.1
 30
0.0
  0
POINT
  8
DEFPOINTS
  6
BYBLOCK
 62
     0
  5
41FA
 10
133.134383
 20
29.385379
 30
0.0
  0
ENDBLK
  8
0
  5
41FB
  0
BLOCK
  8
0
  5
560F
  2
*D19
 70
    65
 10
0.0
 20
0.0
 30
0.0
  3
*D21
  0
LINE
  8
0
  6
BYBLOCK
 62
     0
  5
5610
 10
176.134383
 20
-44.277884
 30
0.0
 11
176.134383
 21
-81.932717
 31
0.0
  0
LINE
  8
0
  6
BYBLOCK
 62
     0
  5
5611
 10
116.134383
 20
-38.5
 30
0.0
 11
116.134383
 21
-81.932717
 31
0.0
  0
LINE
  8
0
  6
BYBLOCK
 62
     0
  5
5612
 10
173.134383
 20
-80.932717
 30
0.0
 11
119.134383
 21
-80.932717
 31
0.0
  0
INSERT
  8
0
  6
BYBLOCK
 62
     0
  5
5613
  2
_OPEN30
 10
176.134383
 20
-80.932717
 30
0.0
 41
3.0
 42
3.0
 43
3.0
  0
INSERT
  8
0
  6
BYBLOCK
 62
     0
  5
5614
  2
_OPEN30
 10
116.134383
 20
-80.932717
 30
0.0
 41
3.0
 42
3.0
 50
180.0
 43
3.0
  0
TEXT
  8
0
  6
BYBLOCK
 62
     0
  5
5615
 10
143.134383
 20
-79.932717
 30
0.0
 40
4.0
  1
60
  0
POINT
  8
DEFPOINTS
  6
BYBLOCK
 62
     0
  5
5616
 10
176.134383
 20
-43.277884
 30
0.0
  0
POINT
  8
DEFPOINTS
  6
BYBLOCK
 62
     0
  5
5617
 10
116.134383
 20
-37.5
 30
0.0
  0
POINT
  8
DEFPOINTS
  6
BYBLOCK
 62
     0
  5
5618
 10
116.134383
 20
-80.932717
 30
0.0
  0
ENDBLK
  8
0
  5
5619
  0
BLOCK
  8
0
  5
5604
  2
*D20
 70
    65
 10
0.0
 20
0.0
 30
0.0
  3
*D22
  0
LINE
  8
0
  6
BYBLOCK
 62
     0
  5
5605
 10
176.134383
 20
-44.277884
 30
0.0
 11
176.134383
 21
-92.133124
 31
0.0
  0
LINE
  8
0
  6
BYBLOCK
 62
     0
  5
5606
 10
92.134383
 20
8.5475
 30
0.0
 11
92.134383
 21
-92.133124
 31
0.0
  0
LINE
  8
0
  6
BYBLOCK
 62
     0
  5
5607
 10
173.134383
 20
-91.133124
 30
0.0
 11
95.134383
 21
-91.133124
 31
0.0
  0
INSERT
  8
0
  6
BYBLOCK
 62
     0
  5
5608
  2
_OPEN30
 10
176.134383
 20
-91.133124
 30
0.0
 41
3.0
 42
3.0
 43
3.0
  0
INSERT
  8
0
  6
BYBLOCK
 62
     0
  5
5609
  2
_OPEN30
 10
92.134383
 20
-91.133124
 30
0.0
 41
3.0
 42
3.0
 50
180.0
 43
3.0
  0
TEXT
  8
0
  6
BYBLOCK
 62
     0
  5
560A
 10
130.80105
 20
-90.133124
 30
0.0
 40
4.0
  1
84
  0
POINT
  8
DEFPOINTS
  6
BYBLOCK
 62
     0
  5
560B
 10
176.134383
 20
-43.277884
 30
0.0
  0
POINT
  8
DEFPOINTS
  6
BYBLOCK
 62
     0
  5
560C
 10
92.134383
 20
9.5475
 30
0.0
  0
POINT
  8
DEFPOINTS
  6
BYBLOCK
 62
     0
  5
560D
 10
92.134383
 20
-91.133124
 30
0.0
  0
ENDBLK
  8
0
  5
560E
  0
BLOCK
  8
0
  5
427F
  2
*D21
 70
    65
 10
0.0
 20
0.0
 30
0.0
  3
*D23
  0
LINE
  8
0
  6
BYBLOCK
 62
     0
  5
4280
 10
115.634383
 20
38.0
 30
0.0
 11
79.920019
 21
38.0
 31
0.0
  0
LINE
  8
0
  6
BYBLOCK
 62
     0
  5
4281
 10
115.634383
 20
-38.0
 30
0.0
 11
79.920019
 21
-38.0
 31
0.0
  0
LINE
  8
0
  6
BYBLOCK
 62
     0
  5
4282
 10
80.920019
 20
35.0
 30
0.0
 11
80.920019
 21
-35.0
 31
0.0
  0
INSERT
  8
0
  6
BYBLOCK
 62
     0
  5
4283
  2
_OPEN30
 10
80.920019
 20
38.0
 30
0.0
 41
3.0
 42
3.0
 50
90.0
 43
3.0
  0
INSERT
  8
0
  6
BYBLOCK
 62
     0
  5
4284
  2
_OPEN30
 10
80.920019
 20
-38.0
 30
0.0
 41
3.0
 42
3.0
 50
270.0
 43
3.0
  0
TEXT
  8
0
  6
BYBLOCK
 62
     0
  5
4285
 10
79.920019
 20
-3.333333
 30
0.0
 40
4.0
  1
76
 50
90.0
  0
POINT
  8
DEFPOINTS
  6
BYBLOCK
 62
     0
  5
4286
 10
116.634383
 20
38.0
 30
0.0
  0
POINT
  8
DEFPOINTS
  6
BYBLOCK
 62
     0
  5
4287
 10
116.634383
 20
-38.0
 30
0.0
  0
POINT
  8
DEFPOINTS
  6
BYBLOCK
 62
     0
  5
4288
 10
80.920019
 20
-38.0
 30
0.0
  0
ENDBLK
  8
0
  5
4289
  0
BLOCK
  8
0
  5
561A
  2
*D22
 70
    65
 10
0.0
 20
0.0
 30
0.0
  3
*D24
  0
LINE
  8
0
  6
BYBLOCK
 62
     0
  5
561B
 10
176.134383
 20
-44.277884
 30
0.0
 11
176.134383
 21
-72.641196
 31
0.0
  0
LINE
  8
0
  6
BYBLOCK
 62
     0
  5
561C
 10
125.134383
 20
-47.5
 30
0.0
 11
125.134383
 21
-72.641196
 31
0.0
  0
LINE
  8
0
  6
BYBLOCK
 62
     0
  5
561D
 10
173.134383
 20
-71.641196
 30
0.0
 11
128.134383
 21
-71.641196
 31
0.0
  0
INSERT
  8
0
  6
BYBLOCK
 62
     0
  5
561E
  2
_OPEN30
 10
176.134383
 20
-71.641196
 30
0.0
 41
3.0
 42
3.0
 43
3.0
  0
INSERT
  8
0
  6
BYBLOCK
 62
     0
  5
561F
  2
_OPEN30
 10
125.134383
 20
-71.641196
 30
0.0
 41
3.0
 42
3.0
 50
180.0
 43
3.0
  0
TEXT
  8
0
  6
BYBLOCK
 62
     0
  5
5620
 10
147.967716
 20
-70.641196
 30
0.0
 40
4.0
  1
51
  0
POINT
  8
DEFPOINTS
  6
BYBLOCK
 62
     0
  5
5621
 10
176.134383
 20
-43.277884
 30
0.0
  0
POINT
  8
DEFPOINTS
  6
BYBLOCK
 62
     0
  5
5622
 10
125.134383
 20
-46.5
 30
0.0
  0
POINT
  8
DEFPOINTS
  6
BYBLOCK
 62
     0
  5
5623
 10
125.134383
 20
-71.641196
 30
0.0
  0
ENDBLK
  8
0
  5
5624
  0
BLOCK
  8
0
  5
5625
  2
*D23
 70
    65
 10
0.0
 20
0.0
 30
0.0
  3
*D25
  0
LINE
  8
0
  6
BYBLOCK
 62
     0
  5
5626
 10
116.134383
 20
-38.5
 30
0.0
 11
116.134383
 21
-81.932717
 31
0.0
  0
LINE
  8
0
  6
BYBLOCK
 62
     0
  5
5627
 10
108.134383
 20
-25.975032
 30
0.0
 11
108.134383
 21
-81.932717
 31
0.0
  0
LINE
  8
0
  6
BYBLOCK
 62
     0
  5
5628
 10
119.134383
 20
-80.932717
 30
0.0
 11
122.134383
 21
-80.932717
 31
0.0
  0
LINE
  8
0
  6
BYBLOCK
 62
     0
  5
5629
 10
105.134383
 20
-80.932717
 30
0.0
 11
102.134383
 21
-80.932717
 31
0.0
  0
LINE
  8
0
  6
BYBLOCK
 62
     0
  5
562A
 10
116.134383
 20
-80.932717
 30
0.0
 11
108.134383
 21
-80.932717
 31
0.0
  0
INSERT
  8
0
  6
BYBLOCK
 62
     0
  5
562B
  2
_OPEN30
 10
116.134383
 20
-80.932717
 30
0.0
 41
3.0
 42
3.0
 50
180.0
 43
3.0
  0
INSERT
  8
0
  6
BYBLOCK
 62
     0
  5
562C
  2
_OPEN30
 10
108.134383
 20
-80.932717
 30
0.0
 41
3.0
 42
3.0
 43
3.0
  0
TEXT
  8
0
  6
BYBLOCK
 62
     0
  5
562D
 10
110.80105
 20
-79.932717
 30
0.0
 40
4.0
  1
8
  0
POINT
  8
DEFPOINTS
  6
BYBLOCK
 62
     0
  5
562E
 10
116.134383
 20
-37.5
 30
0.0
  0
POINT
  8
DEFPOINTS
  6
BYBLOCK
 62
     0
  5
562F
 10
108.134383
 20
-24.975032
 30
0.0
  0
POINT
  8
DEFPOINTS
  6
BYBLOCK
 62
     0
  5
5630
 10
108.134383
 20
-80.932717
 30
0.0
  0
ENDBLK
  8
0
  5
5631
  0
BLOCK
  8
0
  5
5632
  2
*D24
 70
    65
 10
0.0
 20
0.0
 30
0.0
  3
*D26
  0
LINE
  8
0
  6
BYBLOCK
 62
     0
  5
5633
 10
108.134383
 20
-25.95
 30
0.0
 11
108.134383
 21
-72.641196
 31
0.0
  0
LINE
  8
0
  6
BYBLOCK
 62
     0
  5
5634
 10
104.134383
 20
-25.65
 30
0.0
 11
104.134383
 21
-72.641196
 31
0.0
  0
LINE
  8
0
  6
BYBLOCK
 62
     0
  5
5635
 10
111.134383
 20
-71.641196
 30
0.0
 11
114.134383
 21
-71.641196
 31
0.0
  0
LINE
  8
0
  6
BYBLOCK
 62
     0
  5
5636
 10
101.134383
 20
-71.641196
 30
0.0
 11
93.467716
 21
-71.641196
 31
0.0
  0
LINE
  8
0
  6
BYBLOCK
 62
     0
  5
5637
 10
108.134383
 20
-71.641196
 30
0.0
 11
104.134383
 21
-71.641196
 31
0.0
  0
INSERT
  8
0
  6
BYBLOCK
 62
     0
  5
5638
  2
_OPEN30
 10
108.134383
 20
-71.641196
 30
0.0
 41
3.0
 42
3.0
 50
180.0
 43
3.0
  0
INSERT
  8
0
  6
BYBLOCK
 62
     0
  5
5639
  2
_OPEN30
 10
104.134383
 20
-71.641196
 30
0.0
 41
3.0
 42
3.0
 43
3.0
  0
TEXT
  8
0
  6
BYBLOCK
 62
     0
  5
563A
 10
94.467716
 20
-70.641196
 30
0.0
 40
4.0
  1
4
  0
POINT
  8
DEFPOINTS
  6
BYBLOCK
 62
     0
  5
563B
 10
108.134383
 20
-24.95
 30
0.0
  0
POINT
  8
DEFPOINTS
  6
BYBLOCK
 62
     0
  5
563C
 10
104.134383
 20
-24.65
 30
0.0
  0
POINT
  8
DEFPOINTS
  6
BYBLOCK
 62
     0
  5
563D
 10
104.134383
 20
-71.641196
 30
0.0
  0
ENDBLK
  8
0
  5
563E
  0
BLOCK
  8
0
  5
5095
  2
*D25
 70
    65
 10
0.0
 20
0.0
 30
0.0
  3
*D27
  0
LINE
  8
0
  6
BYBLOCK
 62
     0
  5
5096
 10
31.658023
 20
0.0
 30
0.0
 11
47.177814
 21
0.0
 31
0.0
  0
LINE
  8
0
  6
BYBLOCK
 62
     0
  5
5097
 10
20.960641
 20
-42.0
 30
0.0
 11
47.177814
 21
-42.0
 31
0.0
  0
LINE
  8
0
  6
BYBLOCK
 62
     0
  5
5098
 10
46.177814
 20
-3.0
 30
0.0
 11
46.177814
 21
-39.0
 31
0.0
  0
INSERT
  8
0
  6
BYBLOCK
 62
     0
  5
5099
  2
_OPEN30
 10
46.177814
 20
0.0
 30
0.0
 41
3.0
 42
3.0
 50
90.0
 43
3.0
  0
INSERT
  8
0
  6
BYBLOCK
 62
     0
  5
509A
  2
_OPEN30
 10
46.177814
 20
-42.0
 30
0.0
 41
3.0
 42
3.0
 50
270.0
 43
3.0
  0
TEXT
  8
0
  6
BYBLOCK
 62
     0
  5
509B
 10
45.177814
 20
-24.333333
 30
0.0
 40
4.0
  1
42
 50
90.0
  0
POINT
  8
DEFPOINTS
  6
BYBLOCK
 62
     0
  5
509C
 10
30.658023
 20
0.0
 30
0.0
  0
POINT
  8
DEFPOINTS
  6
BYBLOCK
 62
     0
  5
509D
 10
19.960641
 20
-42.0
 30
0.0
  0
POINT
  8
DEFPOINTS
  6
BYBLOCK
 62
     0
  5
509E
 10
46.177814
 20
-42.0
 30
0.0
  0
ENDBLK
  8
0
  5
509F
  0
BLOCK
  8
0
  5
50A2
  2
*D26
 70
    65
 10
0.0
 20
0.0
 30
0.0
  3
*D28
  0
LINE
  8
0
  6
BYBLOCK
 62
     0
  5
50A3
 10
31.658023
 20
0.0
 30
0.0
 11
47.177814
 21
0.0
 31
0.0
  0
LINE
  8
0
  6
BYBLOCK
 62
     0
  5
50A4
 10
20.960641
 20
40.0
 30
0.0
 11
47.177814
 21
40.0
 31
0.0
  0
LINE
  8
0
  6
BYBLOCK
 62
     0
  5
50A5
 10
46.177814
 20
3.0
 30
0.0
 11
46.177814
 21
37.0
 31
0.0
  0
INSERT
  8
0
  6
BYBLOCK
 62
     0
  5
50A6
  2
_OPEN30
 10
46.177814
 20
0.0
 30
0.0
 41
3.0
 42
3.0
 50
270.0
 43
3.0
  0
INSERT
  8
0
  6
BYBLOCK
 62
     0
  5
50A7
  2
_OPEN30
 10
46.177814
 20
40.0
 30
0.0
 41
3.0
 42
3.0
 50
90.0
 43
3.0
  0
TEXT
  8
0
  6
BYBLOCK
 62
     0
  5
50A8
 10
45.177814
 20
17.0
 30
0.0
 40
4.0
  1
40
 50
90.0
  0
POINT
  8
DEFPOINTS
  6
BYBLOCK
 62
     0
  5
50A9
 10
30.658023
 20
0.0
 30
0.0
  0
POINT
  8
DEFPOINTS
  6
BYBLOCK
 62
     0
  5
50AA
 10
19.960641
 20
40.0
 30
0.0
  0
POINT
  8
DEFPOINTS
  6
BYBLOCK
 62
     0
  5
50AB
 10
46.177814
 20
40.0
 30
0.0
  0
ENDBLK
  8
0
  5
50AC
  0
BLOCK
  8
0
  5
50AF
  2
*D27
 70
    65
 10
0.0
 20
0.0
 30
0.0
  3
*D29
  0
LINE
  8
0
  6
BYBLOCK
 62
     0
  5
50B0
 10
20.960641
 20
40.0
 30
0.0
 11
47.177814
 21
40.0
 31
0.0
  0
LINE
  8
0
  6
BYBLOCK
 62
     0
  5
50B1
 10
25.608646
 20
50.0
 30
0.0
 11
47.177814
 21
50.0
 31
0.0
  0
LINE
  8
0
  6
BYBLOCK
 62
     0
  5
50B2
 10
46.177814
 20
43.0
 30
0.0
 11
46.177814
 21
47.0
 31
0.0
  0
INSERT
  8
0
  6
BYBLOCK
 62
     0
  5
50B3
  2
_OPEN30
 10
46.177814
 20
40.0
 30
0.0
 41
3.0
 42
3.0
 50
270.0
 43
3.0
  0
INSERT
  8
0
  6
BYBLOCK
 62
     0
  5
50B4
  2
_OPEN30
 10
46.177814
 20
50.0
 30
0.0
 41
3.0
 42
3.0
 50
90.0
 43
3.0
  0
TEXT
  8
0
  6
BYBLOCK
 62
     0
  5
50B5
 10
45.177814
 20
42.666667
 30
0.0
 40
4.0
  1
10
 50
90.0
  0
POINT
  8
DEFPOINTS
  6
BYBLOCK
 62
     0
  5
50B6
 10
19.960641
 20
40.0
 30
0.0
  0
POINT
  8
DEFPOINTS
  6
BYBLOCK
 62
     0
  5
50B7
 10
24.608646
 20
50.0
 30
0.0
  0
POINT
  8
DEFPOINTS
  6
BYBLOCK
 62
     0
  5
50B8
 10
46.177814
 20
50.0
 30
0.0
  0
ENDBLK
  8
0
  5
50B9
  0
BLOCK
  8
0
  5
50BC
  2
*D28
 70
    65
 10
0.0
 20
0.0
 30
0.0
  3
*D30
  0
LINE
  8
0
  6
BYBLOCK
 62
     0
  5
50BD
 10
20.960641
 20
-42.0
 30
0.0
 11
47.177814
 21
-42.0
 31
0.0
  0
LINE
  8
0
  6
BYBLOCK
 62
     0
  5
50BE
 10
25.608646
 20
-50.0
 30
0.0
 11
47.177814
 21
-50.0
 31
0.0
  0
LINE
  8
0
  6
BYBLOCK
 62
     0
  5
50BF
 10
46.177814
 20
-39.0
 30
0.0
 11
46.177814
 21
-36.0
 31
0.0
  0
LINE
  8
0
  6
BYBLOCK
 62
     0
  5
50C0
 10
46.177814
 20
-53.0
 30
0.0
 11
46.177814
 21
-56.0
 31
0.0
  0
LINE
  8
0
  6
BYBLOCK
 62
     0
  5
50C1
 10
46.177814
 20
-42.0
 30
0.0
 11
46.177814
 21
-50.0
 31
0.0
  0
INSERT
  8
0
  6
BYBLOCK
 62
     0
  5
50C2
  2
_OPEN30
 10
46.177814
 20
-42.0
 30
0.0
 41
3.0
 42
3.0
 50
270.0
 43
3.0
  0
INSERT
  8
0
  6
BYBLOCK
 62
     0
  5
50C3
  2
_OPEN30
 10
46.177814
 20
-50.0
 30
0.0
 41
3.0
 42
3.0
 50
90.0
 43
3.0
  0
TEXT
  8
0
  6
BYBLOCK
 62
     0
  5
50C4
 10
45.177814
 20
-47.333333
 30
0.0
 40
4.0
  1
8
 50
90.0
  0
POINT
  8
DEFPOINTS
  6
BYBLOCK
 62
     0
  5
50C5
 10
19.960641
 20
-42.0
 30
0.0
  0
POINT
  8
DEFPOINTS
  6
BYBLOCK
 62
     0
  5
50C6
 10
24.608646
 20
-50.0
 30
0.0
  0
POINT
  8
DEFPOINTS
  6
BYBLOCK
 62
     0
  5
50C7
 10
46.177814
 20
-50.0
 30
0.0
  0
ENDBLK
  8
0
  5
50C8
  0
BLOCK
  8
0
  5
50CB
  2
*D29
 70
    65
 10
0.0
 20
0.0
 30
0.0
  3
*D31
  0
LINE
  8
0
  6
BYBLOCK
 62
     0
  5
50CC
 10
-47.269731
 20
24.99997
 30
0.0
 11
-63.373728
 21
24.99997
 31
0.0
  0
LINE
  8
0
  6
BYBLOCK
 62
     0
  5
50CD
 10
-47.269731
 20
-25.000032
 30
0.0
 11
-63.373728
 21
-25.000032
 31
0.0
  0
LINE
  8
0
  6
BYBLOCK
 62
     0
  5
50CE
 10
-62.373728
 20
21.99997
 30
0.0
 11
-62.373728
 21
-22.000032
 31
0.0
  0
INSERT
  8
0
  6
BYBLOCK
 62
     0
  5
50CF
  2
_OPEN30
 10
-62.373728
 20
24.99997
 30
0.0
 41
3.0
 42
3.0
 50
90.0
 43
3.0
  0
INSERT
  8
0
  6
BYBLOCK
 62
     0
  5
50D0
  2
_OPEN30
 10
-62.373728
 20
-25.000032
 30
0.0
 41
3.0
 42
3.0
 50
270.0
 43
3.0
  0
TEXT
  8
0
  6
BYBLOCK
 62
     0
  5
50D1
 10
-63.373728
 20
-3.000031
 30
0.0
 40
4.0
  1
50
 50
90.0
  0
POINT
  8
DEFPOINTS
  6
BYBLOCK
 62
     0
  5
50D2
 10
-46.269731
 20
24.99997
 30
0.0
  0
POINT
  8
DEFPOINTS
  6
BYBLOCK
 62
     0
  5
50D3
 10
-46.269731
 20
-25.000032
 30
0.0
  0
POINT
  8
DEFPOINTS
  6
BYBLOCK
 62
     0
  5
50D4
 10
-62.373728
 20
-25.000032
 30
0.0
  0
ENDBLK
  8
0
  5
50D5
  0
BLOCK
  8
0
  5
50D8
  2
*D30
 70
    65
 10
0.0
 20
0.0
 30
0.0
  3
*D32
  0
LINE
  8
0
  6
BYBLOCK
 62
     0
  5
50D9
 10
-28.299497
 20
42.0
 30
0.0
 11
-74.392999
 21
42.0
 31
0.0
  0
LINE
  8
0
  6
BYBLOCK
 62
     0
  5
50DA
 10
-3.174481
 20
-42.0
 30
0.0
 11
-74.392999
 21
-42.0
 31
0.0
  0
LINE
  8
0
  6
BYBLOCK
 62
     0
  5
50DB
 10
-73.392999
 20
39.0
 30
0.0
 11
-73.392999
 21
-39.0
 31
0.0
  0
INSERT
  8
0
  6
BYBLOCK
 62
     0
  5
50DC
  2
_OPEN30
 10
-73.392999
 20
42.0
 30
0.0
 41
3.0
 42
3.0
 50
90.0
 43
3.0
  0
INSERT
  8
0
  6
BYBLOCK
 62
     0
  5
50DD
  2
_OPEN30
 10
-73.392999
 20
-42.0
 30
0.0
 41
3.0
 42
3.0
 50
270.0
 43
3.0
  0
TEXT
  8
0
  6
BYBLOCK
 62
     0
  5
50DE
 10
-74.392999
 20
-3.333333
 30
0.0
 40
4.0
  1
84
 50
90.0
  0
POINT
  8
DEFPOINTS
  6
BYBLOCK
 62
     0
  5
50DF
 10
-27.299497
 20
42.0
 30
0.0
  0
POINT
  8
DEFPOINTS
  6
BYBLOCK
 62
     0
  5
50E0
 10
-2.174481
 20
-42.0
 30
0.0
  0
POINT
  8
DEFPOINTS
  6
BYBLOCK
 62
     0
  5
50E1
 10
-73.392999
 20
-42.0
 30
0.0
  0
ENDBLK
  8
0
  5
50E2
  0
BLOCK
  8
0
  5
50E5
  2
*D31
 70
    65
 10
0.0
 20
0.0
 30
0.0
  3
*D33
  0
LINE
  8
0
  6
BYBLOCK
 62
     0
  5
50E6
 10
-48.148232
 20
50.0
 30
0.0
 11
-86.115627
 21
50.0
 31
0.0
  0
LINE
  8
0
  6
BYBLOCK
 62
     0
  5
50E7
 10
-48.148232
 20
-50.0
 30
0.0
 11
-86.115627
 21
-50.0
 31
0.0
  0
LINE
  8
0
  6
BYBLOCK
 62
     0
  5
50E8
 10
-85.115627
 20
47.0
 30
0.0
 11
-85.115627
 21
-47.0
 31
0.0
  0
INSERT
  8
0
  6
BYBLOCK
 62
     0
  5
50E9
  2
_OPEN30
 10
-85.115627
 20
50.0
 30
0.0
 41
3.0
 42
3.0
 50
90.0
 43
3.0
  0
INSERT
  8
0
  6
BYBLOCK
 62
     0
  5
50EA
  2
_OPEN30
 10
-85.115627
 20
-50.0
 30
0.0
 41
3.0
 42
3.0
 50
270.0
 43
3.0
  0
TEXT
  8
0
  6
BYBLOCK
 62
     0
  5
50EB
 10
-86.115627
 20
-4.0
 30
0.0
 40
4.0
  1
100
 50
90.0
  0
POINT
  8
DEFPOINTS
  6
BYBLOCK
 62
     0
  5
50EC
 10
-47.148232
 20
50.0
 30
0.0
  0
POINT
  8
DEFPOINTS
  6
BYBLOCK
 62
     0
  5
50ED
 10
-47.148232
 20
-50.0
 30
0.0
  0
POINT
  8
DEFPOINTS
  6
BYBLOCK
 62
     0
  5
50EE
 10
-85.115627
 20
-50.0
 30
0.0
  0
ENDBLK
  8
0
  5
50EF
  0
BLOCK
  8
0
  5
55E9
  2
*D32
 70
    65
 10
0.0
 20
0.0
 30
0.0
  3
*D34
  0
LINE
  8
0
  6
BYBLOCK
 62
     0
  5
55EA
 10
-48.148232
 20
50.0
 30
0.0
 11
-86.115627
 21
50.0
 31
0.0
  0
LINE
  8
0
  6
BYBLOCK
 62
     0
  5
55EB
 10
-47.669716
 20
59.800001
 30
0.0
 11
-86.115627
 21
59.800001
 31
0.0
  0
LINE
  8
0
  6
BYBLOCK
 62
     0
  5
55EC
 10
-85.115627
 20
53.0
 30
0.0
 11
-85.115627
 21
56.800001
 31
0.0
  0
LINE
  8
0
  6
BYBLOCK
 62
     0
  5
55ED
 10
-85.115627
 20
59.800001
 30
0.0
 11
-85.115627
 21
72.800001
 31
0.0
  0
INSERT
  8
0
  6
BYBLOCK
 62
     0
  5
55EE
  2
_OPEN30
 10
-85.115627
 20
50.0
 30
0.0
 41
3.0
 42
3.0
 50
270.0
 43
3.0
  0
INSERT
  8
0
  6
BYBLOCK
 62
     0
  5
55EF
  2
_OPEN30
 10
-85.115627
 20
59.800001
 30
0.0
 41
3.0
 42
3.0
 50
90.0
 43
3.0
  0
TEXT
  8
0
  6
BYBLOCK
 62
     0
  5
55F0
 10
-86.115627
 20
63.800001
 30
0.0
 40
4.0
  1
9.8
 50
90.0
  0
POINT
  8
DEFPOINTS
  6
BYBLOCK
 62
     0
  5
55F1
 10
-47.148232
 20
50.0
 30
0.0
  0
POINT
  8
DEFPOINTS
  6
BYBLOCK
 62
     0
  5
55F2
 10
-46.669716
 20
59.800001
 30
0.0
  0
POINT
  8
DEFPOINTS
  6
BYBLOCK
 62
     0
  5
55F3
 10
-85.115627
 20
59.800001
 30
0.0
  0
ENDBLK
  8
0
  5
55F4
  0
BLOCK
  8
0
  5
55F7
  2
*D33
 70
    65
 10
0.0
 20
0.0
 30
0.0
  3
*D35
  0
LINE
  8
0
  6
BYBLOCK
 62
     0
  5
55F8
 10
-48.148232
 20
-50.0
 30
0.0
 11
-86.115627
 21
-50.0
 31
0.0
  0
LINE
  8
0
  6
BYBLOCK
 62
     0
  5
55F9
 10
-47.669715
 20
-59.800001
 30
0.0
 11
-86.115627
 21
-59.800001
 31
0.0
  0
LINE
  8
0
  6
BYBLOCK
 62
     0
  5
55FA
 10
-85.115627
 20
-53.0
 30
0.0
 11
-85.115627
 21
-56.800001
 31
0.0
  0
LINE
  8
0
  6
BYBLOCK
 62
     0
  5
55FB
 10
-85.115627
 20
-59.800001
 30
0.0
 11
-85.115627
 21
-72.800001
 31
0.0
  0
INSERT
  8
0
  6
BYBLOCK
 62
     0
  5
55FC
  2
_OPEN30
 10
-85.115627
 20
-50.0
 30
0.0
 41
3.0
 42
3.0
 50
90.0
 43
3.0
  0
INSERT
  8
0
  6
BYBLOCK
 62
     0
  5
55FD
  2
_OPEN30
 10
-85.115627
 20
-59.800001
 30
0.0
 41
3.0
 42
3.0
 50
270.0
 43
3.0
  0
TEXT
  8
0
  6
BYBLOCK
 62
     0
  5
55FE
 10
-86.115627
 20
-71.800001
 30
0.0
 40
4.0
  1
9.8
 50
90.0
  0
POINT
  8
DEFPOINTS
  6
BYBLOCK
 62
     0
  5
55FF
 10
-47.148232
 20
-50.0
 30
0.0
  0
POINT
  8
DEFPOINTS
  6
BYBLOCK
 62
     0
  5
5600
 10
-46.669715
 20
-59.800001
 30
0.0
  0
POINT
  8
DEFPOINTS
  6
BYBLOCK
 62
     0
  5
5601
 10
-85.115627
 20
-59.800001
 30
0.0
  0
ENDBLK
  8
0
  5
5602
  0
ENDSEC
  0
SECTION
  2
ENTITIES
  0
DIMENSION
  8
F02_DIM
  6
CONTINUOUS
  5
14D7
  2
*D1
 10
-0.214792
 20
-8.432854
 30
0.0
 11
-6.84783
 21
-8.432854
 31
0.0
 12
-11.269731
 22
0.0
 32
0.0
 70
   128
  1
22
 13
-22.324778
 23
-6.512297
 33
0.0
 14
-0.214792
 24
-6.512297
 34
0.0
  3
FSTD1
1001
ACAD
1000
DSTYLE
1002
{
1070
    40
1040
1.0
1002
}
  0
LINE
  8
F01_OUT
  5
14D9
 10
-1.219731
 20
-23.995
 30
0.0
 11
-0.214731
 21
-24.575238
 31
0.0
  0
LINE
  8
F01_OUT
  5
14DA
 10
-1.219731
 20
23.995
 30
0.0
 11
-0.214731
 21
24.575237
 31
0.0
  0
ARC
  8
F01_OUT
  5
14DB
 10
1.292769
 20
42.00994
 30
0.0
 40
3.9195
 50
105.291591
 51
38.630973
  0
CIRCLE
  8
F01_OUT
  5
14DC
 10
1.230269
 20
-42.0
 30
0.0
 40
2.46225
  0
ARC
  8
F01_OUT
  5
14DD
 10
1.230269
 20
-42.0
 30
0.0
 40
3.9195
 50
284.451588
 51
217.311417
  0
LINE
  8
F01_OUT
  5
14DE
 10
23.730269
 20
24.99997
 30
0.0
 11
-46.269731
 21
24.99997
 31
0.0
  0
LINE
  8
F01_OUT
  5
14DF
 10
6.317708
 20
-38.0
 30
0.0
 11
-3.732292
 21
-38.0
 31
0.0
  0
LINE
  8
F01_OUT
  5
14E0
 10
6.317708
 20
38.0
 30
0.0
 11
-3.732292
 21
38.0
 31
0.0
  0
LINE
  8
F01_OUT
  5
14E1
 10
-1.784792
 20
-46.281252
 30
0.0
 11
1.833208
 21
-46.281252
 31
0.0
  0
LINE
  8
F01_OUT
  5
14E3
 10
-46.269731
 20
-25.000032
 30
0.0
 11
23.730269
 21
-25.000032
 31
0.0
  0
LINE
  8
F03_CNT
  5
14E4
 10
4.760019
 20
-42.0
 30
0.0
 11
-2.174481
 21
-42.0
 31
0.0
  0
LINE
  8
F03_CNT
  5
14E5
 10
-53.610215
 20
0.0
 30
0.0
 11
30.658023
 21
0.0
 31
0.0
  0
LINE
  8
F01_OUT
  5
14E7
 10
-3.732292
 20
32.9685
 30
0.0
 11
-3.732292
 21
50.0
 31
0.0
  0
LINE
  8
F01_OUT
  5
14E8
 10
-18.807293
 20
50.0
 30
0.0
 11
-18.807293
 21
32.9685
 31
0.0
  0
LINE
  8
F01_OUT
  5
14E9
 10
-28.857293
 20
32.9685
 30
0.0
 11
-28.857293
 21
50.0
 31
0.0
  0
LINE
  8
F01_OUT
  5
14EA
 10
-43.932293
 20
50.0
 30
0.0
 11
-43.932293
 21
32.9685
 31
0.0
  0
LINE
  8
F01_OUT
  5
14EB
 10
-48.769731
 20
46.5
 30
0.0
 11
-48.769731
 21
-46.5
 31
0.0
  0
LINE
  8
F03_CNT
  5
14EC
 10
-36.269731
 20
47.37135
 30
0.0
 11
-36.269731
 21
33.397583
 31
0.0
  0
LINE
  8
F03_CNT
  5
14ED
 10
-11.269731
 20
65.938573
 30
0.0
 11
-11.269731
 21
-64.056421
 31
0.0
  0
LINE
  8
F01_OUT
  5
14EF
 10
-43.932293
 20
-38.0
 30
0.0
 11
-48.769731
 21
-38.0
 31
0.0
  0
LINE
  8
F01_OUT
  5
14F1
 10
-47.148232
 20
-46.5
 30
0.0
 11
-47.148232
 21
-50.0
 31
0.0
  0
LINE
  8
F01_OUT
  5
14F2
 10
-47.148232
 20
-46.5
 30
0.0
 11
-48.769731
 21
-46.5
 31
0.0
  0
ARC
  8
F01_OUT
  5
14F3
 10
-23.832247
 20
-42.00994
 30
0.0
 40
3.9195
 50
285.289943
 51
218.628427
  0
LINE
  8
F01_OUT
  5
14F4
 10
-18.807293
 20
-38.0
 30
0.0
 11
-28.857293
 21
-38.0
 31
0.0
  0
LINE
  8
F01_OUT
  5
14F5
 10
-26.784809
 20
-46.281252
 30
0.0
 11
-23.166809
 21
-46.281252
 31
0.0
  0
LINE
  8
F01_OUT
  5
14F6
 10
-26.784809
 20
-44.768889
 30
0.0
 11
-26.784809
 21
-50.0
 31
0.0
  0
LINE
  8
F01_OUT
  5
14F7
 10
-43.932293
 20
-50.0
 30
0.0
 11
-43.932293
 21
-35.0
 31
0.0
  0
LINE
  8
F01_OUT
  5
14F8
 10
-28.857293
 20
-50.0
 30
0.0
 11
-28.857293
 21
-35.0
 31
0.0
  0
LINE
  8
F03_CNT
  5
14F9
 10
-36.269731
 20
-35.954614
 30
0.0
 11
-36.269731
 21
-48.165389
 31
0.0
  0
LINE
  8
F01_OUT
  5
14FA
 10
-47.148232
 20
-50.0
 30
0.0
 11
-26.784809
 21
-50.0
 31
0.0
  0
LINE
  8
F01_OUT
  5
14FC
 10
-28.857293
 20
-35.0
 30
0.0
 11
-43.932293
 21
-35.0
 31
0.0
  0
LINE
  8
F03_CNT
  5
14FD
 10
-42.500104
 20
-42.0
 30
0.0
 11
-30.28936
 21
-42.0
 31
0.0
  0
LINE
  8
F01_OUT
  5
14FF
 10
-1.784792
 20
-44.678866
 30
0.0
 11
-1.784792
 21
-50.0
 31
0.0
  0
LINE
  8
F01_OUT
  5
1500
 10
-3.732292
 20
-50.0
 30
0.0
 11
-3.732292
 21
-35.0
 31
0.0
  0
LINE
  8
F01_OUT
  5
1501
 10
-18.807293
 20
-35.0
 30
0.0
 11
-18.807293
 21
-50.0
 31
0.0
  0
LINE
  8
F01_OUT
  5
1502
 10
-23.166809
 20
-50.0
 30
0.0
 11
-1.784792
 21
-50.0
 31
0.0
  0
LINE
  8
F01_OUT
  5
1504
 10
-23.166809
 20
-46.273006
 30
0.0
 11
-23.166809
 21
-50.0
 31
0.0
  0
LINE
  8
F01_OUT
  5
1507
 10
-3.732292
 20
-35.0
 30
0.0
 11
-18.807293
 21
-35.0
 31
0.0
  0
LINE
  8
F03_CNT
  5
1508
 10
-17.375104
 20
-42.0
 30
0.0
 11
-5.164359
 21
-42.0
 31
0.0
  0
LINE
  8
F01_OUT
  5
150A
 10
-2.626731
 20
-42.006027
 30
0.0
 11
-2.626731
 21
-42.020969
 31
0.0
  0
LINE
  8
F01_OUT
  5
150E
 10
-47.269731
 20
23.99997
 30
0.0
 11
-47.269731
 21
-24.000032
 31
0.0
  0
LINE
  8
F01_OUT
  5
1511
 10
-4.737224
 20
18.34128
 30
0.0
 11
-4.737224
 21
0.75378
 31
0.0
  0
LINE
  8
F01_OUT
  5
1512
 10
-17.802239
 20
18.34128
 30
0.0
 11
-17.802239
 21
0.75378
 31
0.0
  0
LINE
  8
F01_OUT
  5
1513
 10
-21.319731
 20
23.995
 30
0.0
 11
-21.319731
 21
-23.995
 31
0.0
  0
LINE
  8
F01_OUT
  5
1514
 10
-1.219731
 20
23.995
 30
0.0
 11
-1.219731
 21
-23.995
 31
0.0
  0
LINE
  8
F01_OUT
  5
1515
 10
-22.324778
 20
24.644648
 30
0.0
 11
-22.324778
 21
-24.64471
 31
0.0
  0
LINE
  8
F01_OUT
  5
1516
 10
-1.219731
 20
-23.995
 30
0.0
 11
-21.319731
 21
-23.995
 31
0.0
  0
LINE
  8
F01_OUT
  5
1517
 10
-21.319731
 20
-23.995
 30
0.0
 11
-22.324731
 21
-24.575238
 31
0.0
  0
ARC
  8
F01_OUT
  5
1518
 10
-21.969457
 20
-24.64471
 30
0.0
 40
0.355321
 50
180.0
 51
270.0
  0
LINE
  8
F01_OUT
  5
1519
 10
-17.802239
 20
0.75378
 30
0.0
 11
-4.737224
 21
0.75378
 31
0.0
  0
LINE
  8
F01_OUT
  5
151A
 10
-28.857293
 20
32.9685
 30
0.0
 11
-43.932293
 21
32.9685
 31
0.0
  0
ARC
  8
F01_OUT
  5
151B
 10
-15.591239
 20
19.733495
 30
0.0
 40
1.75875
 50
90.0
 51
180.0
  0
ARC
  8
F01_OUT
  5
151C
 10
-6.948231
 20
19.733495
 30
0.0
 40
1.75875
 50
0.0
 51
90.0
  0
LINE
  8
F01_OUT
  5
151D
 10
-5.889868
 20
17.36392
 30
0.0
 11
-16.560381
 21
17.36392
 31
0.0
  0
LINE
  8
F01_OUT
  5
151E
 10
-17.802239
 20
3.91953
 30
0.0
 11
-4.737224
 21
3.91953
 31
0.0
  0
LINE
  8
F01_OUT
  5
151F
 10
-17.349989
 20
9.325476
 30
0.0
 11
-5.189481
 21
9.325476
 31
0.0
  0
LINE
  8
F01_OUT
  5
1520
 10
-17.349989
 20
19.733495
 30
0.0
 11
-17.349989
 21
3.91953
 31
0.0
  0
LINE
  8
F01_OUT
  5
1521
 10
-17.802239
 20
15.17553
 30
0.0
 11
-17.349989
 21
15.17553
 31
0.0
  0
LINE
  8
F01_OUT
  5
1522
 10
-17.802239
 20
18.34128
 30
0.0
 11
-17.349989
 21
18.34128
 31
0.0
  0
LINE
  8
F01_OUT
  5
1523
 10
-5.189481
 20
19.733495
 30
0.0
 11
-5.189481
 21
3.91953
 31
0.0
  0
LINE
  8
F01_OUT
  5
1524
 10
-5.189481
 20
15.17553
 30
0.0
 11
-4.737224
 21
15.17553
 31
0.0
  0
LINE
  8
F01_OUT
  5
1525
 10
-5.189481
 20
18.34128
 30
0.0
 11
-4.737224
 21
18.34128
 31
0.0
  0
LINE
  8
F01_OUT
  5
1526
 10
-6.948231
 20
21.492245
 30
0.0
 11
-15.591239
 21
21.492245
 31
0.0
  0
LINE
  8
F01_OUT
  5
1527
 10
-1.219731
 20
23.995
 30
0.0
 11
-21.319731
 21
23.995
 31
0.0
  0
LINE
  8
F01_OUT
  5
1528
 10
-3.732292
 20
32.9685
 30
0.0
 11
-18.807293
 21
32.9685
 31
0.0
  0
LINE
  8
F01_OUT
  5
1529
 10
-21.319731
 20
23.995
 30
0.0
 11
-22.324778
 21
24.575264
 31
0.0
  0
ARC
  8
F01_OUT
  5
152A
 10
-21.969457
 20
24.644648
 30
0.0
 40
0.355321
 50
90.0
 51
180.0
  0
LINE
  8
F05_PRO
  5
152B
 10
-34.422429
 20
65.430486
 30
0.0
 11
-66.354798
 21
65.430486
 31
0.0
  0
LINE
  8
F01_OUT
  5
152F
 10
-43.932293
 20
38.0
 30
0.0
 11
-48.769731
 21
38.0
 31
0.0
  0
LINE
  8
F01_OUT
  5
1531
 10
-47.148232
 20
46.5
 30
0.0
 11
-48.769731
 21
46.5
 31
0.0
  0
LINE
  8
F01_OUT
  5
1532
 10
-47.148232
 20
46.5
 30
0.0
 11
-47.148232
 21
50.0
 31
0.0
  0
POLYLINE
  8
F05_PRO
  5
1533
 66
     1
 10
0.0
 20
0.0
 30
0.0
1001
ACAD
1000
DSTYLE
1002
{
1070
    40
1040
1.0
1002
}
  0
VERTEX
  8
F05_PRO
  5
6386
 10
-23.832247
 20
42.20994
 30
0.0
  0
VERTEX
  8
F05_PRO
  5
6387
 10
-34.422429
 20
65.430486
 30
0.0
  0
SEQEND
  8
F05_PRO
  5
6388
  0
CIRCLE
  8
F01_OUT
  5
1534
 10
-23.769731
 20
42.0
 30
0.0
 40
2.46225
  0
ARC
  8
F01_OUT
  5
1535
 10
-23.769731
 20
42.0
 30
0.0
 40
3.9195
 50
104.453243
 51
37.314061
  0
LINE
  8
F01_OUT
  5
1536
 10
-18.807293
 20
38.0
 30
0.0
 11
-28.857293
 21
38.0
 31
0.0
  0
LINE
  8
F01_OUT
  5
1537
 10
-24.372793
 20
46.281251
 30
0.0
 11
-20.754793
 21
46.281251
 31
0.0
  0
LINE
  8
F03_CNT
  5
1538
 10
-20.364997
 20
42.0
 30
0.0
 11
-27.299497
 21
42.0
 31
0.0
  0
LINE
  8
F01_OUT
  5
1539
 10
-47.148232
 20
50.0
 30
0.0
 11
-24.372793
 21
50.0
 31
0.0
  0
LINE
  8
F03_CNT
  5
153A
 10
-42.500104
 20
40.0
 30
0.0
 11
-30.28936
 21
40.0
 31
0.0
  0
LINE
  8
F01_OUT
  5
153D
 10
-24.372793
 20
46.27963
 30
0.0
 11
-24.372793
 21
50.0
 31
0.0
  0
LINE
  8
F01_OUT
  5
153E
 10
-20.754793
 20
50.0
 30
0.0
 11
0.627208
 21
50.0
 31
0.0
  0
LINE
  8
F03_CNT
  5
153F
 10
-17.375104
 20
40.0
 30
0.0
 11
-5.164359
 21
40.0
 31
0.0
  0
LINE
  8
F03_CNT
  5
1541
 10
-23.769731
 20
45.47719
 30
0.0
 11
-23.769731
 21
38.542689
 31
0.0
  0
LINE
  8
F01_OUT
  5
1542
 10
-20.754793
 20
44.679028
 30
0.0
 11
-20.754793
 21
50.0
 31
0.0
  0
TEXT
  8
F02_DIM
  6
CONTINUOUS
  5
1544
 10
-10.972139
 20
66.835338
 30
0.0
 40
3.015
  1
L
  0
TEXT
  8
F02_DIM
  6
CONTINUOUS
  5
1545
 10
-12.438645
 20
68.254826
 30
0.0
 40
3.015
  1
C
  0
LINE
  8
F01_OUT
  5
1549
 10
176.134383
 20
43.277941
 30
0.0
 11
176.134383
 21
15.879048
 31
0.0
  0
LINE
  8
F01_OUT
  5
154A
 10
116.134383
 20
37.5
 30
0.0
 11
116.134383
 21
-37.5
 31
0.0
  0
LINE
  8
F01_OUT
  5
154B
 10
21.392708
 20
50.0
 30
0.0
 11
21.392708
 21
32.9685
 31
0.0
  0
LINE
  8
F01_OUT
  5
154C
 10
6.317708
 20
50.0
 30
0.0
 11
6.317708
 21
32.9685
 31
0.0
  0
LINE
  8
F01_OUT
  5
154D
 10
26.230269
 20
46.5
 30
0.0
 11
26.230269
 21
-46.5
 31
0.0
  0
LINE
  8
F03_CNT
  5
154E
 10
13.730269
 20
47.37135
 30
0.0
 11
13.730269
 21
33.397583
 31
0.0
  0
LINE
  8
F01_OUT
  5
1551
 10
96.778886
 20
21.364008
 30
0.0
 11
104.134383
 21
18.392194
 31
0.0
  0
LINE
  8
F01_OUT
  5
1552
 10
94.896489
 20
16.704909
 30
0.0
 11
104.134383
 21
12.972557
 31
0.0
  0
LINE
  8
F01_OUT
  5
1553
 10
97.385177
 20
19.49316
 30
0.0
 11
104.134383
 21
16.766303
 31
0.0
  0
LINE
  8
F01_OUT
  5
1554
 10
104.134383
 20
14.59846
 30
0.0
 11
96.625623
 21
17.632177
 31
0.0
  0
LINE
  8
F03_CNT
  5
1555
 10
97.412441
 20
0.0
 30
0.0
 11
180.099531
 21
0.0
 31
0.0
  0
LINE
  8
F05_PRO
  5
1557
 10
21.67731
 20
-13.711506
 30
0.0
 11
44.5426
 21
-63.698559
 31
0.0
  0
TEXT
  8
F05_PRO
  5
1559
 10
46.664049
 20
-67.77493
 30
0.0
 40
3.0
  1
(%%c3.8)
  0
LINE
  8
F05_PRO
  5
155A
 10
44.5426
 20
-63.698559
 30
0.0
 11
72.57534
 21
-63.698559
 31
0.0
  0
LINE
  8
F01_OUT
  5
155D
 10
26.230269
 20
-38.0
 30
0.0
 11
21.392708
 21
-38.0
 31
0.0
  0
LINE
  8
F01_OUT
  5
155F
 10
1.833208
 20
-50.0
 30
0.0
 11
24.608646
 21
-50.0
 31
0.0
  0
LINE
  8
F01_OUT
  5
1560
 10
21.392708
 20
-50.0
 30
0.0
 11
21.392708
 21
-35.0
 31
0.0
  0
LINE
  8
F01_OUT
  5
1561
 10
6.317708
 20
-35.0
 30
0.0
 11
6.317708
 21
-50.0
 31
0.0
  0
LINE
  8
F03_CNT
  5
1562
 10
13.730269
 20
-36.254614
 30
0.0
 11
13.730269
 21
-48.465389
 31
0.0
  0
LINE
  8
F01_OUT
  5
1565
 10
1.833208
 20
-46.279662
 30
0.0
 11
1.833208
 21
-50.0
 31
0.0
  0
LINE
  8
F01_OUT
  5
1566
 10
21.392708
 20
-35.0
 30
0.0
 11
6.317708
 21
-35.0
 31
0.0
  0
LINE
  8
F03_CNT
  5
1567
 10
7.749897
 20
-42.0
 30
0.0
 11
19.960641
 21
-42.0
 31
0.0
  0
LINE
  8
F03_CNT
  5
1568
 10
1.230269
 20
-38.54269
 30
0.0
 11
1.230269
 21
-45.477191
 31
0.0
  0
LINE
  8
F01_OUT
  5
1569
 10
24.608646
 20
-46.5
 30
0.0
 11
24.608646
 21
-50.0
 31
0.0
  0
LINE
  8
F01_OUT
  5
156A
 10
24.608646
 20
-46.5
 30
0.0
 11
26.230269
 21
-46.5
 31
0.0
  0
LINE
  8
F01_OUT
  5
156B
 10
-0.214792
 20
24.644648
 30
0.0
 11
-0.214792
 21
-24.64471
 31
0.0
  0
LINE
  8
F01_OUT
  5
156C
 10
24.730269
 20
23.99997
 30
0.0
 11
24.730269
 21
-24.000032
 31
0.0
  0
CIRCLE
  8
F01_OUT
  5
1572
 10
21.430269
 20
-13.5
 30
0.0
 40
1.9095
  0
LINE
  8
F03_CNT
  5
1576
 10
24.344769
 20
-13.5
 30
0.0
 11
18.515769
 21
-13.5
 31
0.0
  0
LINE
  8
F03_CNT
  5
1579
 10
21.430269
 20
-10.552856
 30
0.0
 11
21.430269
 21
-16.381856
 31
0.0
  0
ARC
  8
F01_OUT
  5
157E
 10
-0.570114
 20
-24.64471
 30
0.0
 40
0.355321
 50
270.0
 51
0.0
  0
LINE
  8
F01_OUT
  5
1593
 10
21.392708
 20
32.9685
 30
0.0
 11
6.317708
 21
32.9685
 31
0.0
  0
ARC
  8
F01_OUT
  5
1594
 10
-0.570114
 20
24.644648
 30
0.0
 40
0.355321
 50
0.0
 51
90.0
  0
TEXT
  8
F02_DIM
  6
CONTINUOUS
  5
1598
 10
94.588774
 20
-2.024355
 30
0.0
 40
3.015
  1
L
  0
TEXT
  8
F02_DIM
  6
CONTINUOUS
  5
1599
 10
93.122268
 20
-0.604867
 30
0.0
 40
3.015
  1
C
  0
LINE
  8
F01_OUT
  5
159A
 10
94.489362
 20
20.392163
 30
0.0
 11
93.924643
 21
18.994433
 31
0.0
  0
ARC
  8
F02_DIM
  5
159B
 10
119.319633
 20
9.5475
 30
0.0
 40
27.18525
 50
163.666331
 51
180.0
  0
CIRCLE
  8
F01_OUT
  5
159C
 10
97.002113
 20
18.564027
 30
0.0
 40
1.005
  0
ARC
  8
F01_OUT
  5
159D
 10
95.555328
 20
18.335593
 30
0.0
 40
1.75875
 50
158.0
 51
248.0
  0
TEXT
  8
F05_PRO
  5
159E
 10
90.876179
 20
24.840745
 30
0.0
 40
3.0
  1
ON
  0
ARC
  8
F01_OUT
  5
159F
 10
96.120047
 20
19.733323
 30
0.0
 40
1.75875
 50
68.0
 51
158.0
  0
LINE
  8
F01_OUT
  5
15A1
 10
176.134383
 20
-20.207053
 30
0.0
 11
176.134383
 21
-43.277884
 31
0.0
  0
LINE
  8
F01_OUT
  5
15A3
 10
125.134383
 20
-46.5
 30
0.0
 11
175.589591
 21
-46.5
 31
0.0
  0
LINE
  8
F01_OUT
  5
15A4
 10
127.634383
 20
-49.998752
 30
0.0
 11
173.251622
 21
-49.998752
 31
0.0
  0
LINE
  8
F01_OUT
  5
15A6
 10
125.134383
 20
-38.0
 30
0.0
 11
125.134383
 21
-47.498752
 31
0.0
  0
LINE
  8
F01_OUT
  5
15A8
 10
125.134383
 20
-38.0
 30
0.0
 11
116.634383
 21
-38.0
 31
0.0
  0
LINE
  8
F01_OUT
  5
15A9
 10
175.233169
 20
-48.577
 30
0.0
 11
176.134383
 21
-43.277884
 31
0.0
  0
ARC
  8
F01_OUT
  5
15AA
 10
173.251622
 20
-47.988752
 30
0.0
 40
2.01
 50
270.0
 51
350.348137
  0
LINE
  8
F01_OUT
  5
15AB
 10
105.139383
 20
24.22622
 30
0.0
 11
105.139383
 21
-17.45
 31
0.0
  0
LINE
  8
F01_OUT
  5
15AC
 10
108.134383
 20
24.97497
 30
0.0
 11
108.134383
 21
-24.975032
 31
0.0
  0
LINE
  8
F01_OUT
  5
15AD
 10
104.134383
 20
23.97497
 30
0.0
 11
104.134383
 21
-23.975032
 31
0.0
  0
LINE
  8
F01_OUT
  5
15B1
 10
108.134383
 20
-24.975032
 30
0.0
 11
116.134383
 21
-24.975032
 31
0.0
  0
LINE
  8
F01_OUT
  5
15B4
 10
116.134383
 20
24.97497
 30
0.0
 11
108.134383
 21
24.97497
 31
0.0
  0
LINE
  8
F01_OUT
  5
15B5
 10
108.134383
 20
24.97497
 30
0.0
 11
104.134383
 21
23.97497
 31
0.0
  0
LINE
  8
F01_OUT
  5
15B6
 10
172.365633
 20
17.888987
 30
0.0
 11
172.365633
 21
-17.654884
 31
0.0
  0
LINE
  8
F01_OUT
  5
15B7
 10
173.320221
 20
-15.728118
 30
0.0
 11
175.631721
 21
-18.039618
 31
0.0
  0
LINE
  8
F01_OUT
  5
15B8
 10
172.676236
 20
-17.738118
 30
0.0
 11
172.817721
 21
-17.738118
 31
0.0
  0
LINE
  8
F01_OUT
  5
15B9
 10
173.320221
 20
-15.728118
 30
0.0
 11
172.817721
 21
-17.738118
 31
0.0
  0
LINE
  8
F01_OUT
  5
15BA
 10
175.631721
 20
-18.039618
 30
0.0
 11
175.734817
 21
-19.004305
 31
0.0
  0
ARC
  8
F01_OUT
  5
15BB
 10
174.124383
 20
-20.207053
 30
0.0
 40
2.01
 50
0.0
 51
75.0
  0
LINE
  8
F01_OUT
  5
15BC
 10
172.365633
 20
-17.654892
 30
0.0
 11
174.644609
 21
-18.265542
 31
0.0
  0
ARC
  8
F01_OUT
  5
15BD
 10
174.112885
 20
16.840474
 30
0.0
 40
0.3015
 50
190.0
 51
229.0
  0
ARC
  8
F01_OUT
  5
15BE
 10
174.112885
 20
16.840474
 30
0.0
 40
0.3015
 50
190.0
 51
229.0
  0
ARC
  8
F01_OUT
  5
15BF
 10
175.631852
 20
15.879048
 30
0.0
 40
0.5025
 50
270.0
 51
0.0
  0
LINE
  8
F01_OUT
  5
15C0
 10
173.621852
 20
17.888987
 30
0.0
 11
173.815965
 21
16.78812
 31
0.0
  0
LINE
  8
F01_OUT
  5
15C1
 10
175.337377
 20
15.376548
 30
0.0
 11
175.631852
 21
15.376548
 31
0.0
  0
LINE
  8
F01_OUT
  5
15C2
 10
173.915083
 20
16.612929
 30
0.0
 11
175.337377
 21
15.376548
 31
0.0
  0
LINE
  8
F01_OUT
  5
15C3
 10
172.365633
 20
17.888987
 30
0.0
 11
173.621852
 21
17.888987
 31
0.0
  0
LINE
  8
F01_OUT
  5
15CA
 10
26.230269
 20
38.0
 30
0.0
 11
21.392708
 21
38.0
 31
0.0
  0
LINE
  8
F01_OUT
  5
15CC
 10
4.245208
 20
50.0
 30
0.0
 11
24.608646
 21
50.0
 31
0.0
  0
LINE
  8
F03_CNT
  5
15CD
 10
7.749897
 20
40.0
 30
0.0
 11
19.960641
 21
40.0
 31
0.0
  0
LINE
  8
F01_OUT
  5
15D1
 10
4.245208
 20
44.769042
 30
0.0
 11
4.245208
 21
50.0
 31
0.0
  0
LINE
  8
F01_OUT
  5
15D2
 10
0.627208
 20
46.281251
 30
0.0
 11
4.245208
 21
46.281251
 31
0.0
  0
LINE
  8
F01_OUT
  5
15D3
 10
0.627208
 20
46.272972
 30
0.0
 11
0.627208
 21
50.0
 31
0.0
  0
LINE
  8
F01_OUT
  5
15D4
 10
24.608646
 20
46.5
 30
0.0
 11
24.608646
 21
50.0
 31
0.0
  0
LINE
  8
F01_OUT
  5
15D5
 10
24.608646
 20
46.5
 30
0.0
 11
26.230269
 21
46.5
 31
0.0
  0
LINE
  8
F04_HID
  5
15D8
 10
133.134383
 20
39.55
 30
0.0
 11
176.134383
 21
39.55
 31
0.0
  0
LINE
  8
F04_HID
  5
15D9
 10
133.134383
 20
44.45
 30
0.0
 11
175.935053
 21
44.45
 31
0.0
  0
LINE
  8
F01_OUT
  5
15DA
 10
125.134383
 20
46.5
 30
0.0
 11
175.589601
 21
46.5
 31
0.0
  0
LINE
  8
F01_OUT
  5
15DB
 10
127.634383
 20
49.998751
 30
0.0
 11
173.251632
 21
49.998751
 31
0.0
  0
LINE
  8
F04_HID
  5
15DC
 10
125.134383
 20
38.1
 30
0.0
 11
133.134383
 21
38.1
 31
0.0
  0
LINE
  8
F04_HID
  5
15DD
 10
125.134383
 20
45.9
 30
0.0
 11
133.134383
 21
45.9
 31
0.0
  0
LINE
  8
F01_OUT
  5
15DF
 10
125.134383
 20
47.498751
 30
0.0
 11
125.134383
 21
38.0
 31
0.0
  0
LINE
  8
F01_OUT
  5
15E0
 10
125.134383
 20
38.0
 30
0.0
 11
116.634383
 21
38.0
 31
0.0
  0
LINE
  8
F04_HID
  5
15E2
 10
133.134383
 20
38.1
 30
0.0
 11
133.134383
 21
45.9
 31
0.0
  0
LINE
  8
F01_OUT
  5
15E3
 10
175.23318
 20
48.576999
 30
0.0
 11
176.134383
 21
43.277941
 31
0.0
  0
ARC
  8
F01_OUT
  5
15E4
 10
173.251632
 20
47.988751
 30
0.0
 40
2.01
 50
9.651861
 51
90.0
  0
TEXT
  8
F05_PRO
  5
15E5
 10
349.079639
 20
-152.877027
 30
0.0
 40
5.0
  1
Busbar cutting
  0
LINE
  8
F05_PRO
  5
15EA
 10
280.582961
 20
-100.941173
 30
0.0
 11
320.475974
 21
-100.941173
 31
0.0
  0
TEXT
  8
F05_PRO
  5
15EB
 10
282.426173
 20
-98.997105
 30
0.0
 40
3.0
  1
M5X14
  0
TEXT
  8
F05_PRO
  5
15EC
 10
282.426173
 20
-105.658373
 30
0.0
 40
3.0
  1
Self-lifting screw
 41
0.8
  0
DIMENSION
  8
F02_DIM
  5
15ED
  2
*D2
 10
293.354167
 20
-138.739032
 30
0.0
 11
281.354167
 21
-135.739032
 31
0.0
 13
269.354166
 23
-130.438718
 33
0.0
 14
293.354167
 24
-131.378058
 34
0.0
  3
FSTD1
1001
ACAD
1000
DSTYLE
1002
{
1070
    40
1040
1.0
1002
}
  0
LINE
  8
F01_OUT
  5
15F0
 10
255.554178
 20
-131.378058
 30
0.0
 11
293.354167
 21
-131.378058
 31
0.0
  0
LINE
  8
F01_OUT
  5
15F1
 10
289.311046
 20
-128.378058
 30
0.0
 11
286.311045
 21
-131.378058
 31
0.0
  0
TEXT
  8
F05_PRO
  5
15F6
 10
220.386649
 20
-154.066246
 30
0.0
 40
5.0
  1
Terminal section
  0
DIMENSION
  8
F02_DIM
  5
15F7
  2
*D3
 10
239.666182
 20
-116.378057
 30
0.0
 11
236.666182
 21
-119.878058
 31
0.0
 13
223.167958
 23
-123.378058
 33
0.0
 14
224.440559
 24
-116.378057
 34
0.0
 50
90.0
  3
FSTD1
1001
ACAD
1000
DSTYLE
1002
{
1070
    40
1040
1.0
1002
}
  0
LINE
  8
F03_CNT
  5
15F8
 10
215.940559
 20
-115.978063
 30
0.0
 11
215.940559
 21
-130.978064
 31
0.0
  0
LINE
  8
F01_OUT
  5
15F9
 10
203.550392
 20
-131.378058
 30
0.0
 11
207.440559
 21
-127.48789
 31
0.0
  0
LINE
  8
F01_OUT
  5
15FA
 10
224.440559
 20
-129.130041
 30
0.0
 11
227.440559
 21
-126.130041
 31
0.0
  0
LINE
  8
F01_OUT
  5
15FB
 10
207.440559
 20
-116.378057
 30
0.0
 11
207.440559
 21
-131.378058
 31
0.0
  0
LINE
  8
F01_OUT
  5
15FC
 10
224.440559
 20
-116.378057
 30
0.0
 11
224.440559
 21
-131.378058
 31
0.0
  0
LINE
  8
F01_OUT
  5
15FD
 10
207.690559
 20
-128.878058
 30
0.0
 11
207.690559
 21
-117.878058
 31
0.0
  0
LINE
  8
F01_OUT
  5
15FE
 10
224.190559
 20
-128.878058
 30
0.0
 11
224.190559
 21
-117.878058
 31
0.0
  0
LINE
  8
F01_OUT
  5
15FF
 10
221.390559
 20
-129.378058
 30
0.0
 11
224.190559
 21
-126.578058
 31
0.0
  0
LINE
  8
F01_OUT
  5
1600
 10
207.690559
 20
-126.578058
 30
0.0
 11
210.490559
 21
-129.378058
 31
0.0
  0
LINE
  8
F01_OUT
  5
1601
 10
216.590559
 20
-127.830866
 30
0.0
 11
216.590559
 21
-124.528058
 31
0.0
  0
LINE
  8
F01_OUT
  5
1602
 10
215.290559
 20
-127.830866
 30
0.0
 11
215.290559
 21
-124.528058
 31
0.0
  0
CIRCLE
  8
F01_OUT
  5
1603
 10
215.940559
 20
-123.378058
 30
0.0
 40
4.5
  0
DIMENSION
  8
F02_DIM
  5
1604
  2
*D4
 10
224.440559
 20
-138.739032
 30
0.0
 11
215.940559
 21
-135.739032
 31
0.0
 13
207.440559
 23
-131.378058
 33
0.0
 14
224.440559
 24
-131.378058
 34
0.0
  3
FSTD1
1001
ACAD
1000
DSTYLE
1002
{
1070
    40
1040
1.0
1002
}
  0
LINE
  8
F01_OUT
  5
1605
 10
200.647665
 20
-131.378058
 30
0.0
 11
228.647666
 21
-131.378058
 31
0.0
  0
LINE
  8
F01_OUT
  5
1606
 10
223.690559
 20
-129.378058
 30
0.0
 11
208.190559
 21
-129.378058
 31
0.0
  0
LINE
  8
F01_OUT
  5
1607
 10
206.378822
 20
-131.378058
 30
0.0
 11
207.440559
 21
-130.316321
 31
0.0
  0
LINE
  8
F01_OUT
  5
1608
 10
204.557748
 20
-128.378058
 30
0.0
 11
201.557763
 21
-131.378058
 31
0.0
  0
ARC
  8
F01_OUT
  5
1609
 10
208.190559
 20
-128.878058
 30
0.0
 40
0.5
 50
180.0
 51
270.0
  0
LINE
  8
F01_OUT
  5
160A
 10
214.940559
 20
-129.378058
 30
0.0
 11
214.940559
 21
-127.76554
 31
0.0
  0
LINE
  8
F01_OUT
  5
160B
 10
216.940559
 20
-129.378058
 30
0.0
 11
216.940559
 21
-127.76554
 31
0.0
  0
ARC
  8
F01_OUT
  5
160C
 10
223.690559
 20
-128.878058
 30
0.0
 40
0.5
 50
270.0
 51
0.0
  0
LINE
  8
F01_OUT
  5
160D
 10
225.020973
 20
-131.378058
 30
0.0
 11
228.020958
 21
-128.378058
 31
0.0
  0
LINE
  8
F03_CNT
  5
160E
 10
208.647666
 20
-123.378058
 30
0.0
 11
223.167958
 21
-123.378058
 31
0.0
  0
LINE
  8
F01_OUT
  5
160F
 10
217.557748
 20
-116.378057
 30
0.0
 11
220.562952
 21
-113.372854
 31
0.0
  0
LINE
  8
F01_OUT
  5
1610
 10
207.440559
 20
-116.378057
 30
0.0
 11
224.440559
 21
-116.378057
 31
0.0
  0
LINE
  8
F01_OUT
  5
1611
 10
223.690559
 20
-117.378058
 30
0.0
 11
208.190559
 21
-117.378058
 31
0.0
  0
LINE
  8
F01_OUT
  5
1612
 10
217.090559
 20
-122.728058
 30
0.0
 11
218.390559
 21
-122.728058
 31
0.0
  0
LINE
  8
F01_OUT
  5
1613
 10
217.090559
 20
-124.028058
 30
0.0
 11
218.390559
 21
-124.028058
 31
0.0
  0
LINE
  8
F01_OUT
  5
1614
 10
210.241875
 20
-113.372854
 30
0.0
 11
204.440559
 21
-119.17417
 31
0.0
  0
LINE
  8
F01_OUT
  5
1615
 10
207.440559
 20
-119.0026
 30
0.0
 11
204.440559
 21
-122.002569
 31
0.0
  0
LINE
  8
F01_OUT
  5
1616
 10
204.440559
 20
-124.83103
 30
0.0
 11
207.440559
 21
-121.83103
 31
0.0
  0
LINE
  8
F01_OUT
  5
1617
 10
204.440559
 20
-127.65946
 30
0.0
 11
207.440559
 21
-124.65946
 31
0.0
  0
LINE
  8
F01_OUT
  5
1618
 10
207.113445
 20
-113.372854
 30
0.0
 11
204.440559
 21
-116.045739
 31
0.0
  0
LINE
  8
F01_OUT
  5
1619
 10
207.690559
 20
-120.178058
 30
0.0
 11
210.490559
 21
-117.378058
 31
0.0
  0
LINE
  8
F01_OUT
  5
161A
 10
216.590559
 20
-118.925249
 30
0.0
 11
216.590559
 21
-122.228058
 31
0.0
  0
LINE
  8
F01_OUT
  5
161B
 10
215.290559
 20
-122.228058
 30
0.0
 11
215.290559
 21
-118.925249
 31
0.0
  0
LINE
  8
F01_OUT
  5
161C
 10
207.690559
 20
-120.378058
 30
0.0
 11
212.390559
 21
-120.378058
 31
0.0
  0
LINE
  8
F01_OUT
  5
161D
 10
207.690559
 20
-126.378058
 30
0.0
 11
212.390559
 21
-126.378058
 31
0.0
  0
LINE
  8
F01_OUT
  5
161E
 10
207.690559
 20
-122.378058
 30
0.0
 11
211.553077
 21
-122.378058
 31
0.0
  0
LINE
  8
F01_OUT
  5
161F
 10
207.690559
 20
-124.378058
 30
0.0
 11
211.553077
 21
-124.378058
 31
0.0
  0
ARC
  8
F01_OUT
  5
1620
 10
212.390559
 20
-126.078058
 30
0.0
 40
0.3
 50
270.0
 51
301.518401
  0
ARC
  8
F01_OUT
  5
1621
 10
212.390559
 20
-120.678058
 30
0.0
 40
0.3
 50
58.481599
 51
90.0
  0
LINE
  8
F01_OUT
  5
1622
 10
213.490559
 20
-124.028058
 30
0.0
 11
214.790559
 21
-124.028058
 31
0.0
  0
LINE
  8
F01_OUT
  5
1623
 10
213.490559
 20
-122.728058
 30
0.0
 11
214.790559
 21
-122.728058
 31
0.0
  0
LINE
  8
F01_OUT
  5
1624
 10
213.490559
 20
-124.028058
 30
0.0
 11
213.490559
 21
-122.728058
 31
0.0
  0
ARC
  8
F01_OUT
  5
1625
 10
214.790559
 20
-122.228058
 30
0.0
 40
0.5
 50
270.0
 51
0.0
  0
ARC
  8
F01_OUT
  5
1626
 10
217.090559
 20
-122.228058
 30
0.0
 40
0.5
 50
180.0
 51
270.0
  0
ARC
  8
F01_OUT
  5
1627
 10
217.090559
 20
-124.528058
 30
0.0
 40
0.5
 50
90.0
 51
180.0
  0
ARC
  8
F01_OUT
  5
1628
 10
214.790559
 20
-124.528058
 30
0.0
 40
0.5
 50
0.0
 51
90.0
  0
LINE
  8
F01_OUT
  5
1629
 10
214.906092
 20
-113.372854
 30
0.0
 11
211.900888
 21
-116.378057
 31
0.0
  0
LINE
  8
F01_OUT
  5
162A
 10
212.077661
 20
-113.372854
 30
0.0
 11
209.072457
 21
-116.378057
 31
0.0
  0
ARC
  8
F01_OUT
  5
162B
 10
208.190559
 20
-117.878058
 30
0.0
 40
0.5
 50
90.0
 51
180.0
  0
LINE
  8
F01_OUT
  5
162C
 10
214.729355
 20
-116.378057
 30
0.0
 11
217.734589
 21
-113.372854
 31
0.0
  0
LINE
  8
F01_OUT
  5
162D
 10
214.940559
 20
-117.378058
 30
0.0
 11
214.940559
 21
-118.990575
 31
0.0
  0
LINE
  8
F01_OUT
  5
162E
 10
216.940559
 20
-117.378058
 30
0.0
 11
216.940559
 21
-118.990575
 31
0.0
  0
LINE
  8
F01_OUT
  5
162F
 10
224.440559
 20
-120.644751
 30
0.0
 11
227.440559
 21
-117.644751
 31
0.0
  0
LINE
  8
F01_OUT
  5
1630
 10
221.390559
 20
-117.378058
 30
0.0
 11
224.190559
 21
-120.178058
 31
0.0
  0
LINE
  8
F01_OUT
  5
1631
 10
224.190559
 20
-122.378058
 30
0.0
 11
220.328041
 21
-122.378058
 31
0.0
  0
LINE
  8
F01_OUT
  5
1632
 10
224.190559
 20
-120.378058
 30
0.0
 11
219.490559
 21
-120.378058
 31
0.0
  0
LINE
  8
F01_OUT
  5
1633
 10
224.190559
 20
-126.378058
 30
0.0
 11
219.490559
 21
-126.378058
 31
0.0
  0
LINE
  8
F01_OUT
  5
1634
 10
224.190559
 20
-124.378058
 30
0.0
 11
220.328041
 21
-124.378058
 31
0.0
  0
ARC
  8
F01_OUT
  5
1635
 10
219.490559
 20
-120.678058
 30
0.0
 40
0.3
 50
90.0
 51
121.518401
  0
ARC
  8
F01_OUT
  5
1636
 10
219.490559
 20
-126.078058
 30
0.0
 40
0.3
 50
238.481599
 51
270.0
  0
LINE
  8
F01_OUT
  5
1637
 10
218.390559
 20
-124.028058
 30
0.0
 11
218.390559
 21
-122.728058
 31
0.0
  0
LINE
  8
F01_OUT
  5
1638
 10
224.440559
 20
-123.473181
 30
0.0
 11
227.440559
 21
-120.473181
 31
0.0
  0
LINE
  8
F01_OUT
  5
1639
 10
224.440559
 20
-126.301611
 30
0.0
 11
227.440559
 21
-123.301611
 31
0.0
  0
LINE
  8
F01_OUT
  5
163A
 10
226.219809
 20
-113.372854
 30
0.0
 11
223.214606
 21
-116.378057
 31
0.0
  0
ARC
  8
F01_OUT
  5
163B
 10
223.690559
 20
-117.878058
 30
0.0
 40
0.5
 50
0.0
 51
90.0
  0
LINE
  8
F01_OUT
  5
163C
 10
220.386178
 20
-116.378057
 30
0.0
 11
223.391382
 21
-113.372854
 31
0.0
  0
LINE
  8
F01_OUT
  5
163D
 10
227.445763
 20
-114.811117
 30
0.0
 11
224.440559
 21
-117.81632
 31
0.0
  0
LINE
  8
F01_OUT
  5
163E
 10
269.354166
 20
-116.378057
 30
0.0
 11
269.354166
 21
-130.438718
 31
0.0
  0
LINE
  8
F01_OUT
  5
163F
 10
270.854166
 20
-116.378057
 30
0.0
 11
270.854166
 21
-131.378058
 31
0.0
  0
LINE
  8
F01_OUT
  5
1640
 10
283.854167
 20
-125.349646
 30
0.0
 11
277.825755
 21
-131.378058
 31
0.0
  0
LINE
  8
F01_OUT
  5
1641
 10
280.854167
 20
-118.878057
 30
0.0
 11
280.854167
 21
-127.878058
 31
0.0
  0
LINE
  8
F01_OUT
  5
1642
 10
266.654166
 20
-129.378058
 30
0.0
 11
266.654166
 21
-117.378058
 31
0.0
  0
LINE
  8
F01_OUT
  5
1643
 10
269.054166
 20
-126.835164
 30
0.0
 11
269.054166
 21
-128.178058
 31
0.0
  0
LINE
  8
F01_OUT
  5
1644
 10
269.354166
 20
-129.378058
 30
0.0
 11
268.654166
 21
-126.578058
 31
0.0
  0
LINE
  8
F01_OUT
  5
1645
 10
266.654166
 20
-126.578058
 30
0.0
 11
267.354166
 21
-129.378058
 31
0.0
  0
LINE
  8
F01_OUT
  5
1646
 10
265.159989
 20
-118.878058
 30
0.0
 11
265.159989
 21
-127.878058
 31
0.0
  0
ARC
  8
F01_OUT
  5
1647
 10
263.894261
 20
-126.278058
 30
0.0
 40
1.6
 50
197.03341
 51
270.0
  0
LINE
  8
F01_OUT
  5
1648
 10
263.894261
 20
-127.878058
 30
0.0
 11
265.159989
 21
-127.878058
 31
0.0
  0
LINE
  8
F01_OUT
  5
1649
 10
278.497325
 20
-127.878058
 30
0.0
 11
274.997324
 21
-131.378058
 31
0.0
  0
LINE
  8
F01_OUT
  5
164A
 10
270.854166
 20
-127.878058
 30
0.0
 11
280.854167
 21
-127.878058
 31
0.0
  0
LINE
  8
F01_OUT
  5
164B
 10
269.354166
 20
-130.438718
 30
0.0
 11
270.854166
 21
-130.438718
 31
0.0
  0
LINE
  8
F01_OUT
  5
164C
 10
266.654166
 20
-129.378058
 30
0.0
 11
269.354166
 21
-129.378058
 31
0.0
  0
LINE
  8
F01_OUT
  5
164D
 10
275.668894
 20
-127.878058
 30
0.0
 11
272.168894
 21
-131.378058
 31
0.0
  0
LINE
  8
F01_OUT
  5
164E
 10
272.840464
 20
-127.878058
 30
0.0
 11
270.854166
 21
-129.864355
 31
0.0
  0
LINE
  8
F01_OUT
  5
164F
 10
283.854167
 20
-128.178076
 30
0.0
 11
280.654185
 21
-131.378058
 31
0.0
  0
LINE
  8
F01_OUT
  5
1650
 10
286.482615
 20
-128.378058
 30
0.0
 11
283.482615
 21
-131.378058
 31
0.0
  0
LINE
  8
F03_CNT
  5
1651
 10
255.054178
 20
-123.378058
 30
0.0
 11
285.054179
 21
-123.378058
 31
0.0
  0
LINE
  8
F01_OUT
  5
1652
 10
248.554178
 20
-116.378057
 30
0.0
 11
270.854166
 21
-116.378057
 31
0.0
  0
LINE
  8
F01_OUT
  5
1653
 10
266.875087
 20
-113.372854
 30
0.0
 11
263.869883
 21
-116.378057
 31
0.0
  0
LINE
  8
F01_OUT
  5
1654
 10
265.159989
 20
-118.878058
 30
0.0
 11
263.894261
 21
-118.878058
 31
0.0
  0
LINE
  8
F01_OUT
  5
1655
 10
249.727732
 20
-116.378057
 30
0.0
 11
252.732935
 21
-113.372854
 31
0.0
  0
LINE
  8
F01_OUT
  5
1656
 10
252.556162
 20
-116.378057
 30
0.0
 11
255.561366
 21
-113.372854
 31
0.0
  0
ARC
  8
F01_OUT
  5
1657
 10
263.894261
 20
-120.478058
 30
0.0
 40
1.6
 50
90.0
 51
162.96659
  0
ARC
  8
F01_OUT
  5
1658
 10
273.359989
 20
-123.378058
 30
0.0
 40
11.5
 50
163.199989
 51
196.799985
  0
LINE
  8
F01_OUT
  5
1659
 10
258.213022
 20
-116.378057
 30
0.0
 11
261.218226
 21
-113.372854
 31
0.0
  0
LINE
  8
F01_OUT
  5
165A
 10
255.384592
 20
-116.378057
 30
0.0
 11
258.389796
 21
-113.372854
 31
0.0
  0
LINE
  8
F01_OUT
  5
165B
 10
261.041453
 20
-116.378057
 30
0.0
 11
264.046656
 21
-113.372854
 31
0.0
  0
LINE
  8
F05_PRO
  5
165C
 10
273.909109
 20
-120.660299
 30
0.0
 11
280.582961
 21
-100.941173
 31
0.0
  0
LINE
  8
F01_OUT
  5
165D
 10
270.854166
 20
-118.878057
 30
0.0
 11
280.854167
 21
-118.878057
 31
0.0
  0
LINE
  8
F01_OUT
  5
165E
 10
276.355174
 20
-115.878057
 30
0.0
 11
273.355174
 21
-118.878057
 31
0.0
  0
LINE
  8
F01_OUT
  5
165F
 10
270.854166
 20
-121.378058
 30
0.0
 11
278.15999
 21
-121.378058
 31
0.0
  0
LINE
  8
F01_OUT
  5
1660
 10
270.854166
 20
-125.378058
 30
0.0
 11
278.15999
 21
-125.378058
 31
0.0
  0
LINE
  8
F01_OUT
  5
1661
 10
270.854166
 20
-125.878058
 30
0.0
 11
278.15999
 21
-125.878058
 31
0.0
  0
LINE
  8
F01_OUT
  5
1662
 10
278.15999
 20
-120.878058
 30
0.0
 11
270.854166
 21
-120.878058
 31
0.0
  0
LINE
  8
F01_OUT
  5
1663
 10
266.654166
 20
-120.178058
 30
0.0
 11
267.354166
 21
-117.378058
 31
0.0
  0
LINE
  8
F01_OUT
  5
1664
 10
269.354166
 20
-117.378058
 30
0.0
 11
268.654166
 21
-120.178058
 31
0.0
  0
LINE
  8
F01_OUT
  5
1665
 10
269.054166
 20
-119.920951
 30
0.0
 11
269.054166
 21
-118.578058
 31
0.0
  0
LINE
  8
F01_OUT
  5
230C
 10
270.854166
 20
-120.878058
 30
0.0
 11
269.354166
 21
-120.878058
 31
0.0
  0
LINE
  8
F01_OUT
  5
230D
 10
270.854166
 20
-125.878058
 30
0.0
 11
269.354166
 21
-125.878058
 31
0.0
  0
LINE
  8
F01_OUT
  5
230E
 10
268.654166
 20
-120.178058
 30
0.0
 11
268.654166
 21
-120.378058
 31
0.0
  0
LINE
  8
F01_OUT
  5
230F
 10
268.90772
 20
-120.274504
 30
0.0
 11
268.800558
 21
-120.381666
 31
0.0
  0
LINE
  8
F01_OUT
  5
2310
 10
267.054166
 20
-122.078058
 30
0.0
 11
267.054166
 21
-120.678058
 31
0.0
  0
LINE
  8
F01_OUT
  5
2311
 10
268.654166
 20
-120.378058
 30
0.0
 11
268.754166
 21
-120.378058
 31
0.0
  0
LINE
  8
F01_OUT
  5
2312
 10
266.654166
 20
-122.378058
 30
0.0
 11
266.754166
 21
-122.378058
 31
0.0
  0
LINE
  8
F01_OUT
  5
2313
 10
266.654166
 20
-120.378058
 30
0.0
 11
266.754166
 21
-120.378058
 31
0.0
  0
LINE
  8
F01_OUT
  5
2314
 10
268.654166
 20
-123.778058
 30
0.0
 11
268.654166
 21
-122.978058
 31
0.0
  0
LINE
  8
F01_OUT
  5
2315
 10
268.654166
 20
-122.978058
 30
0.0
 11
268.754166
 21
-122.978058
 31
0.0
  0
LINE
  8
F01_OUT
  5
2316
 10
269.054166
 20
-120.678058
 30
0.0
 11
269.054166
 21
-122.678058
 31
0.0
  0
LINE
  8
F01_OUT
  5
2317
 10
269.054166
 20
-126.078058
 30
0.0
 11
269.054166
 21
-124.078058
 31
0.0
  0
LINE
  8
F01_OUT
  5
2318
 10
268.654166
 20
-123.778058
 30
0.0
 11
268.754166
 21
-123.778058
 31
0.0
  0
LINE
  8
F01_OUT
  5
2319
 10
266.654166
 20
-126.378058
 30
0.0
 11
266.754166
 21
-126.378058
 31
0.0
  0
LINE
  8
F01_OUT
  5
231A
 10
266.654166
 20
-124.378058
 30
0.0
 11
266.754166
 21
-124.378058
 31
0.0
  0
LINE
  8
F01_OUT
  5
231B
 10
268.654166
 20
-126.378058
 30
0.0
 11
268.754166
 21
-126.378058
 31
0.0
  0
LINE
  8
F01_OUT
  5
231C
 10
267.054166
 20
-124.678058
 30
0.0
 11
267.054166
 21
-126.078058
 31
0.0
  0
LINE
  8
F01_OUT
  5
231D
 10
268.90772
 20
-126.481611
 30
0.0
 11
268.800558
 21
-126.374449
 31
0.0
  0
LINE
  8
F01_OUT
  5
231E
 10
268.654166
 20
-126.578058
 30
0.0
 11
268.654166
 21
-126.378058
 31
0.0
  0
ARC
  8
F01_OUT
  5
231F
 10
268.554166
 20
-119.920951
 30
0.0
 40
0.5
 50
315.0
 51
0.0
  0
ARC
  8
F01_OUT
  5
2320
 10
266.754166
 20
-122.078058
 30
0.0
 40
0.3
 50
270.0
 51
0.0
  0
ARC
  8
F01_OUT
  5
2321
 10
266.754166
 20
-120.678058
 30
0.0
 40
0.3
 50
0.0
 51
90.0
  0
ARC
  8
F01_OUT
  5
2322
 10
268.754166
 20
-120.678058
 30
0.0
 40
0.3
 50
0.0
 51
90.0
  0
ARC
  8
F01_OUT
  5
2323
 10
268.754166
 20
-122.678058
 30
0.0
 40
0.3
 50
270.0
 51
0.0
  0
ARC
  8
F01_OUT
  5
2324
 10
268.754166
 20
-124.078058
 30
0.0
 40
0.3
 50
0.0
 51
90.0
  0
ARC
  8
F01_OUT
  5
2325
 10
268.754166
 20
-126.078058
 30
0.0
 40
0.3
 50
270.0
 51
0.0
  0
ARC
  8
F01_OUT
  5
2326
 10
266.754166
 20
-126.078058
 30
0.0
 40
0.3
 50
270.0
 51
0.0
  0
ARC
  8
F01_OUT
  5
2327
 10
266.754166
 20
-124.678058
 30
0.0
 40
0.3
 50
0.0
 51
90.0
  0
ARC
  8
F01_OUT
  5
2328
 10
268.554166
 20
-126.835164
 30
0.0
 40
0.5
 50
0.0
 51
45.0
  0
LINE
  8
F01_OUT
  5
268E
 10
272.531947
 20
-113.372854
 30
0.0
 11
269.526743
 21
-116.378057
 31
0.0
  0
LINE
  8
F01_OUT
  5
268F
 10
269.703517
 20
-113.372854
 30
0.0
 11
266.698313
 21
-116.378057
 31
0.0
  0
LINE
  8
F01_OUT
  5
2690
 10
266.654166
 20
-117.378058
 30
0.0
 11
269.354166
 21
-117.378058
 31
0.0
  0
LINE
  8
F01_OUT
  5
2692
 10
273.526743
 20
-115.878057
 30
0.0
 11
270.854166
 21
-118.550634
 31
0.0
  0
LINE
  8
F01_OUT
  5
2693
 10
280.854167
 20
-119.864355
 30
0.0
 11
283.854167
 21
-116.864355
 31
0.0
  0
LINE
  8
F01_OUT
  5
2694
 10
280.854167
 20
-122.692785
 30
0.0
 11
283.854167
 21
-119.692785
 31
0.0
  0
LINE
  8
F01_OUT
  5
2695
 10
280.854167
 20
-125.521216
 30
0.0
 11
283.854167
 21
-122.521215
 31
0.0
  0
LINE
  8
F01_OUT
  5
2696
 10
278.15999
 20
-120.878058
 30
0.0
 11
279.15999
 21
-121.878058
 31
0.0
  0
LINE
  8
F01_OUT
  5
2697
 10
278.15999
 20
-120.878058
 30
0.0
 11
278.15999
 21
-125.878058
 31
0.0
  0
LINE
  8
F01_OUT
  5
2698
 10
279.15999
 20
-124.878058
 30
0.0
 11
279.15999
 21
-121.878058
 31
0.0
  0
LINE
  8
F01_OUT
  5
2699
 10
278.15999
 20
-125.878058
 30
0.0
 11
279.15999
 21
-124.878058
 31
0.0
  0
LINE
  8
F01_OUT
  5
269A
 10
282.012034
 20
-115.878057
 30
0.0
 11
279.012034
 21
-118.878057
 31
0.0
  0
LINE
  8
F01_OUT
  5
269B
 10
279.183604
 20
-115.878057
 30
0.0
 11
276.183604
 21
-118.878057
 31
0.0
  0
LINE
  8
F01_OUT
  5
269D
 10
293.354167
 20
-127.163366
 30
0.0
 11
289.139476
 21
-131.378058
 31
0.0
  0
LINE
  8
F01_OUT
  5
269E
 10
293.354167
 20
-131.378058
 30
0.0
 11
293.354167
 21
-112.978063
 31
0.0
  0
LINE
  8
F01_OUT
  5
269F
 10
290.354167
 20
-120.006506
 30
0.0
 11
293.354167
 21
-117.006506
 31
0.0
  0
LINE
  8
F01_OUT
  5
26A0
 10
290.354167
 20
-122.834936
 30
0.0
 11
293.354167
 21
-119.834936
 31
0.0
  0
LINE
  8
F01_OUT
  5
26A1
 10
290.354167
 20
-125.663366
 30
0.0
 11
293.354167
 21
-122.663366
 31
0.0
  0
LINE
  8
F01_OUT
  5
26A2
 10
293.354167
 20
-114.178076
 30
0.0
 11
290.354167
 21
-117.178076
 31
0.0
  0
DIMENSION
  8
F02_DIM
  5
26A3
  2
*D5
 10
369.220395
 20
-124.67377
 30
0.0
 11
384.616729
 21
-108.266367
 31
0.0
 12
16.02384
 22
0.0
 32
0.0
 70
   131
 15
372.983943
 25
-120.663072
 35
0.0
  3
FSTD1
1001
ACAD
1000
DSTYLE
1002
{
1070
   288
1070
     1
1070
    40
1040
1.0
1002
}
  0
DIMENSION
  8
F02_DIM
  5
26A4
  2
*D6
 10
357.50815
 20
-115.168421
 30
0.0
 11
354.50815
 21
-101.835088
 31
0.0
 12
16.02384
 22
0.0
 32
0.0
  1
Max.<>
 13
364.102168
 23
-130.168421
 33
0.0
 14
364.102168
 24
-115.168421
 34
0.0
 50
90.0
  3
FSTD1
1001
ACAD
1000
DSTYLE
1002
{
1070
    40
1040
1.0
1002
}
  0
LINE
  8
F03_CNT
  5
26A5
 10
371.102169
 20
-114.918421
 30
0.0
 11
371.102169
 21
-130.418421
 31
0.0
  0
LINE
  8
F01_OUT
  5
26A6
 10
364.102168
 20
-115.168421
 30
0.0
 11
364.102168
 21
-130.168421
 31
0.0
  0
DIMENSION
  8
F02_DIM
  5
26A7
  2
*D7
 10
364.102168
 20
-139.097798
 30
0.0
 11
367.602169
 21
-136.097798
 31
0.0
 12
16.02384
 22
0.0
 32
0.0
 13
371.102169
 23
-130.418421
 33
0.0
 14
364.102168
 24
-130.168421
 34
0.0
  3
FSTD1
1001
ACAD
1000
DSTYLE
1002
{
1070
    40
1040
1.0
1002
}
  0
LINE
  8
F01_OUT
  5
26A8
 10
364.102168
 20
-130.168421
 30
0.0
 11
393.478252
 21
-130.168421
 31
0.0
  0
LINE
  8
F03_CNT
  5
26A9
 10
378.852169
 20
-122.668421
 30
0.0
 11
363.352169
 21
-122.668421
 31
0.0
  0
CIRCLE
  8
F01_OUT
  5
26AA
 10
371.102169
 20
-122.668421
 30
0.0
 40
2.75
  0
LINE
  8
F01_OUT
  5
26AB
 10
364.102168
 20
-115.168421
 30
0.0
 11
393.478252
 21
-115.168421
 31
0.0
  0
TEXT
  8
F05_PRO
  5
26B0
 10
399.165293
 20
-124.481646
 30
0.0
 40
3.0
  1
t  4
  0
LINE
  8
F05_PRO
  5
26B1
 10
402.884132
 20
-122.739422
 30
0.0
 11
404.402579
 21
-121.802489
 31
0.0
  0
LINE
  8
F05_PRO
  5
26B2
 10
404.458816
 20
-123.451491
 30
0.0
 11
402.884132
 21
-122.739422
 31
0.0
  0
LINE
  8
F05_PRO
  5
26B3
 10
402.884132
 20
-123.957435
 30
0.0
 11
404.49631
 21
-123.957435
 31
0.0
  0
LINE
  8
F05_PRO
  5
26B4
 10
402.902878
 20
-124.463379
 30
0.0
 11
404.477563
 21
-124.463379
 31
0.0
  0
DIMENSION
  8
F02_DIM
  5
26B5
  2
*D8
 10
414.178144
 20
-64.229004
 30
0.0
 11
379.178154
 21
-61.229004
 31
0.0
 12
17.681478
 22
0.0
 32
0.0
  1
Min.74
 13
344.178164
 23
-23.999994
 33
0.0
 14
414.178144
 24
-23.999994
 34
0.0
  3
FSTD1
1001
ACAD
1000
DSTYLE
1002
{
1070
    40
1040
1.0
1002
}
  0
LINE
  8
F03_CNT
  5
26B6
 10
336.678166
 20
0.0
 30
0.0
 11
421.678144
 21
0.0
 31
0.0
  0
LINE
  8
F06_CUT
  5
26B7
 10
346.178164
 20
25.999992
 30
0.0
 11
412.178146
 21
25.999992
 31
0.0
  0
LINE
  8
F06_CUT
  5
26B8
 10
346.178164
 20
-25.999994
 30
0.0
 11
412.178146
 21
-25.999994
 31
0.0
  0
LINE
  8
F07_COO
  5
26B9
 10
341.678166
 20
49.998751
 30
0.0
 11
416.678144
 21
49.998751
 31
0.0
  0
LINE
  8
F07_COO
  5
26BA
 10
341.678166
 20
-49.998752
 30
0.0
 11
416.678144
 21
-49.998752
 31
0.0
  0
DIMENSION
  8
F02_DIM
  5
26BB
  2
*D9
 10
346.178164
 20
23.999992
 30
0.0
 11
329.455865
 21
38.92364
 31
0.0
 12
17.681478
 22
0.0
 32
0.0
 70
   132
  1
Max.<>
 15
344.685979
 25
25.331677
 35
0.0
  3
FSTD1
1001
ACAD
1000
DSTYLE
1002
{
1070
   288
1070
     1
1070
    40
1040
1.0
1002
}
  0
DIMENSION
  8
F02_DIM
  5
26BC
  2
*D10
 10
300.311512
 20
-41.999988
 30
0.0
 11
297.311512
 21
0.0
 31
0.0
 12
2.762731
 22
0.0
 32
0.0
 13
245.234027
 23
41.999988
 33
0.0
 14
269.600003
 24
-41.999988
 34
0.0
 50
90.0
  3
FSTD1
1001
ACAD
1000
DSTYLE
1002
{
1070
    40
1040
1.0
1002
}
  0
LINE
  8
F03_CNT
  5
26BD
 10
237.007711
 20
51.59999
 30
0.0
 11
237.007711
 21
33.450284
 31
0.0
  0
LINE
  8
F03_CNT
  5
26BE
 10
249.507709
 20
-54.939988
 30
0.0
 11
249.507709
 21
53.670736
 31
0.0
  0
LINE
  8
F03_CNT
  5
26BF
 10
379.178154
 20
-54.939988
 30
0.0
 11
379.178154
 21
53.670736
 31
0.0
  0
LINE
  8
F07_COO
  5
26C0
 10
287.007697
 20
-49.998752
 30
0.0
 11
287.007697
 21
49.998751
 31
0.0
  0
LINE
  8
F07_COO
  5
26C1
 10
212.007719
 20
-49.998752
 30
0.0
 11
212.007719
 21
49.998751
 31
0.0
  0
LINE
  8
F07_COO
  5
26C2
 10
341.678166
 20
-49.998752
 30
0.0
 11
341.678166
 21
49.998751
 31
0.0
  0
LINE
  8
F03_CNT
  5
26C3
 10
207.007719
 20
0.0
 30
0.0
 11
292.007697
 21
0.0
 31
0.0
  0
DIMENSION
  8
F02_DIM
  5
26C4
  2
*D11
 10
262.007705
 20
-64.229004
 30
0.0
 11
249.507708
 21
-61.229004
 31
0.0
 12
2.762731
 22
0.0
 32
0.0
 13
237.007711
 23
33.450284
 33
0.0
 14
262.007705
 24
-52.44942
 34
0.0
  3
FSTD1
1001
ACAD
1000
DSTYLE
1002
{
1070
    40
1040
1.0
1002
}
  0
TEXT
  8
F05_PRO
  5
26C5
 10
223.441847
 20
-79.077956
 30
0.0
 40
5.0
  1
Panel drilling
 72
     1
 11
249.52518
 21
-79.077956
 31
0.0
  0
LINE
  8
F07_COO
  5
26C6
 10
212.007719
 20
-49.998752
 30
0.0
 11
287.007697
 21
-49.998752
 31
0.0
  0
LINE
  8
F03_CNT
  5
26C7
 10
253.554159
 20
-41.999988
 30
0.0
 11
269.600003
 21
-41.999988
 31
0.0
  0
LINE
  8
F03_CNT
  5
26C8
 10
262.007705
 20
-32.799994
 30
0.0
 11
262.007705
 21
-52.44942
 31
0.0
  0
CIRCLE
  8
F06_CUT
  5
26CA
 10
262.007705
 20
-41.999988
 30
0.0
 40
2.5
  0
TEXT
  8
F02_DIM
  6
CONTINUOUS
  5
26CB
 10
202.288597
 20
-0.604867
 30
0.0
 40
3.015
  1
C
  0
TEXT
  8
F02_DIM
  6
CONTINUOUS
  5
26CC
 10
203.755103
 20
-2.024355
 30
0.0
 40
3.015
  1
L
  0
TEXT
  8
F05_PRO
  5
26CD
 10
337.445624
 20
-79.077956
 30
0.0
 40
5.0
  1
Front panel cutting
 72
     1
 11
379.195624
 21
-79.077956
 31
0.0
  0
LINE
  8
F06_CUT
  5
26CE
 10
344.178164
 20
-23.999994
 30
0.0
 11
344.178164
 21
23.999992
 31
0.0
  0
ARC
  8
F06_CUT
  5
26CF
 10
346.178164
 20
-23.999994
 30
0.0
 40
2.0
 50
180.001002
 51
270.0
  0
TEXT
  8
F02_DIM
  6
CONTINUOUS
  5
26D0
 10
331.959041
 20
-0.604867
 30
0.0
 40
3.015
  1
C
  0
TEXT
  8
F02_DIM
  6
CONTINUOUS
  5
26D1
 10
333.425548
 20
-2.024355
 30
0.0
 40
3.015
  1
L
  0
ARC
  8
F06_CUT
  5
26D2
 10
346.178164
 20
23.999992
 30
0.0
 40
2.0
 50
90.0
 51
180.000005
  0
LINE
  8
F05_PRO
  5
26D3
 10
263.20548
 20
66.615339
 30
0.0
 11
276.938327
 21
66.615339
 31
0.0
  0
LINE
  8
F03_CNT
  5
26D4
 10
229.132259
 20
41.999988
 30
0.0
 11
245.234027
 21
41.999988
 31
0.0
  0
LINE
  8
F07_COO
  5
26D5
 10
212.007719
 20
49.998751
 30
0.0
 11
287.007697
 21
49.998751
 31
0.0
  0
TEXT
  8
F05_PRO
  5
26D6
 10
218.732861
 20
66.583849
 30
0.0
 40
3.0
  1
M4 or %%c5
  0
INSERT
  8
F05_PRO
  5
26D7
  2
_OPEN30
 10
235.040242
 20
43.880585
 30
0.0
 41
5.0
 42
5.0
 50
308.448608
 43
5.0
1001
ACAD
1000
DSTYLE
1002
{
1070
    40
1040
1.0
1002
}
  0
LINE
  8
F05_PRO
  5
3C96
 10
231.93118
 20
47.796416
 30
0.0
 11
217.72428
 21
65.689857
 31
0.0
1001
ACAD
1000
R13OBJECT
1002
{
1005
26D7
1002
}
  0
LINE
  8
F05_PRO
  5
26D8
 10
217.72428
 20
65.689857
 30
0.0
 11
241.186497
 21
65.689857
 31
0.0
  0
CIRCLE
  8
F06_CUT
  5
26DA
 10
237.007711
 20
41.999988
 30
0.0
 40
2.5
  0
TEXT
  8
F05_PRO
  5
26DB
 10
264.136289
 20
67.889521
 30
0.0
 40
3.0
  1
ELCB
  0
TEXT
  8
F02_DIM
  6
CONTINUOUS
  5
26DC
 10
247.75034
 20
57.044988
 30
0.0
 40
3.015
  1
C
  0
TEXT
  8
F02_DIM
  6
CONTINUOUS
  5
26DD
 10
249.216846
 20
55.6255
 30
0.0
 40
3.015
  1
L
  0
INSERT
  8
F05_PRO
  5
26DE
  2
_OPEN30
 10
255.586457
 20
49.998751
 30
0.0
 41
5.0
 42
5.0
 50
245.367639
 43
5.0
1001
ACAD
1000
DSTYLE
1002
{
1070
    40
1040
1.0
1002
}
  0
LINE
  8
F05_PRO
  5
3C97
 10
257.670428
 20
54.543755
 30
0.0
 11
263.20548
 21
66.615339
 31
0.0
1001
ACAD
1000
R13OBJECT
1002
{
1005
26DE
1002
}
  0
TEXT
  8
F02_DIM
  6
CONTINUOUS
  5
26DF
 10
378.887291
 20
55.6255
 30
0.0
 40
3.015
  1
L
  0
TEXT
  8
F02_DIM
  6
CONTINUOUS
  5
26E0
 10
377.420784
 20
57.044988
 30
0.0
 40
3.015
  1
C
  0
LINE
  8
F07_COO
  5
26E1
 10
416.678144
 20
-49.998752
 30
0.0
 11
416.678144
 21
49.998751
 31
0.0
  0
DIMENSION
  8
F02_DIM
  5
26E2
  2
*D12
 10
429.943121
 20
-25.999994
 30
0.0
 11
426.943121
 21
-0.000001
 31
0.0
 12
17.681478
 22
0.0
 32
0.0
  1
Min.<>
 13
412.178146
 23
25.999992
 33
0.0
 14
412.178146
 24
-25.999994
 34
0.0
 50
90.0
  3
FSTD1
1001
ACAD
1000
DSTYLE
1002
{
1070
    40
1040
1.0
1002
}
  0
LINE
  8
F06_CUT
  5
26E3
 10
414.178144
 20
-23.999994
 30
0.0
 11
414.178144
 21
23.999992
 31
0.0
  0
ARC
  8
F06_CUT
  5
26E4
 10
412.178146
 20
-23.999994
 30
0.0
 40
2.0
 50
270.0
 51
359.998999
  0
ARC
  8
F06_CUT
  5
26E5
 10
412.178146
 20
23.999992
 30
0.0
 40
2.0
 50
359.997742
 51
90.0
  0
ARC
  8
F01_OUT
  5
399F
 10
272.219691
 20
-121.354583
 30
0.0
 40
7.057791
 50
163.313605
 51
196.799089
  0
ARC
  8
F01_OUT
  5
39A1
 10
258.675085
 20
-125.398677
 30
0.0
 40
7.081145
 50
343.343214
 51
16.881146
  0
ARC
  8
F01_OUT
  5
39A2
 10
273.723177
 20
-125.196497
 30
0.0
 40
8.560164
 50
181.264501
 51
195.113475
  0
ARC
  8
F01_OUT
  5
39A3
 10
257.402538
 20
-121.685726
 30
0.0
 40
9.261672
 50
1.903683
 51
14.747618
  0
LINE
  8
F01_OUT
  5
39A4
 10
265.459099
 20
-119.328058
 30
0.0
 11
266.359099
 21
-119.328058
 31
0.0
  0
ARC
  8
F01_OUT
  5
39A5
 10
273.119691
 20
-121.354583
 30
0.0
 40
7.057791
 50
163.313605
 51
196.799089
  0
ARC
  8
F01_OUT
  5
39A6
 10
259.575085
 20
-125.398677
 30
0.0
 40
7.081145
 50
343.343214
 51
16.881146
  0
LINE
  8
F01_OUT
  5
39A7
 10
266.359098
 20
-127.428402
 30
0.0
 11
265.459098
 21
-127.428402
 31
0.0
  0
LINE
  8
F01_OUT
  5
39A8
 10
266.659099
 20
-121.378058
 30
0.0
 11
266.061939
 21
-121.378058
 31
0.0
  0
LINE
  8
F01_OUT
  5
39A9
 10
265.165098
 20
-125.385402
 30
0.0
 11
265.756218
 21
-125.385402
 31
0.0
  0
DIMENSION
  8
F02_DIM
  5
4011
  2
*D13
 10
13.730269
 20
-71.641196
 30
0.0
 11
-11.269731
 21
-68.641196
 31
0.0
 13
-36.269731
 23
-48.165389
 33
0.0
 14
13.730269
 24
-48.465389
 34
0.0
  3
FSTD1
  0
ARC
  8
F01_OUT
  5
4017
 10
-46.269731
 20
-24.000032
 30
0.0
 40
1.0
 50
180.0
 51
270.0
  0
ARC
  8
F01_OUT
  5
4018
 10
-46.269731
 20
23.99997
 30
0.0
 40
1.0
 50
90.0
 51
180.0
  0
ARC
  8
F01_OUT
  5
4019
 10
23.730269
 20
23.99997
 30
0.0
 40
1.0
 50
0.0
 51
90.0
  0
ARC
  8
F01_OUT
  5
401A
 10
23.730269
 20
-24.000032
 30
0.0
 40
1.0
 50
270.0
 51
0.0
  0
LINE
  8
F01_OUT
  5
4041
 10
21.392708
 20
47.5
 30
0.0
 11
24.608646
 21
47.5
 31
0.0
  0
LINE
  8
F01_OUT
  5
4042
 10
-47.148232
 20
47.5
 30
0.0
 11
-43.932293
 21
47.5
 31
0.0
  0
LINE
  8
F01_OUT
  5
4043
 10
21.392708
 20
-47.5
 30
0.0
 11
24.608646
 21
-47.5
 31
0.0
  0
LINE
  8
F01_OUT
  5
4044
 10
-47.148232
 20
-47.5
 30
0.0
 11
-43.932293
 21
-47.5
 31
0.0
  0
DIMENSION
  8
F02_DIM
  5
417F
  2
*D14
 10
24.730269
 20
-80.932717
 30
0.0
 11
-11.269731
 21
-77.932717
 31
0.0
 13
-47.269731
 23
-24.000032
 33
0.0
 14
24.730269
 24
-24.000032
 34
0.0
  3
FSTD1
  0
DIMENSION
  8
F02_DIM
  5
418C
  2
*D15
 10
26.230269
 20
-91.133124
 30
0.0
 11
-11.269731
 21
-88.133124
 31
0.0
 13
-48.769731
 23
-46.5
 33
0.0
 14
26.230269
 24
-46.5
 34
0.0
  3
FSTD1
  0
LINE
  8
F01_OUT
  5
41AC
 10
125.134383
 20
-47.498752
 30
0.0
 11
127.634383
 21
-49.998752
 31
0.0
  0
LINE
  8
F01_OUT
  5
41AD
 10
125.134383
 20
47.498751
 30
0.0
 11
127.634383
 21
49.998751
 31
0.0
  0
ARC
  8
F01_OUT
  5
41C2
 10
116.634383
 20
37.5
 30
0.0
 40
0.5
 50
90.0
 51
180.0
  0
ARC
  8
F01_OUT
  5
41C3
 10
116.634383
 20
-37.5
 30
0.0
 40
0.5
 50
180.0
 51
270.0
  0
DIMENSION
  8
F02_DIM
  5
41D3
  2
*D16
 10
111.882267
 20
45.9
 30
0.0
 11
108.882267
 21
58.9
 31
0.0
  1
%%c<>
 13
125.134383
 23
38.1
 33
0.0
 14
125.134383
 24
45.9
 34
0.0
 50
90.0
  3
FSTD1
  0
DIMENSION
  8
F02_DIM
  5
41E2
  2
*D17
 10
186.38161
 20
44.45
 30
0.0
 11
183.38161
 21
57.45
 31
0.0
  1
%%c<>
 13
176.134383
 23
39.55
 33
0.0
 14
175.935053
 24
44.45
 34
0.0
 50
90.0
  3
FSTD1
  0
DIMENSION
  8
F02_DIM
  5
41FC
  2
*D18
 10
133.134383
 20
29.385379
 30
0.0
 11
154.634383
 21
32.385379
 31
0.0
 13
176.134383
 23
39.55
 33
0.0
 14
133.134383
 24
38.1
 34
0.0
  3
FSTD1
  0
DIMENSION
  8
F02_DIM
  5
4223
  2
*D19
 10
116.134383
 20
-80.932717
 30
0.0
 11
146.134383
 21
-77.932717
 31
0.0
 13
176.134383
 23
-43.277884
 33
0.0
 14
116.134383
 24
-37.5
 34
0.0
  3
FSTD1
  0
DIMENSION
  8
F02_DIM
  5
4276
  2
*D20
 10
92.134383
 20
-91.133124
 30
0.0
 11
134.134383
 21
-88.133124
 31
0.0
 13
176.134383
 23
-43.277884
 33
0.0
 14
92.134383
 24
9.5475
 34
0.0
  3
FSTD1
  0
TEXT
  8
F05_PRO
  5
427D
 10
46.486166
 20
-61.991055
 30
0.0
 40
3.0
  1
Trip button
 41
0.8
  0
DIMENSION
  8
F02_DIM
  5
428A
  2
*D21
 10
80.920019
 20
-38.0
 30
0.0
 11
77.920019
 21
0.0
 31
0.0
 13
116.634383
 23
38.0
 33
0.0
 14
116.634383
 24
-38.0
 34
0.0
 50
90.0
  3
FSTD1
  0
TEXT
  8
F05_PRO
  5
428B
 10
-62.517619
 20
67.043501
 30
0.0
 40
3.0
  1
Mounting hole
 41
0.8
  0
TEXT
  8
F05_PRO
  5
42A6
 10
393.806736
 20
67.889521
 30
0.0
 40
3.0
  1
ELCB
  0
LINE
  8
F05_PRO
  5
42A7
 10
392.875927
 20
66.615339
 30
0.0
 11
406.608774
 21
66.615339
 31
0.0
  0
LINE
  8
F05_PRO
  5
42A8
 10
387.340875
 20
54.543755
 30
0.0
 11
392.875927
 21
66.615339
 31
0.0
1001
ACAD
1000
R13OBJECT
1002
{
1005
26DE
1002
}
  0
INSERT
  8
F05_PRO
  5
42A9
  2
_OPEN30
 10
385.256904
 20
49.998751
 30
0.0
 41
5.0
 42
5.0
 50
245.367639
 43
5.0
1001
ACAD
1000
DSTYLE
1002
{
1070
    40
1040
1.0
1002
}
  0
TEXT
  8
F05_PRO
  5
42F7
 10
361.422287
 20
-193.449746
 30
0.0
 40
5.0
  1
Dimension : mm
  0
TEXT
  8
F05_PRO
  5
4333
 10
-40.195576
 20
-215.299066
 30
0.0
 40
8.0
  1
Type
  0
ARC
  8
F05_PRO
  5
4334
 10
-55.123001
 20
-206.327488
 30
0.0
 40
8.419574
 50
280.279158
 51
339.332945
1001
ACAD
1000
ASC_BOUNDS
1002
{
1070
    19
1002
}
  0
POLYLINE
  8
F05_PRO
  5
4335
 66
     1
 10
0.0
 20
0.0
 30
0.0
 70
   128
  0
VERTEX
  8
F05_PRO
  5
6389
 10
-52.298356
 20
-200.99417
 30
0.0
  0
VERTEX
  8
F05_PRO
  5
638A
 10
-53.589295
 20
-201.180091
 30
0.0
  0
VERTEX
  8
F05_PRO
  5
638B
 10
-54.856924
 20
-201.63073
 30
0.0
  0
VERTEX
  8
F05_PRO
  5
638C
 10
-56.06023
 20
-202.331508
 30
0.0
  0
VERTEX
  8
F05_PRO
  5
638D
 10
-57.160281
 20
-203.25975
 30
0.0
  0
VERTEX
  8
F05_PRO
  5
638E
 10
-58.121485
 20
-204.385425
 30
0.0
  0
VERTEX
  8
F05_PRO
  5
638F
 10
-58.912743
 20
-205.672111
 30
0.0
  0
VERTEX
  8
F05_PRO
  5
6390
 10
-59.508453
 20
-207.078178
 30
0.0
  0
SEQEND
  8
F05_PRO
  5
6391
  0
LINE
  8
F05_PRO
  5
4336
 10
-57.760594
 20
-207.109066
 30
0.0
 11
-45.715848
 21
-207.109066
 31
0.0
  0
LINE
  8
F05_PRO
  5
4337
 10
-57.531529
 20
-206.029066
 30
0.0
 11
-46.668247
 21
-206.029066
 31
0.0
  0
ARC
  8
F05_PRO
  5
4338
 10
-51.87284
 20
-208.379474
 30
0.0
 40
8.364916
 50
98.442625
 51
137.3304
1001
ACAD
1000
ASC_BOUNDS
1002
{
1070
    19
1002
}
  0
ARC
  8
F05_PRO
  5
4339
 10
-54.858968
 20
-206.563442
 30
0.0
 40
9.05618
 50
279.159834
 51
342.417868
1001
ACAD
1000
ASC_BOUNDS
1002
{
1070
    19
1002
}
  0
ARC
  8
F05_PRO
  5
433A
 10
-54.507006
 20
-209.299094
 30
0.0
 40
6.3
 50
182.729155
 51
279.960292
1001
ACAD
1000
ASC_BOUNDS
1002
{
1070
    19
1002
}
  0
ARC
  8
F05_PRO
  5
433B
 10
-66.952547
 20
-202.924066
 30
0.0
 40
2.625
 50
90.0
 51
168.003101
  0
LINE
  8
F05_PRO
  5
433C
 10
-72.265848
 20
-215.299066
 30
0.0
 11
-67.742044
 21
-215.299066
 31
0.0
  0
LINE
  8
F05_PRO
  5
433D
 10
-72.265848
 20
-215.299066
 30
0.0
 11
-69.520214
 21
-202.378437
 31
0.0
  0
ARC
  8
F05_PRO
  5
433E
 10
-51.693793
 20
-209.408776
 30
0.0
 40
9.082225
 50
144.533818
 51
158.153358
  0
ARC
  8
F05_PRO
  5
433F
 10
-64.763172
 20
-204.889066
 30
0.0
 40
0.75
 50
90.0
 51
168.003101
  0
LINE
  8
F05_PRO
  5
4340
 10
-65.772169
 20
-206.029066
 30
0.0
 11
-60.123762
 21
-206.029066
 31
0.0
  0
ARC
  8
F05_PRO
  5
4341
 10
-54.249645
 20
-209.014504
 30
0.0
 40
5.632662
 50
186.002385
 51
276.412304
1001
ACAD
1000
ASC_BOUNDS
1002
{
1070
    19
1002
}
  0
LINE
  8
F05_PRO
  5
4342
 10
-67.742044
 20
-215.299066
 30
0.0
 11
-66.530794
 21
-209.599066
 31
0.0
  0
LINE
  8
F05_PRO
  5
4343
 10
-65.772169
 20
-206.029066
 30
0.0
 11
-65.496791
 21
-204.733172
 31
0.0
  0
LINE
  8
F05_PRO
  5
4344
 10
-66.530794
 20
-209.599066
 30
0.0
 11
-60.79986
 21
-209.599066
 31
0.0
  0
POLYLINE
  8
F05_PRO
  5
4345
 66
     1
 10
0.0
 20
0.0
 30
0.0
 70
   128
  0
VERTEX
  8
F05_PRO
  5
6392
 10
-59.508453
 20
-207.078178
 30
0.0
  0
VERTEX
  8
F05_PRO
  5
6393
 10
-59.790927
 20
-208.363173
 30
0.0
  0
VERTEX
  8
F05_PRO
  5
6394
 10
-59.851425
 20
-209.61808
 30
0.0
  0
SEQEND
  8
F05_PRO
  5
6395
  0
LINE
  8
F05_PRO
  5
4346
 10
-57.531529
 20
-206.029066
 30
0.0
 11
-57.760594
 21
-207.109066
 31
0.0
  0
LINE
  8
F05_PRO
  5
4347
 10
-66.952547
 20
-200.299066
 30
0.0
 11
-57.528348
 21
-200.299066
 31
0.0
  0
LINE
  8
F05_PRO
  5
4348
 10
-64.763172
 20
-204.139066
 30
0.0
 11
-59.090885
 21
-204.139066
 31
0.0
  0
LINE
  8
F05_PRO
  5
4349
 10
-57.528348
 20
-200.299066
 30
0.0
 11
-58.023348
 21
-202.709988
 31
0.0
  0
ARC
  8
F05_PRO
  5
434A
 10
-51.956157
 20
-206.241536
 30
0.0
 40
6.242447
 50
1.499529
 51
100.57959
1001
ACAD
1000
ASC_BOUNDS
1002
{
1070
    19
1002
}
  0
ARC
  8
F05_PRO
  5
434B
 10
-51.980402
 20
-206.303919
 30
0.0
 40
5.319261
 50
2.961866
 51
93.426847
  0
LINE
  8
F05_PRO
  5
434C
 10
-46.225848
 20
-209.299066
 30
0.0
 11
-47.245251
 21
-209.299066
 31
0.0
  0
LINE
  8
F05_PRO
  5
434D
 10
-45.715848
 20
-207.109066
 30
0.0
 11
-45.715848
 21
-206.078179
 31
0.0
  0
TEXT
  8
F05_PRO
  6
CONTINUOUS
  5
434E
 10
348.208849
 20
-212.628667
 30
0.0
 40
3.0
  1
FILE NAME
  7
FSTD1
  0
LINE
  8
F05_PRO
  5
434F
 10
293.401702
 20
-207.373169
 30
0.0
 11
430.865633
 21
-207.373169
 31
0.0
  0
TEXT
  8
F05_PRO
  6
CONTINUOUS
  5
4350
 10
344.246285
 20
-219.254098
 30
0.0
 40
3.0
  1
EW50U3
  7
FSTD1
  0
LINE
  8
F05_PRO
  5
4355
 10
319.465576
 20
-207.373169
 30
0.0
 11
319.465576
 21
-235.373169
 31
0.0
  0
LINE
  8
F05_PRO
  5
4356
 10
293.401702
 20
-207.373169
 30
0.0
 11
293.401702
 21
-235.373169
 31
0.0
  0
LINE
  8
F05_PRO
  5
4357
 10
341.883838
 20
-207.373169
 30
0.0
 11
341.883838
 21
-235.373169
 31
0.0
  0
TEXT
  8
F05_PRO
  6
CONTINUOUS
  5
4358
 10
321.828793
 20
-219.254097
 30
0.0
 40
3.0
  1
2009-01
  7
FSTD1
  0
TEXT
  8
F05_PRO
  6
CONTINUOUS
  5
4359
 10
325.257505
 20
-212.628667
 30
0.0
 40
3.0
  1
DATE
  7
FSTD1
  0
TEXT
  8
F05_PRO
  6
CONTINUOUS
  5
435A
 10
298.27048
 20
-219.254098
 30
0.0
 40
3.0
  1
DRAWN
  7
FSTD1
  0
TEXT
  8
F05_PRO
  6
CONTINUOUS
  5
435B
 10
298.27048
 20
-226.508314
 30
0.0
 40
3.0
  1
CHANGE
  7
FSTD1
  0
LINE
  8
F05_PRO
  5
435C
 10
430.865633
 20
-207.373169
 30
0.0
 11
430.865633
 21
-235.373169
 31
0.0
  0
LINE
  8
F05_PRO
  5
435D
 10
417.541322
 20
-207.373169
 30
0.0
 11
417.541322
 21
-235.373169
 31
0.0
  0
LINE
  8
F05_PRO
  5
435E
 10
379.10466
 20
-207.373169
 30
0.0
 11
379.10466
 21
-235.373169
 31
0.0
  0
TEXT
  8
F05_PRO
  6
CONTINUOUS
  5
4360
 10
383.73806
 20
-212.628667
 30
0.0
 40
3.0
  1
DRAWING NO.
  7
FSTD1
  0
TEXT
  8
F05_PRO
  6
CONTINUOUS
  5
4361
 10
419.692101
 20
-212.438056
 30
0.0
 40
3.0
  1
INDEX
 41
0.7
  7
FSTD1
  0
TEXT
  8
F05_PRO
  5
436A
 10
-5.672929
 20
-216.29235
 30
0.0
 40
8.0
  1
EW50RAGU-3P
 41
0.8
  0
ARC
  8
F01_OUT
  5
438C
 10
-24.872793
 20
46.27963
 30
0.0
 40
0.5
 50
284.453243
 51
0.0
  0
ARC
  8
F01_OUT
  5
438D
 10
-20.254793
 20
44.679028
 30
0.0
 40
0.5
 50
180.0
 51
217.314061
  0
ARC
  8
F01_OUT
  5
438E
 10
0.127208
 20
46.272972
 30
0.0
 40
0.5
 50
285.291591
 51
0.0
  0
ARC
  8
F01_OUT
  5
438F
 10
4.745208
 20
44.769042
 30
0.0
 40
0.5
 50
180.0
 51
218.630973
  0
ARC
  8
F01_OUT
  5
439D
 10
-2.284792
 20
-44.678866
 30
0.0
 40
0.5
 50
0.0
 51
37.311417
  0
ARC
  8
F01_OUT
  5
439E
 10
2.333208
 20
-46.279662
 30
0.0
 40
0.5
 50
104.451588
 51
180.0
  0
ARC
  8
F01_OUT
  5
439F
 10
-27.284809
 20
-44.768889
 30
0.0
 40
0.5
 50
0.0
 51
38.628427
  0
ARC
  8
F01_OUT
  5
43A0
 10
-22.666809
 20
-46.273006
 30
0.0
 40
0.5
 50
105.289943
 51
180.0
  0
DIMENSION
  8
F02_DIM
  5
4417
  2
*D22
 10
125.134383
 20
-71.641196
 30
0.0
 11
150.634383
 21
-68.641196
 31
0.0
 13
176.134383
 23
-43.277884
 33
0.0
 14
125.134383
 24
-46.5
 34
0.0
  3
FSTD1
  0
LINE
  8
F05_PRO
  5
4422
 10
293.401702
 20
-214.373169
 30
0.0
 11
430.865633
 21
-214.373169
 31
0.0
  0
LINE
  8
F05_PRO
  5
4423
 10
293.401702
 20
-221.373169
 30
0.0
 11
430.865633
 21
-221.373169
 31
0.0
  0
LINE
  8
F05_PRO
  5
4424
 10
293.401702
 20
-228.373169
 30
0.0
 11
430.865633
 21
-228.373169
 31
0.0
  0
LINE
  8
F05_PRO
  5
4425
 10
293.401702
 20
-235.373169
 30
0.0
 11
430.865633
 21
-235.373169
 31
0.0
  0
CIRCLE
  8
F01_OUT
  5
4FC8
 10
12.930269
 20
-21.2
 30
0.0
 40
2.5
  0
CIRCLE
  8
F01_OUT
  5
4FC9
 10
12.930269
 20
-21.2
 30
0.0
 40
3.75
  0
CIRCLE
  8
F01_OUT
  5
4FCA
 10
12.930269
 20
-21.2
 30
0.0
 40
2.75
  0
CIRCLE
  8
F01_OUT
  5
4FCC
 10
14.430269
 20
-6.7
 30
0.0
 40
2.75
  0
LINE
  8
F01_OUT
  5
4FD9
 10
104.134383
 20
-18.7
 30
0.0
 11
104.134383
 21
-23.7
 31
0.0
  0
LINE
  8
F01_OUT
  5
4FDA
 10
101.934383
 20
-19.2
 30
0.0
 11
101.934383
 21
-23.2
 31
0.0
  0
LINE
  8
F01_OUT
  5
4FDB
 10
104.434383
 20
-24.95
 30
0.0
 11
108.134383
 21
-24.95
 31
0.0
  0
LINE
  8
F01_OUT
  5
4FDC
 10
104.134383
 20
-23.7
 30
0.0
 11
104.134383
 21
-24.65
 31
0.0
  0
ARC
  8
F01_OUT
  5
4FDE
 10
102.434383
 20
-23.2
 30
0.0
 40
0.5
 50
180.0
 51
270.0
  0
LINE
  8
F01_OUT
  5
4FE0
 10
102.434383
 20
-23.7
 30
0.0
 11
104.134383
 21
-23.7
 31
0.0
  0
LINE
  8
F01_OUT
  5
4FE2
 10
104.434383
 20
-17.45
 30
0.0
 11
108.134383
 21
-17.45
 31
0.0
  0
ARC
  8
F01_OUT
  5
4FE3
 10
104.434383
 20
-17.75
 30
0.0
 40
0.3
 50
90.0
 51
180.0
  0
ARC
  8
F01_OUT
  5
4FE4
 10
102.434383
 20
-19.2
 30
0.0
 40
0.5
 50
90.0
 51
180.0
  0
LINE
  8
F01_OUT
  5
4FE5
 10
102.434383
 20
-18.7
 30
0.0
 11
104.134383
 21
-18.7
 31
0.0
  0
ARC
  8
F01_OUT
  5
4FE6
 10
104.434383
 20
-24.65
 30
0.0
 40
0.3
 50
180.0
 51
270.0
  0
LINE
  8
F05_PRO
  5
5019
 10
14.430269
 20
-6.7
 30
0.0
 11
20.32767
 21
65.170952
 31
0.0
  0
LINE
  8
F05_PRO
  5
501B
 10
20.32767
 20
65.170952
 30
0.0
 11
58.445055
 21
65.170952
 31
0.0
  0
LINE
  8
F05_PRO
  5
501C
 10
12.930269
 20
-21.2
 30
0.0
 11
44.5426
 21
-77.995446
 31
0.0
  0
LINE
  8
F05_PRO
  5
501E
 10
44.5426
 20
-77.995446
 30
0.0
 11
73.342755
 21
-77.995446
 31
0.0
  0
TEXT
  8
F05_PRO
  5
5020
 10
46.962246
 20
-76.38253
 30
0.0
 40
3.0
  1
Test button
 41
0.8
  0
TEXT
  8
F05_PRO
  5
5021
 10
22.848351
 20
71.840049
 30
0.0
 40
3.0
  1
EL trip
 41
0.8
  0
TEXT
  8
F05_PRO
  5
5022
 10
22.848351
 20
67.126393
 30
0.0
 40
3.0
  1
indicating button
 41
0.8
  0
TEXT
  8
F02_DIM
  6
CONTINUOUS
  5
5065
 10
-57.936157
 20
-0.645146
 30
0.0
 40
3.015
  1
C
  0
TEXT
  8
F02_DIM
  6
CONTINUOUS
  5
5066
 10
-56.46965
 20
-2.064634
 30
0.0
 40
3.015
  1
L
  0
DIMENSION
  8
F02_DIM
  5
507C
  2
*D23
 10
108.134383
 20
-80.932717
 30
0.0
 11
112.134383
 21
-77.932717
 31
0.0
 13
116.134383
 23
-37.5
 33
0.0
 14
108.134383
 24
-24.975032
 34
0.0
  3
FSTD1
  0
DIMENSION
  8
F02_DIM
  5
508B
  2
*D24
 10
104.134383
 20
-71.641196
 30
0.0
 11
95.80105
 21
-68.641196
 31
0.0
 13
108.134383
 23
-24.95
 33
0.0
 14
104.134383
 24
-24.65
 34
0.0
  3
FSTD1
  0
DIMENSION
  8
F02_DIM
  5
50A0
  2
*D25
 10
46.177814
 20
-42.0
 30
0.0
 11
43.177814
 21
-21.0
 31
0.0
 13
30.658023
 23
0.0
 33
0.0
 14
19.960641
 24
-42.0
 34
0.0
 50
90.0
  3
FSTD1
  0
DIMENSION
  8
F02_DIM
  5
50AD
  2
*D26
 10
46.177814
 20
40.0
 30
0.0
 11
43.177814
 21
20.0
 31
0.0
 13
30.658023
 23
0.0
 33
0.0
 14
19.960641
 24
40.0
 34
0.0
 50
90.0
  3
FSTD1
  0
DIMENSION
  8
F02_DIM
  5
50BA
  2
*D27
 10
46.177814
 20
50.0
 30
0.0
 11
43.177814
 21
45.0
 31
0.0
 13
19.960641
 23
40.0
 33
0.0
 14
24.608646
 24
50.0
 34
0.0
 50
90.0
  3
FSTD1
  0
DIMENSION
  8
F02_DIM
  5
50C9
  2
*D28
 10
46.177814
 20
-50.0
 30
0.0
 11
43.177814
 21
-46.0
 31
0.0
 13
19.960641
 23
-42.0
 33
0.0
 14
24.608646
 24
-50.0
 34
0.0
 50
90.0
  3
FSTD1
  0
DIMENSION
  8
F02_DIM
  5
50D6
  2
*D29
 10
-62.373728
 20
-25.000032
 30
0.0
 11
-65.373728
 21
-0.000031
 31
0.0
 13
-46.269731
 23
24.99997
 33
0.0
 14
-46.269731
 24
-25.000032
 34
0.0
 50
90.0
  3
FSTD1
  0
DIMENSION
  8
F02_DIM
  5
50E3
  2
*D30
 10
-73.392999
 20
-42.0
 30
0.0
 11
-76.392999
 21
0.0
 31
0.0
 13
-27.299497
 23
42.0
 33
0.0
 14
-2.174481
 24
-42.0
 34
0.0
 50
90.0
  3
FSTD1
  0
DIMENSION
  8
F02_DIM
  5
50F0
  2
*D31
 10
-85.115627
 20
-50.0
 30
0.0
 11
-88.115627
 21
0.0
 31
0.0
 13
-47.148232
 23
50.0
 33
0.0
 14
-47.148232
 24
-50.0
 34
0.0
 50
90.0
  3
FSTD1
  0
ARC
  8
F08_IMG
  5
5361
 10
-30.069731
 20
44.500001
 30
0.0
 40
0.2
 50
180.0
 51
270.0
  0
ARC
  8
F08_IMG
  5
5362
 10
-28.769731
 20
49.700001
 30
0.0
 40
1.5
 50
90.0
 51
180.0
  0
LINE
  8
F08_IMG
  5
5363
 10
-29.969746
 20
57.200001
 30
0.0
 11
-31.769746
 21
57.200001
 31
0.0
  0
LINE
  8
F08_IMG
  5
5364
 10
-29.969716
 20
55.800001
 30
0.0
 11
-31.769716
 21
55.800001
 31
0.0
  0
LINE
  8
F08_IMG
  5
5365
 10
24.130254
 20
59.800001
 30
0.0
 11
-46.669716
 21
59.800001
 31
0.0
  0
ARC
  8
F08_IMG
  5
5366
 10
-30.269716
 20
36.500001
 30
0.0
 40
1.0
 50
270.0
 51
0.0
  0
LINE
  8
F08_IMG
  5
5367
 10
-30.269716
 20
40.000001
 30
0.0
 11
-29.269716
 21
41.000001
 31
0.0
  0
LINE
  8
F08_IMG
  5
5368
 10
-30.269716
 20
38.800001
 30
0.0
 11
-29.269716
 21
37.800001
 31
0.0
  0
ARC
  8
F08_IMG
  5
5369
 10
-30.269715
 20
-36.500001
 30
0.0
 40
1.0
 50
0.0
 51
90.0
  0
LINE
  8
F08_IMG
  5
536A
 10
-29.269715
 20
-37.800001
 30
0.0
 11
-30.269715
 21
-38.800001
 31
0.0
  0
LINE
  8
F08_IMG
  5
536B
 10
-30.269715
 20
-40.000001
 30
0.0
 11
-29.269715
 21
-41.000001
 31
0.0
  0
LINE
  8
F08_IMG
  5
536C
 10
-31.769715
 20
-57.200001
 30
0.0
 11
-29.969715
 21
-57.200001
 31
0.0
  0
LINE
  8
F08_IMG
  5
536D
 10
-29.969715
 20
-55.800001
 30
0.0
 11
-31.769715
 21
-55.800001
 31
0.0
  0
LINE
  8
F08_IMG
  5
536E
 10
-46.669715
 20
-59.800001
 30
0.0
 11
24.130254
 21
-59.800001
 31
0.0
  0
LINE
  8
F08_IMG
  5
5370
 10
-47.569715
 20
-47.900001
 30
0.0
 11
-43.269715
 21
-47.900001
 31
0.0
  0
LINE
  8
F08_IMG
  5
5371
 10
-48.669715
 20
-46.600001
 30
0.0
 11
-44.770856
 21
-46.600001
 31
0.0
  0
LINE
  8
F08_IMG
  5
5372
 10
-44.369715
 20
-55.800001
 30
0.0
 11
-48.669715
 21
-55.800001
 31
0.0
  0
LINE
  8
F08_IMG
  5
5373
 10
-46.769715
 20
-51.40002
 30
0.0
 11
-47.569715
 21
-50.60002
 31
0.0
  0
ARC
  8
F08_IMG
  5
5374
 10
-46.669715
 20
-57.800001
 30
0.0
 40
2.0
 50
180.0
 51
270.0
  0
LINE
  8
F08_IMG
  5
5375
 10
-47.569715
 20
-50.60002
 30
0.0
 11
-47.569715
 21
-47.900001
 31
0.0
  0
LINE
  8
F08_IMG
  5
5376
 10
-48.669715
 20
-57.750001
 30
0.0
 11
-48.669715
 21
-46.600001
 31
0.0
  0
LINE
  8
F08_IMG
  5
5377
 10
-31.769715
 20
-46.900001
 30
0.0
 11
-31.769715
 21
-50.600001
 31
0.0
  0
LINE
  8
F08_IMG
  5
5378
 10
-33.569715
 20
-46.900001
 30
0.0
 11
-33.569715
 21
-50.600001
 31
0.0
  0
LINE
  8
F08_IMG
  5
5379
 10
-35.369715
 20
-46.900001
 30
0.0
 11
-35.369715
 21
-50.600001
 31
0.0
  0
LINE
  8
F08_IMG
  5
537A
 10
-37.169715
 20
-46.900001
 30
0.0
 11
-37.169715
 21
-50.600001
 31
0.0
  0
LINE
  8
F08_IMG
  5
537B
 10
-38.969715
 20
-46.900001
 30
0.0
 11
-38.969715
 21
-50.600001
 31
0.0
  0
LINE
  8
F08_IMG
  5
537C
 10
-40.769715
 20
-46.900001
 30
0.0
 11
-40.769715
 21
-50.600001
 31
0.0
  0
LINE
  8
F08_IMG
  5
537D
 10
-46.769715
 20
-49.750002
 30
0.0
 11
-46.769715
 21
-51.40002
 31
0.0
  0
LINE
  8
F08_IMG
  5
537E
 10
-43.269715
 20
-47.900001
 30
0.0
 11
-43.269715
 21
-51.40002
 31
0.0
  0
ARC
  8
F08_IMG
  5
537F
 10
-39.869715
 20
-50.600001
 30
0.0
 40
0.9
 50
270.0
 51
0.0
  0
LINE
  8
F08_IMG
  5
5380
 10
-38.969715
 20
-57.200001
 30
0.0
 11
-37.169715
 21
-57.200001
 31
0.0
  0
LINE
  8
F08_IMG
  5
5381
 10
-37.169715
 20
-55.800001
 30
0.0
 11
-38.969715
 21
-55.800001
 31
0.0
  0
ARC
  8
F08_IMG
  5
5382
 10
-43.469715
 20
-54.700001
 30
0.0
 40
0.9
 50
0.0
 51
180.0
  0
LINE
  8
F08_IMG
  5
5383
 10
-44.369715
 20
-57.200001
 30
0.0
 11
-42.569715
 21
-57.200001
 31
0.0
  0
LINE
  8
F08_IMG
  5
5384
 10
-45.069715
 20
-57.200001
 30
0.0
 11
-44.369715
 21
-57.200001
 31
0.0
  0
LINE
  8
F08_IMG
  5
5385
 10
-46.069715
 20
-53.10002
 30
0.0
 11
-46.069715
 21
-56.200001
 31
0.0
  0
LINE
  8
F08_IMG
  5
5386
 10
-44.369715
 20
-54.700001
 30
0.0
 11
-44.369715
 21
-59.800001
 31
0.0
  0
LINE
  8
F08_IMG
  5
5387
 10
-46.769715
 20
-51.40002
 30
0.0
 11
-46.769715
 21
-52.40002
 31
0.0
  0
ARC
  8
F08_IMG
  5
5388
 10
-45.069715
 20
-56.200001
 30
0.0
 40
1.0
 50
180.0
 51
270.0
  0
LINE
  8
F08_IMG
  5
5389
 10
-46.769715
 20
-51.40002
 30
0.0
 11
-43.269715
 21
-51.40002
 31
0.0
  0
LINE
  8
F08_IMG
  5
538A
 10
-46.069715
 20
-53.10002
 30
0.0
 11
-46.769715
 21
-52.40002
 31
0.0
  0
LINE
  8
F08_IMG
  5
538B
 10
-38.969715
 20
-54.700001
 30
0.0
 11
-38.969715
 21
-59.800001
 31
0.0
  0
LINE
  8
F08_IMG
  5
538C
 10
-42.569715
 20
-57.200001
 30
0.0
 11
-40.769715
 21
-57.200001
 31
0.0
  0
LINE
  8
F08_IMG
  5
538D
 10
-42.569715
 20
-54.700001
 30
0.0
 11
-42.569715
 21
-59.800001
 31
0.0
  0
LINE
  8
F08_IMG
  5
538E
 10
-40.769715
 20
-55.800001
 30
0.0
 11
-42.569715
 21
-55.800001
 31
0.0
  0
LINE
  8
F08_IMG
  5
538F
 10
-40.769715
 20
-54.700001
 30
0.0
 11
-40.769715
 21
-59.800001
 31
0.0
  0
ARC
  8
F08_IMG
  5
5390
 10
-39.869715
 20
-54.700001
 30
0.0
 40
0.9
 50
0.0
 51
180.0
  0
LINE
  8
F08_IMG
  5
5391
 10
-40.769715
 20
-57.200001
 30
0.0
 11
-38.969715
 21
-57.200001
 31
0.0
  0
ARC
  8
F08_IMG
  5
5392
 10
-39.869715
 20
-50.600001
 30
0.0
 40
0.9
 50
180.0
 51
270.0
  0
LINE
  8
F08_IMG
  5
5393
 10
-35.369715
 20
-57.200001
 30
0.0
 11
-33.569715
 21
-57.200001
 31
0.0
  0
LINE
  8
F08_IMG
  5
5394
 10
-33.569715
 20
-55.800001
 30
0.0
 11
-35.369715
 21
-55.800001
 31
0.0
  0
ARC
  8
F08_IMG
  5
5395
 10
-36.269715
 20
-54.700001
 30
0.0
 40
0.9
 50
90.0
 51
180.0
  0
ARC
  8
F08_IMG
  5
5396
 10
-36.269715
 20
-54.700001
 30
0.0
 40
0.9
 50
0.0
 51
90.0
  0
LINE
  8
F08_IMG
  5
5397
 10
-37.169715
 20
-57.200001
 30
0.0
 11
-35.369715
 21
-57.200001
 31
0.0
  0
LINE
  8
F08_IMG
  5
5398
 10
-35.369715
 20
-54.700001
 30
0.0
 11
-35.369715
 21
-59.800001
 31
0.0
  0
LINE
  8
F08_IMG
  5
5399
 10
-37.169715
 20
-54.700001
 30
0.0
 11
-37.169715
 21
-59.800001
 31
0.0
  0
ARC
  8
F08_IMG
  5
539A
 10
-36.269715
 20
-50.600001
 30
0.0
 40
0.9
 50
270.0
 51
0.0
  0
ARC
  8
F08_IMG
  5
539B
 10
-36.269715
 20
-50.600001
 30
0.0
 40
0.9
 50
180.0
 51
270.0
  0
ARC
  8
F08_IMG
  5
539C
 10
-32.669715
 20
-54.700001
 30
0.0
 40
0.9
 50
0.0
 51
180.0
  0
LINE
  8
F08_IMG
  5
539D
 10
-33.569715
 20
-57.200001
 30
0.0
 11
-31.769715
 21
-57.200001
 31
0.0
  0
LINE
  8
F08_IMG
  5
539E
 10
-31.769715
 20
-54.700001
 30
0.0
 11
-31.769715
 21
-59.800001
 31
0.0
  0
LINE
  8
F08_IMG
  5
539F
 10
-33.569715
 20
-54.700001
 30
0.0
 11
-33.569715
 21
-59.800001
 31
0.0
  0
ARC
  8
F08_IMG
  5
53A0
 10
-32.669715
 20
-50.600001
 30
0.0
 40
0.9
 50
180.0
 51
0.0
  0
LINE
  8
F08_IMG
  5
53A1
 10
-38.001766
 20
-40.000001
 30
0.0
 11
-42.269715
 21
-40.000001
 31
0.0
  0
ARC
  8
F08_IMG
  5
53A2
 10
-39.869715
 20
-46.900001
 30
0.0
 40
0.9
 50
0.0
 51
90.0
  0
LINE
  8
F08_IMG
  5
53A3
 10
-30.269715
 20
-38.800001
 30
0.0
 11
-42.269715
 21
-38.800001
 31
0.0
  0
LINE
  8
F08_IMG
  5
53A4
 10
-30.269715
 20
-35.500001
 30
0.0
 11
-42.269715
 21
-35.500001
 31
0.0
  0
LINE
  8
F08_IMG
  5
53A5
 10
-42.269715
 20
-40.000001
 30
0.0
 11
-43.269715
 21
-41.000001
 31
0.0
  0
LINE
  8
F08_IMG
  5
53A6
 10
-43.269715
 20
-36.500001
 30
0.0
 11
-43.269715
 21
-44.499949
 31
0.0
  0
ARC
  8
F08_IMG
  5
53A7
 10
-44.770856
 20
-46.100001
 30
0.0
 40
0.5
 50
270.0
 51
330.0
  0
LINE
  8
F08_IMG
  5
53A8
 10
-44.337844
 20
-46.350001
 30
0.0
 11
-43.269715
 21
-44.499949
 31
0.0
  0
LINE
  8
F08_IMG
  5
53A9
 10
-46.769715
 20
-46.600001
 30
0.0
 11
-46.769715
 21
-49.750002
 31
0.0
  0
ARC
  8
F08_IMG
  5
53AA
 10
-39.869715
 20
-46.900001
 30
0.0
 40
0.9
 50
90.0
 51
180.0
  0
ARC
  8
F08_IMG
  5
53AB
 10
-42.269715
 20
-36.500001
 30
0.0
 40
1.0
 50
90.0
 51
180.0
  0
LINE
  8
F08_IMG
  5
53AC
 10
-42.269715
 20
-38.800001
 30
0.0
 11
-43.269715
 21
-37.800001
 31
0.0
  0
ARC
  8
F08_IMG
  5
53AD
 10
-36.269715
 20
-41.000001
 30
0.0
 40
2.5
 50
156.421822
 51
23.578178
  0
CIRCLE
  8
F08_IMG
  5
53AE
 10
-36.269715
 20
-41.000001
 30
0.0
 40
2.0
  0
ARC
  8
F08_IMG
  5
53AF
 10
-36.269715
 20
-46.900001
 30
0.0
 40
0.9
 50
90.0
 51
180.0
  0
ARC
  8
F08_IMG
  5
53B0
 10
-36.269715
 20
-46.900001
 30
0.0
 40
0.9
 50
0.0
 51
90.0
  0
ARC
  8
F08_IMG
  5
53B1
 10
-32.669715
 20
-46.900001
 30
0.0
 40
0.9
 50
0.0
 51
180.0
  0
LINE
  8
F08_IMG
  5
53B2
 10
-30.269715
 20
-40.000001
 30
0.0
 11
-34.537664
 21
-40.000001
 31
0.0
  0
LINE
  8
F08_IMG
  5
53B3
 10
-46.769716
 20
51.400019
 30
0.0
 11
-46.769716
 21
52.400019
 31
0.0
  0
LINE
  8
F08_IMG
  5
53B4
 10
-48.669716
 20
57.750001
 30
0.0
 11
-48.669716
 21
46.600001
 31
0.0
  0
LINE
  8
F08_IMG
  5
53B5
 10
-46.769716
 20
51.400019
 30
0.0
 11
-47.569716
 21
50.600019
 31
0.0
  0
LINE
  8
F08_IMG
  5
53B6
 10
-47.569716
 20
47.900001
 30
0.0
 11
-43.269716
 21
47.900001
 31
0.0
  0
LINE
  8
F08_IMG
  5
53B7
 10
-48.669716
 20
46.600001
 30
0.0
 11
-44.770796
 21
46.600001
 31
0.0
  0
LINE
  8
F08_IMG
  5
53B8
 10
-47.569716
 20
50.600019
 30
0.0
 11
-47.569716
 21
47.900001
 31
0.0
  0
LINE
  8
F08_IMG
  5
53B9
 10
-42.269716
 20
40.000001
 30
0.0
 11
-38.001767
 21
40.000001
 31
0.0
  0
LINE
  8
F08_IMG
  5
53BA
 10
-42.269716
 20
38.800001
 30
0.0
 11
-30.269716
 21
38.800001
 31
0.0
  0
LINE
  8
F08_IMG
  5
53BB
 10
-39.269716
 20
37.500001
 30
0.0
 11
-33.269716
 21
37.500001
 31
0.0
  0
LINE
  8
F08_IMG
  5
53BC
 10
-30.269716
 20
35.500001
 30
0.0
 11
-42.269716
 21
35.500001
 31
0.0
  0
LINE
  8
F08_IMG
  5
53BD
 10
-43.269716
 20
36.500001
 30
0.0
 11
-43.269716
 21
44.500001
 31
0.0
  0
ARC
  8
F08_IMG
  5
53BE
 10
-42.269716
 20
36.500001
 30
0.0
 40
1.0
 50
180.0
 51
270.0
  0
LINE
  8
F08_IMG
  5
53BF
 10
-42.269716
 20
40.000001
 30
0.0
 11
-43.269716
 21
41.000001
 31
0.0
  0
LINE
  8
F08_IMG
  5
53C0
 10
-43.269716
 20
37.800001
 30
0.0
 11
-42.269716
 21
38.800001
 31
0.0
  0
LINE
  8
F08_IMG
  5
53C1
 10
-39.269716
 20
37.500001
 30
0.0
 11
-39.269716
 21
35.500001
 31
0.0
  0
ARC
  8
F08_IMG
  5
53C2
 10
-44.770796
 20
46.100001
 30
0.0
 40
0.5
 50
30.0
 51
90.0
  0
LINE
  8
F08_IMG
  5
53C3
 10
-43.269716
 20
47.900001
 30
0.0
 11
-43.269716
 21
51.400019
 31
0.0
  0
LINE
  8
F08_IMG
  5
53C4
 10
-43.269685
 20
44.499948
 30
0.0
 11
-44.340377
 21
46.35444
 31
0.0
  0
LINE
  8
F08_IMG
  5
53C5
 10
-46.769716
 20
49.750001
 30
0.0
 11
-46.769716
 21
51.400019
 31
0.0
  0
LINE
  8
F08_IMG
  5
53C6
 10
-46.769716
 20
46.600001
 30
0.0
 11
-46.769716
 21
49.750001
 31
0.0
  0
LINE
  8
F08_IMG
  5
53C7
 10
-46.769716
 20
51.400019
 30
0.0
 11
-43.269716
 21
51.400019
 31
0.0
  0
LINE
  8
F08_IMG
  5
53C8
 10
-38.969746
 20
46.900001
 30
0.0
 11
-38.969746
 21
50.600001
 31
0.0
  0
LINE
  8
F08_IMG
  5
53C9
 10
-40.769746
 20
46.900001
 30
0.0
 11
-40.769746
 21
50.600001
 31
0.0
  0
ARC
  8
F08_IMG
  5
53CA
 10
-39.869746
 20
50.600001
 30
0.0
 40
0.9
 50
0.0
 51
180.0
  0
ARC
  8
F08_IMG
  5
53CB
 10
-39.869746
 20
46.900001
 30
0.0
 40
0.9
 50
180.0
 51
0.0
  0
CIRCLE
  8
F08_IMG
  5
53CC
 10
-36.269716
 20
41.000001
 30
0.0
 40
2.0
  0
ARC
  8
F08_IMG
  5
53CD
 10
-36.269716
 20
41.000001
 30
0.0
 40
2.5
 50
336.421822
 51
203.578178
  0
LINE
  8
F08_IMG
  5
53CE
 10
-34.537665
 20
40.000001
 30
0.0
 11
-30.269716
 21
40.000001
 31
0.0
  0
LINE
  8
F08_IMG
  5
53CF
 10
-34.769716
 20
38.000001
 30
0.0
 11
-34.769716
 21
37.500001
 31
0.0
  0
LINE
  8
F08_IMG
  5
53D0
 10
-37.769716
 20
38.000001
 30
0.0
 11
-37.769716
 21
37.500001
 31
0.0
  0
LINE
  8
F08_IMG
  5
53D1
 10
-37.769716
 20
38.000001
 30
0.0
 11
-34.769716
 21
38.000001
 31
0.0
  0
LINE
  8
F08_IMG
  5
53D2
 10
-33.269716
 20
37.500001
 30
0.0
 11
-33.269716
 21
35.500001
 31
0.0
  0
ARC
  8
F08_IMG
  5
53D3
 10
-36.269746
 20
46.900001
 30
0.0
 40
0.9
 50
180.0
 51
0.0
  0
ARC
  8
F08_IMG
  5
53D4
 10
-36.269746
 20
50.600001
 30
0.0
 40
0.9
 50
0.0
 51
180.0
  0
LINE
  8
F08_IMG
  5
53D5
 10
-37.169746
 20
46.900001
 30
0.0
 11
-37.169746
 21
50.600001
 31
0.0
  0
LINE
  8
F08_IMG
  5
53D6
 10
-35.369746
 20
46.900001
 30
0.0
 11
-35.369746
 21
50.600001
 31
0.0
  0
LINE
  8
F08_IMG
  5
53D7
 10
-30.269731
 20
49.700001
 30
0.0
 11
-30.269731
 21
44.500001
 31
0.0
  0
ARC
  8
F08_IMG
  5
53D8
 10
-32.669746
 20
50.600001
 30
0.0
 40
0.9
 50
0.0
 51
180.0
  0
ARC
  8
F08_IMG
  5
53D9
 10
-32.669746
 20
46.900001
 30
0.0
 40
0.9
 50
180.0
 51
0.0
  0
LINE
  8
F08_IMG
  5
53DA
 10
-31.769746
 20
46.900001
 30
0.0
 11
-31.769746
 21
50.600001
 31
0.0
  0
LINE
  8
F08_IMG
  5
53DB
 10
-33.569746
 20
46.900001
 30
0.0
 11
-33.569746
 21
50.600001
 31
0.0
  0
LINE
  8
F08_IMG
  5
53DC
 10
-44.369716
 20
55.750001
 30
0.0
 11
-48.669716
 21
55.750001
 31
0.0
  0
ARC
  8
F08_IMG
  5
53DD
 10
-46.669716
 20
57.800001
 30
0.0
 40
2.0
 50
90.0
 51
180.0
  0
LINE
  8
F08_IMG
  5
53DE
 10
-37.169746
 20
57.200001
 30
0.0
 11
-38.969746
 21
57.200001
 31
0.0
  0
LINE
  8
F08_IMG
  5
53DF
 10
-37.169716
 20
55.800001
 30
0.0
 11
-38.969716
 21
55.800001
 31
0.0
  0
ARC
  8
F08_IMG
  5
53E0
 10
-43.469746
 20
54.700001
 30
0.0
 40
0.9
 50
270.0
 51
0.0
  0
LINE
  8
F08_IMG
  5
53E1
 10
-42.569746
 20
57.200001
 30
0.0
 11
-44.369746
 21
57.200001
 31
0.0
  0
ARC
  8
F08_IMG
  5
53E2
 10
-43.469746
 20
54.700001
 30
0.0
 40
0.9
 50
180.0
 51
270.0
  0
LINE
  8
F08_IMG
  5
53E3
 10
-46.069716
 20
53.100019
 30
0.0
 11
-46.069716
 21
56.200001
 31
0.0
  0
LINE
  8
F08_IMG
  5
53E4
 10
-44.369746
 20
57.200001
 30
0.0
 11
-45.069716
 21
57.200001
 31
0.0
  0
LINE
  8
F08_IMG
  5
53E5
 10
-44.369746
 20
54.700001
 30
0.0
 11
-44.369746
 21
59.800001
 31
0.0
  0
ARC
  8
F08_IMG
  5
53E6
 10
-45.069716
 20
56.200001
 30
0.0
 40
1.0
 50
90.0
 51
180.0
  0
LINE
  8
F08_IMG
  5
53E7
 10
-46.069716
 20
53.100019
 30
0.0
 11
-46.769716
 21
52.400019
 31
0.0
  0
LINE
  8
F08_IMG
  5
53E8
 10
-38.969746
 20
54.700001
 30
0.0
 11
-38.969746
 21
59.800001
 31
0.0
  0
LINE
  8
F08_IMG
  5
53E9
 10
-40.769746
 20
57.200001
 30
0.0
 11
-42.569746
 21
57.200001
 31
0.0
  0
LINE
  8
F08_IMG
  5
53EA
 10
-40.769746
 20
54.700001
 30
0.0
 11
-40.769746
 21
59.800001
 31
0.0
  0
LINE
  8
F08_IMG
  5
53EB
 10
-42.569746
 20
54.700001
 30
0.0
 11
-42.569746
 21
59.800001
 31
0.0
  0
LINE
  8
F08_IMG
  5
53EC
 10
-40.769716
 20
55.800001
 30
0.0
 11
-42.569716
 21
55.800001
 31
0.0
  0
ARC
  8
F08_IMG
  5
53ED
 10
-39.869746
 20
54.700001
 30
0.0
 40
0.9
 50
180.0
 51
0.0
  0
LINE
  8
F08_IMG
  5
53EE
 10
-38.969746
 20
57.200001
 30
0.0
 11
-40.769746
 21
57.200001
 31
0.0
  0
LINE
  8
F08_IMG
  5
53EF
 10
-33.569746
 20
57.200001
 30
0.0
 11
-35.369746
 21
57.200001
 31
0.0
  0
LINE
  8
F08_IMG
  5
53F0
 10
-33.569716
 20
55.800001
 30
0.0
 11
-35.369716
 21
55.800001
 31
0.0
  0
ARC
  8
F08_IMG
  5
53F1
 10
-36.269746
 20
54.700001
 30
0.0
 40
0.9
 50
180.0
 51
0.0
  0
LINE
  8
F08_IMG
  5
53F2
 10
-37.169746
 20
54.700001
 30
0.0
 11
-37.169746
 21
59.800001
 31
0.0
  0
LINE
  8
F08_IMG
  5
53F3
 10
-35.369746
 20
54.700001
 30
0.0
 11
-35.369746
 21
59.800001
 31
0.0
  0
LINE
  8
F08_IMG
  5
53F4
 10
-35.369746
 20
57.200001
 30
0.0
 11
-37.169746
 21
57.200001
 31
0.0
  0
ARC
  8
F08_IMG
  5
53F5
 10
-32.669746
 20
54.700001
 30
0.0
 40
0.9
 50
180.0
 51
0.0
  0
LINE
  8
F08_IMG
  5
53F6
 10
-33.569746
 20
54.700001
 30
0.0
 11
-33.569746
 21
59.800001
 31
0.0
  0
LINE
  8
F08_IMG
  5
53F7
 10
-31.769746
 20
54.700001
 30
0.0
 11
-31.769746
 21
59.800001
 31
0.0
  0
LINE
  8
F08_IMG
  5
53F8
 10
-31.769746
 20
57.200001
 30
0.0
 11
-33.569746
 21
57.200001
 31
0.0
  0
LINE
  8
F08_IMG
  5
53FA
 10
3.361633
 20
-46.831365
 30
0.0
 11
4.797932
 21
-48.267663
 31
0.0
  0
LINE
  8
F08_IMG
  5
53FB
 10
4.698906
 20
-46.831365
 30
0.0
 11
3.262607
 21
-48.267663
 31
0.0
  0
LINE
  8
F08_IMG
  5
53FC
 10
4.088848
 20
-45.441423
 30
0.0
 11
5.23027
 21
-44.300001
 31
0.0
  0
CIRCLE
  8
F08_IMG
  5
53FD
 10
4.03027
 20
-47.500001
 30
0.0
 40
2.0
  0
LINE
  8
F08_IMG
  5
53FE
 10
2.13027
 20
-50.700001
 30
0.0
 11
6.23027
 21
-50.700001
 31
0.0
  0
LINE
  8
F08_IMG
  5
53FF
 10
2.13027
 20
-51.200001
 30
0.0
 11
6.23027
 21
-51.200001
 31
0.0
  0
LINE
  8
F08_IMG
  5
5400
 10
1.730483
 20
-57.200001
 30
0.0
 11
5.630285
 21
-57.200001
 31
0.0
  0
LINE
  8
F08_IMG
  5
5401
 10
-3.169746
 20
-55.800001
 30
0.0
 11
5.630254
 21
-55.800001
 31
0.0
  0
LINE
  8
F08_IMG
  5
5402
 10
-13.969715
 20
-57.200001
 30
0.0
 11
-12.169715
 21
-57.200001
 31
0.0
  0
LINE
  8
F08_IMG
  5
5403
 10
-12.169715
 20
-55.800001
 30
0.0
 11
-13.969715
 21
-55.800001
 31
0.0
  0
ARC
  8
F08_IMG
  5
5404
 10
-11.269746
 20
-41.000001
 30
0.0
 40
2.5
 50
156.421822
 51
23.578178
  0
CIRCLE
  8
F08_IMG
  5
5405
 10
-11.269746
 20
-41.000001
 30
0.0
 40
2.0
  0
LINE
  8
F08_IMG
  5
5406
 10
-17.269715
 20
-35.500001
 30
0.0
 11
-5.269746
 21
-35.500001
 31
0.0
  0
LINE
  8
F08_IMG
  5
5407
 10
-5.269746
 20
-38.800001
 30
0.0
 11
-17.269746
 21
-38.800001
 31
0.0
  0
LINE
  8
F08_IMG
  5
5408
 10
-13.969715
 20
-46.900001
 30
0.0
 11
-13.969715
 21
-50.600001
 31
0.0
  0
LINE
  8
F08_IMG
  5
5409
 10
-15.769715
 20
-46.900001
 30
0.0
 11
-15.769715
 21
-50.600001
 31
0.0
  0
LINE
  8
F08_IMG
  5
540A
 10
-25.669944
 20
-50.000001
 30
0.0
 11
-25.669944
 21
-56.150001
 31
0.0
  0
LINE
  8
F08_IMG
  5
540B
 10
-24.069944
 20
-50.000001
 30
0.0
 11
-24.069944
 21
-56.150001
 31
0.0
  0
LINE
  8
F08_IMG
  5
540C
 10
-23.069944
 20
-57.200001
 30
0.0
 11
-19.369715
 21
-57.200001
 31
0.0
  0
LINE
  8
F08_IMG
  5
540D
 10
-19.369715
 20
-55.800001
 30
0.0
 11
-28.169715
 21
-55.800001
 31
0.0
  0
ARC
  8
F08_IMG
  5
540E
 10
-26.669944
 20
-56.150001
 30
0.0
 40
1.0
 50
270.0
 51
0.0
  0
LINE
  8
F08_IMG
  5
540F
 10
-28.169715
 20
-57.200001
 30
0.0
 11
-26.669944
 21
-57.200001
 31
0.0
  0
LINE
  8
F08_IMG
  5
5410
 10
-28.169715
 20
-54.700001
 30
0.0
 11
-28.169715
 21
-59.800001
 31
0.0
  0
LINE
  8
F08_IMG
  5
5411
 10
-29.969715
 20
-54.700001
 30
0.0
 11
-29.969715
 21
-59.800001
 31
0.0
  0
ARC
  8
F08_IMG
  5
5412
 10
-29.069715
 20
-54.700001
 30
0.0
 40
0.9
 50
0.0
 51
180.0
  0
LINE
  8
F08_IMG
  5
5413
 10
-29.969715
 20
-57.200001
 30
0.0
 11
-28.169715
 21
-57.200001
 31
0.0
  0
ARC
  8
F08_IMG
  5
5414
 10
-23.069944
 20
-56.150001
 30
0.0
 40
1.0
 50
180.0
 51
270.0
  0
LINE
  8
F08_IMG
  5
5415
 10
-17.569715
 20
-57.200001
 30
0.0
 11
-15.769715
 21
-57.200001
 31
0.0
  0
LINE
  8
F08_IMG
  5
5416
 10
-15.769715
 20
-55.800001
 30
0.0
 11
-17.569715
 21
-55.800001
 31
0.0
  0
ARC
  8
F08_IMG
  5
5417
 10
-18.469715
 20
-54.700001
 30
0.0
 40
0.9
 50
0.0
 51
180.0
  0
LINE
  8
F08_IMG
  5
5418
 10
-19.369715
 20
-57.200001
 30
0.0
 11
-17.569715
 21
-57.200001
 31
0.0
  0
LINE
  8
F08_IMG
  5
5419
 10
-17.569715
 20
-54.700001
 30
0.0
 11
-17.569715
 21
-59.800001
 31
0.0
  0
LINE
  8
F08_IMG
  5
541A
 10
-19.369715
 20
-54.700001
 30
0.0
 11
-19.369715
 21
-59.800001
 31
0.0
  0
LINE
  8
F08_IMG
  5
541B
 10
-13.969715
 20
-54.700001
 30
0.0
 11
-13.969715
 21
-59.800001
 31
0.0
  0
LINE
  8
F08_IMG
  5
541C
 10
-15.769715
 20
-54.700001
 30
0.0
 11
-15.769715
 21
-59.800001
 31
0.0
  0
ARC
  8
F08_IMG
  5
541D
 10
-14.869715
 20
-54.700001
 30
0.0
 40
0.9
 50
0.0
 51
180.0
  0
ARC
  8
F08_IMG
  5
541E
 10
-14.869715
 20
-50.600001
 30
0.0
 40
0.9
 50
180.0
 51
0.0
  0
LINE
  8
F08_IMG
  5
541F
 10
-15.769715
 20
-57.200001
 30
0.0
 11
-13.969715
 21
-57.200001
 31
0.0
  0
LINE
  8
F08_IMG
  5
5420
 10
-19.969715
 20
-50.000001
 30
0.0
 11
-27.569746
 21
-50.000001
 31
0.0
  0
LINE
  8
F08_IMG
  5
5421
 10
-29.269715
 20
-36.500001
 30
0.0
 11
-29.269715
 21
-44.500001
 31
0.0
  0
LINE
  8
F08_IMG
  5
5422
 10
-26.070173
 20
-46.600001
 30
0.0
 11
-23.669715
 21
-46.600001
 31
0.0
  0
LINE
  8
F08_IMG
  5
5423
 10
-25.669944
 20
-47.900001
 30
0.0
 11
-26.070173
 21
-47.900001
 31
0.0
  0
ARC
  8
F08_IMG
  5
5424
 10
-26.070173
 20
-46.900001
 30
0.0
 40
0.3
 50
90.0
 51
180.0
  0
ARC
  8
F08_IMG
  5
5425
 10
-27.569746
 20
-49.500001
 30
0.0
 40
0.5
 50
180.0
 51
270.0
  0
ARC
  8
F08_IMG
  5
5426
 10
-26.070173
 20
-47.600001
 30
0.0
 40
0.3
 50
180.0
 51
270.0
  0
LINE
  8
F08_IMG
  5
5427
 10
-28.069746
 20
-46.57841
 30
0.0
 11
-28.069746
 21
-49.500001
 31
0.0
  0
LINE
  8
F08_IMG
  5
5428
 10
-26.370173
 20
-46.900001
 30
0.0
 11
-26.370173
 21
-47.600001
 31
0.0
  0
LINE
  8
F08_IMG
  5
5429
 10
-29.269746
 20
-44.499949
 30
0.0
 11
-28.069746
 21
-46.57841
 31
0.0
  0
ARC
  8
F08_IMG
  5
542A
 10
-23.669715
 20
-47.600001
 30
0.0
 40
0.3
 50
270.0
 51
0.0
  0
ARC
  8
F08_IMG
  5
542B
 10
-23.669715
 20
-46.900001
 30
0.0
 40
0.3
 50
0.0
 51
90.0
  0
LINE
  8
F08_IMG
  5
542C
 10
-24.069944
 20
-47.900001
 30
0.0
 11
-23.669715
 21
-47.900001
 31
0.0
  0
LINE
  8
F08_IMG
  5
542D
 10
-23.369715
 20
-46.900001
 30
0.0
 11
-23.369715
 21
-47.600001
 31
0.0
  0
LINE
  8
F08_IMG
  5
542E
 10
-24.069944
 20
-47.900001
 30
0.0
 11
-24.069944
 21
-50.000001
 31
0.0
  0
LINE
  8
F08_IMG
  5
542F
 10
-25.669944
 20
-47.900001
 30
0.0
 11
-25.669944
 21
-50.000001
 31
0.0
  0
LINE
  8
F08_IMG
  5
5430
 10
-17.269746
 20
-40.000001
 30
0.0
 11
-18.269746
 21
-41.000001
 31
0.0
  0
LINE
  8
F08_IMG
  5
5431
 10
-18.269715
 20
-36.500001
 30
0.0
 11
-18.269715
 21
-44.499896
 31
0.0
  0
ARC
  8
F08_IMG
  5
5432
 10
-19.969715
 20
-49.500001
 30
0.0
 40
0.5
 50
270.0
 51
0.0
  0
LINE
  8
F08_IMG
  5
5433
 10
-19.469715
 20
-46.578357
 30
0.0
 11
-19.469715
 21
-49.500001
 31
0.0
  0
LINE
  8
F08_IMG
  5
5434
 10
-18.269715
 20
-44.499896
 30
0.0
 11
-19.469715
 21
-46.578357
 31
0.0
  0
ARC
  8
F08_IMG
  5
5435
 10
-14.869715
 20
-46.900001
 30
0.0
 40
0.9
 50
0.0
 51
180.0
  0
LINE
  8
F08_IMG
  5
5436
 10
-13.001797
 20
-40.000001
 30
0.0
 11
-17.269746
 21
-40.000001
 31
0.0
  0
ARC
  8
F08_IMG
  5
5437
 10
-17.269715
 20
-36.500001
 30
0.0
 40
1.0
 50
90.0
 51
180.0
  0
LINE
  8
F08_IMG
  5
5438
 10
-17.269746
 20
-38.800001
 30
0.0
 11
-18.269746
 21
-37.800001
 31
0.0
  0
LINE
  8
F08_IMG
  5
5439
 10
2.13027
 20
-48.400001
 30
0.0
 11
2.13027
 21
-51.200001
 31
0.0
  0
LINE
  8
F08_IMG
  5
543A
 10
-0.869517
 20
-50.000001
 30
0.0
 11
-0.869517
 21
-56.150001
 31
0.0
  0
LINE
  8
F08_IMG
  5
543B
 10
0.730483
 20
-50.000001
 30
0.0
 11
0.730483
 21
-56.150001
 31
0.0
  0
LINE
  8
F08_IMG
  5
543C
 10
-6.769715
 20
-46.900001
 30
0.0
 11
-6.769715
 21
-50.600001
 31
0.0
  0
LINE
  8
F08_IMG
  5
543D
 10
-10.369715
 20
-46.900001
 30
0.0
 11
-10.369715
 21
-50.600001
 31
0.0
  0
LINE
  8
F08_IMG
  5
543E
 10
-8.569715
 20
-46.900001
 30
0.0
 11
-8.569715
 21
-50.600001
 31
0.0
  0
LINE
  8
F08_IMG
  5
543F
 10
-12.169715
 20
-46.900001
 30
0.0
 11
-12.169715
 21
-50.600001
 31
0.0
  0
ARC
  8
F08_IMG
  5
5440
 10
-4.069715
 20
-54.700001
 30
0.0
 40
0.9
 50
0.0
 51
180.0
  0
LINE
  8
F08_IMG
  5
5441
 10
-4.969715
 20
-57.200001
 30
0.0
 11
-3.169715
 21
-57.200001
 31
0.0
  0
ARC
  8
F08_IMG
  5
5442
 10
-7.669715
 20
-54.700001
 30
0.0
 40
0.9
 50
0.0
 51
180.0
  0
ARC
  8
F08_IMG
  5
5443
 10
-7.669715
 20
-50.600001
 30
0.0
 40
0.9
 50
180.0
 51
0.0
  0
LINE
  8
F08_IMG
  5
5444
 10
-8.569715
 20
-57.200001
 30
0.0
 11
-6.769715
 21
-57.200001
 31
0.0
  0
LINE
  8
F08_IMG
  5
5445
 10
-10.369715
 20
-57.200001
 30
0.0
 11
-8.569715
 21
-57.200001
 31
0.0
  0
LINE
  8
F08_IMG
  5
5446
 10
-10.369746
 20
-55.800001
 30
0.0
 11
-8.569746
 21
-55.800001
 31
0.0
  0
LINE
  8
F08_IMG
  5
5447
 10
-8.569715
 20
-54.700001
 30
0.0
 11
-8.569715
 21
-59.800001
 31
0.0
  0
LINE
  8
F08_IMG
  5
5448
 10
-10.369715
 20
-54.700001
 30
0.0
 11
-10.369715
 21
-59.800001
 31
0.0
  0
LINE
  8
F08_IMG
  5
5449
 10
-12.169715
 20
-54.700001
 30
0.0
 11
-12.169715
 21
-59.800001
 31
0.0
  0
ARC
  8
F08_IMG
  5
544A
 10
-11.269715
 20
-54.700001
 30
0.0
 40
0.9
 50
0.0
 51
180.0
  0
LINE
  8
F08_IMG
  5
544B
 10
-12.169715
 20
-57.200001
 30
0.0
 11
-10.369715
 21
-57.200001
 31
0.0
  0
ARC
  8
F08_IMG
  5
544C
 10
-11.269715
 20
-50.600001
 30
0.0
 40
0.9
 50
180.0
 51
0.0
  0
LINE
  8
F08_IMG
  5
544D
 10
-4.969715
 20
-54.700001
 30
0.0
 11
-4.969715
 21
-59.800001
 31
0.0
  0
LINE
  8
F08_IMG
  5
544E
 10
-6.769715
 20
-54.700001
 30
0.0
 11
-6.769715
 21
-59.800001
 31
0.0
  0
LINE
  8
F08_IMG
  5
544F
 10
-6.769715
 20
-57.200001
 30
0.0
 11
-4.969715
 21
-57.200001
 31
0.0
  0
LINE
  8
F08_IMG
  5
5450
 10
-6.769746
 20
-55.800001
 30
0.0
 11
-4.969746
 21
-55.800001
 31
0.0
  0
ARC
  8
F08_IMG
  5
5451
 10
-1.869517
 20
-56.150001
 30
0.0
 40
1.0
 50
270.0
 51
0.0
  0
LINE
  8
F08_IMG
  5
5452
 10
-3.169715
 20
-54.700001
 30
0.0
 11
-3.169715
 21
-59.800001
 31
0.0
  0
LINE
  8
F08_IMG
  5
5453
 10
-3.169715
 20
-57.200001
 30
0.0
 11
-1.869517
 21
-57.200001
 31
0.0
  0
ARC
  8
F08_IMG
  5
5454
 10
1.730483
 20
-56.150001
 30
0.0
 40
1.0
 50
180.0
 51
270.0
  0
LINE
  8
F08_IMG
  5
5455
 10
-4.269746
 20
-44.499896
 30
0.0
 11
-3.069746
 21
-46.578357
 31
0.0
  0
LINE
  8
F08_IMG
  5
5456
 10
-5.269746
 20
-40.000001
 30
0.0
 11
-4.269746
 21
-41.000001
 31
0.0
  0
LINE
  8
F08_IMG
  5
5457
 10
-4.269746
 20
-36.500001
 30
0.0
 11
-4.269746
 21
-44.499896
 31
0.0
  0
ARC
  8
F08_IMG
  5
5458
 10
-7.669715
 20
-46.900001
 30
0.0
 40
0.9
 50
0.0
 51
180.0
  0
ARC
  8
F08_IMG
  5
5459
 10
-11.269715
 20
-46.900001
 30
0.0
 40
0.9
 50
0.0
 51
180.0
  0
LINE
  8
F08_IMG
  5
545A
 10
-5.269746
 20
-40.000001
 30
0.0
 11
-9.537695
 21
-40.000001
 31
0.0
  0
ARC
  8
F08_IMG
  5
545B
 10
-5.269746
 20
-36.500001
 30
0.0
 40
1.0
 50
0.0
 51
90.0
  0
LINE
  8
F08_IMG
  5
545C
 10
-4.269746
 20
-37.800001
 30
0.0
 11
-5.269746
 21
-38.800001
 31
0.0
  0
LINE
  8
F08_IMG
  5
545D
 10
-2.569746
 20
-50.000001
 30
0.0
 11
2.13027
 21
-50.000001
 31
0.0
  0
LINE
  8
F08_IMG
  5
545E
 10
1.130712
 20
-46.600001
 30
0.0
 11
-1.269746
 21
-46.600001
 31
0.0
  0
ARC
  8
F08_IMG
  5
545F
 10
-1.269746
 20
-46.900001
 30
0.0
 40
0.3
 50
90.0
 51
180.0
  0
ARC
  8
F08_IMG
  5
5460
 10
-1.269746
 20
-47.600001
 30
0.0
 40
0.3
 50
180.0
 51
270.0
  0
LINE
  8
F08_IMG
  5
5461
 10
-0.869517
 20
-47.900001
 30
0.0
 11
-0.869517
 21
-50.000001
 31
0.0
  0
LINE
  8
F08_IMG
  5
5462
 10
-0.869517
 20
-47.900001
 30
0.0
 11
-1.269746
 21
-47.900001
 31
0.0
  0
LINE
  8
F08_IMG
  5
5463
 10
-1.569746
 20
-46.900001
 30
0.0
 11
-1.569746
 21
-47.600001
 31
0.0
  0
LINE
  8
F08_IMG
  5
5464
 10
-3.069746
 20
-46.578357
 30
0.0
 11
-3.069746
 21
-49.500001
 31
0.0
  0
ARC
  8
F08_IMG
  5
5465
 10
-2.569746
 20
-49.500001
 30
0.0
 40
0.5
 50
180.0
 51
270.0
  0
ARC
  8
F08_IMG
  5
5466
 10
1.130712
 20
-46.900001
 30
0.0
 40
0.3
 50
0.0
 51
90.0
  0
ARC
  8
F08_IMG
  5
5467
 10
1.130712
 20
-47.600001
 30
0.0
 40
0.3
 50
270.0
 51
0.0
  0
LINE
  8
F08_IMG
  5
5468
 10
0.730483
 20
-50.000001
 30
0.0
 11
0.730483
 21
-47.900001
 31
0.0
  0
LINE
  8
F08_IMG
  5
5469
 10
0.730483
 20
-47.900001
 30
0.0
 11
1.130712
 21
-47.900001
 31
0.0
  0
LINE
  8
F08_IMG
  5
546A
 10
1.430712
 20
-46.900001
 30
0.0
 11
1.430712
 21
-47.600001
 31
0.0
  0
ARC
  8
F08_IMG
  5
546B
 10
22.231334
 20
-46.100001
 30
0.0
 40
0.5
 50
210.0
 51
270.0
  0
LINE
  8
F08_IMG
  5
546C
 10
25.030254
 20
-47.900001
 30
0.0
 11
20.730254
 21
-47.900001
 31
0.0
  0
LINE
  8
F08_IMG
  5
546D
 10
21.830285
 20
-57.200001
 30
0.0
 11
22.530254
 21
-57.200001
 31
0.0
  0
LINE
  8
F08_IMG
  5
546E
 10
24.230254
 20
-51.40002
 30
0.0
 11
20.730254
 21
-51.40002
 31
0.0
  0
LINE
  8
F08_IMG
  5
546F
 10
21.830254
 20
-55.750001
 30
0.0
 11
26.130254
 21
-55.750001
 31
0.0
  0
LINE
  8
F08_IMG
  5
5470
 10
20.730254
 20
-47.900001
 30
0.0
 11
20.730254
 21
-51.40002
 31
0.0
  0
LINE
  8
F08_IMG
  5
5471
 10
18.230285
 20
-46.900001
 30
0.0
 11
18.230285
 21
-50.600001
 31
0.0
  0
LINE
  8
F08_IMG
  5
5472
 10
16.430285
 20
-46.900001
 30
0.0
 11
16.430285
 21
-50.600001
 31
0.0
  0
LINE
  8
F08_IMG
  5
5473
 10
12.830285
 20
-46.900001
 30
0.0
 11
12.830285
 21
-50.600001
 31
0.0
  0
LINE
  8
F08_IMG
  5
5474
 10
14.630285
 20
-46.900001
 30
0.0
 11
14.630285
 21
-50.600001
 31
0.0
  0
LINE
  8
F08_IMG
  5
5475
 10
11.030285
 20
-46.900001
 30
0.0
 11
11.030285
 21
-50.600001
 31
0.0
  0
LINE
  8
F08_IMG
  5
5476
 10
9.230285
 20
-46.900001
 30
0.0
 11
9.230285
 21
-50.600001
 31
0.0
  0
ARC
  8
F08_IMG
  5
5477
 10
6.23027
 20
-49.700001
 30
0.0
 40
1.0
 50
270.0
 51
0.0
  0
ARC
  8
F08_IMG
  5
5478
 10
6.23027
 20
-49.700001
 30
0.0
 40
1.5
 50
270.0
 51
0.0
  0
ARC
  8
F08_IMG
  5
5479
 10
13.730285
 20
-54.700001
 30
0.0
 40
0.9
 50
0.0
 51
180.0
  0
LINE
  8
F08_IMG
  5
547A
 10
12.830285
 20
-57.200001
 30
0.0
 11
14.630285
 21
-57.200001
 31
0.0
  0
ARC
  8
F08_IMG
  5
547B
 10
13.730285
 20
-50.600001
 30
0.0
 40
0.9
 50
180.0
 51
0.0
  0
LINE
  8
F08_IMG
  5
547C
 10
7.430285
 20
-57.200001
 30
0.0
 11
9.230285
 21
-57.200001
 31
0.0
  0
LINE
  8
F08_IMG
  5
547D
 10
7.430254
 20
-55.800001
 30
0.0
 11
9.230254
 21
-55.800001
 31
0.0
  0
LINE
  8
F08_IMG
  5
547E
 10
7.430285
 20
-54.700001
 30
0.0
 11
7.430285
 21
-59.800001
 31
0.0
  0
LINE
  8
F08_IMG
  5
547F
 10
5.630285
 20
-54.700001
 30
0.0
 11
5.630285
 21
-59.800001
 31
0.0
  0
ARC
  8
F08_IMG
  5
5480
 10
6.530285
 20
-54.700001
 30
0.0
 40
0.9
 50
0.0
 51
180.0
  0
LINE
  8
F08_IMG
  5
5481
 10
5.630285
 20
-57.200001
 30
0.0
 11
7.430285
 21
-57.200001
 31
0.0
  0
LINE
  8
F08_IMG
  5
5482
 10
12.830285
 20
-54.700001
 30
0.0
 11
12.830285
 21
-59.800001
 31
0.0
  0
ARC
  8
F08_IMG
  5
5483
 10
10.130285
 20
-54.700001
 30
0.0
 40
0.9
 50
0.0
 51
180.0
  0
LINE
  8
F08_IMG
  5
5484
 10
9.230285
 20
-57.200001
 30
0.0
 11
11.030285
 21
-57.200001
 31
0.0
  0
LINE
  8
F08_IMG
  5
5485
 10
9.230285
 20
-54.700001
 30
0.0
 11
9.230285
 21
-59.800001
 31
0.0
  0
LINE
  8
F08_IMG
  5
5486
 10
11.030285
 20
-54.700001
 30
0.0
 11
11.030285
 21
-59.800001
 31
0.0
  0
LINE
  8
F08_IMG
  5
5487
 10
11.030285
 20
-57.200001
 30
0.0
 11
12.830285
 21
-57.200001
 31
0.0
  0
LINE
  8
F08_IMG
  5
5488
 10
11.030254
 20
-55.800001
 30
0.0
 11
12.830254
 21
-55.800001
 31
0.0
  0
ARC
  8
F08_IMG
  5
5489
 10
10.130285
 20
-50.600001
 30
0.0
 40
0.9
 50
180.0
 51
0.0
  0
ARC
  8
F08_IMG
  5
548A
 10
17.330285
 20
-54.700001
 30
0.0
 40
0.9
 50
0.0
 51
180.0
  0
LINE
  8
F08_IMG
  5
548B
 10
16.430285
 20
-57.200001
 30
0.0
 11
18.230285
 21
-57.200001
 31
0.0
  0
ARC
  8
F08_IMG
  5
548C
 10
17.330285
 20
-50.600001
 30
0.0
 40
0.9
 50
180.0
 51
0.0
  0
LINE
  8
F08_IMG
  5
548D
 10
16.430285
 20
-54.700001
 30
0.0
 11
16.430285
 21
-59.800001
 31
0.0
  0
LINE
  8
F08_IMG
  5
548E
 10
14.630285
 20
-54.700001
 30
0.0
 11
14.630285
 21
-59.800001
 31
0.0
  0
LINE
  8
F08_IMG
  5
548F
 10
14.630285
 20
-57.200001
 30
0.0
 11
16.430285
 21
-57.200001
 31
0.0
  0
LINE
  8
F08_IMG
  5
5490
 10
14.630254
 20
-55.800001
 30
0.0
 11
16.430254
 21
-55.800001
 31
0.0
  0
ARC
  8
F08_IMG
  5
5491
 10
20.930285
 20
-54.700001
 30
0.0
 40
0.9
 50
0.0
 51
90.0
  0
LINE
  8
F08_IMG
  5
5492
 10
21.830285
 20
-54.700001
 30
0.0
 11
21.830285
 21
-59.800001
 31
0.0
  0
LINE
  8
F08_IMG
  5
5493
 10
18.230285
 20
-57.200001
 30
0.0
 11
20.030285
 21
-57.200001
 31
0.0
  0
LINE
  8
F08_IMG
  5
5494
 10
18.230254
 20
-55.800001
 30
0.0
 11
20.030254
 21
-55.800001
 31
0.0
  0
LINE
  8
F08_IMG
  5
5495
 10
20.030285
 20
-54.700001
 30
0.0
 11
20.030285
 21
-59.800001
 31
0.0
  0
LINE
  8
F08_IMG
  5
5496
 10
18.230285
 20
-54.700001
 30
0.0
 11
18.230285
 21
-59.800001
 31
0.0
  0
ARC
  8
F08_IMG
  5
5497
 10
20.930285
 20
-54.700001
 30
0.0
 40
0.9
 50
90.0
 51
180.0
  0
LINE
  8
F08_IMG
  5
5498
 10
20.030285
 20
-57.200001
 30
0.0
 11
21.830285
 21
-57.200001
 31
0.0
  0
LINE
  8
F08_IMG
  5
5499
 10
16.730254
 20
-37.500001
 30
0.0
 11
10.730254
 21
-37.500001
 31
0.0
  0
LINE
  8
F08_IMG
  5
549A
 10
15.230254
 20
-38.000001
 30
0.0
 11
12.230254
 21
-38.000001
 31
0.0
  0
ARC
  8
F08_IMG
  5
549B
 10
13.730285
 20
-46.900001
 30
0.0
 40
0.9
 50
0.0
 51
180.0
  0
CIRCLE
  8
F08_IMG
  5
549C
 10
13.730254
 20
-41.000001
 30
0.0
 40
2.0
  0
ARC
  8
F08_IMG
  5
549D
 10
13.730254
 20
-41.000001
 30
0.0
 40
2.5
 50
156.421822
 51
23.578178
  0
LINE
  8
F08_IMG
  5
549E
 10
7.730254
 20
-35.500001
 30
0.0
 11
19.730254
 21
-35.500001
 31
0.0
  0
LINE
  8
F08_IMG
  5
549F
 10
19.730254
 20
-38.800001
 30
0.0
 11
7.730254
 21
-38.800001
 31
0.0
  0
LINE
  8
F08_IMG
  5
54A0
 10
7.730254
 20
-40.000001
 30
0.0
 11
6.730254
 21
-41.000001
 31
0.0
  0
LINE
  8
F08_IMG
  5
54A1
 10
6.730254
 20
-36.500001
 30
0.0
 11
6.730254
 21
-44.300001
 31
0.0
  0
ARC
  8
F08_IMG
  5
54A2
 10
7.03027
 20
-44.500001
 30
0.0
 40
0.2
 50
0.0
 51
90.0
  0
ARC
  8
F08_IMG
  5
54A3
 10
7.53027
 20
-44.500001
 30
0.0
 40
0.2
 50
0.0
 51
90.0
  0
LINE
  8
F08_IMG
  5
54A4
 10
7.23027
 20
-49.700001
 30
0.0
 11
7.23027
 21
-44.500001
 31
0.0
  0
LINE
  8
F08_IMG
  5
54A5
 10
7.73027
 20
-49.700001
 30
0.0
 11
7.73027
 21
-44.500001
 31
0.0
  0
LINE
  8
F08_IMG
  5
54A6
 10
5.23027
 20
-44.300001
 30
0.0
 11
7.53027
 21
-44.300001
 31
0.0
  0
ARC
  8
F08_IMG
  5
54A7
 10
10.130285
 20
-46.900001
 30
0.0
 40
0.9
 50
0.0
 51
180.0
  0
LINE
  8
F08_IMG
  5
54A8
 10
11.998203
 20
-40.000001
 30
0.0
 11
7.730254
 21
-40.000001
 31
0.0
  0
ARC
  8
F08_IMG
  5
54A9
 10
7.730254
 20
-36.500001
 30
0.0
 40
1.0
 50
90.0
 51
180.0
  0
LINE
  8
F08_IMG
  5
54AA
 10
7.730254
 20
-38.800001
 30
0.0
 11
6.730254
 21
-37.800001
 31
0.0
  0
LINE
  8
F08_IMG
  5
54AB
 10
12.230254
 20
-38.000001
 30
0.0
 11
12.230254
 21
-37.500001
 31
0.0
  0
LINE
  8
F08_IMG
  5
54AC
 10
10.730254
 20
-37.500001
 30
0.0
 11
10.730254
 21
-35.500001
 31
0.0
  0
LINE
  8
F08_IMG
  5
54AD
 10
20.730254
 20
-36.500001
 30
0.0
 11
20.730254
 21
-44.500001
 31
0.0
  0
LINE
  8
F08_IMG
  5
54AE
 10
19.730254
 20
-40.000001
 30
0.0
 11
20.730254
 21
-41.000001
 31
0.0
  0
ARC
  8
F08_IMG
  5
54AF
 10
17.330285
 20
-46.900001
 30
0.0
 40
0.9
 50
0.0
 51
180.0
  0
LINE
  8
F08_IMG
  5
54B0
 10
20.730224
 20
-44.499949
 30
0.0
 11
21.800915
 21
-46.35444
 31
0.0
  0
LINE
  8
F08_IMG
  5
54B1
 10
19.730254
 20
-40.000001
 30
0.0
 11
15.462305
 21
-40.000001
 31
0.0
  0
LINE
  8
F08_IMG
  5
54B2
 10
16.730254
 20
-37.500001
 30
0.0
 11
16.730254
 21
-35.500001
 31
0.0
  0
LINE
  8
F08_IMG
  5
54B3
 10
15.230254
 20
-38.000001
 30
0.0
 11
15.230254
 21
-37.500001
 31
0.0
  0
ARC
  8
F08_IMG
  5
54B4
 10
19.730254
 20
-36.500001
 30
0.0
 40
1.0
 50
0.0
 51
90.0
  0
LINE
  8
F08_IMG
  5
54B5
 10
20.730254
 20
-37.800001
 30
0.0
 11
19.730254
 21
-38.800001
 31
0.0
  0
LINE
  8
F08_IMG
  5
54B6
 10
25.030254
 20
-50.60002
 30
0.0
 11
25.030254
 21
-47.900001
 31
0.0
  0
LINE
  8
F08_IMG
  5
54B7
 10
26.130254
 20
-57.750001
 30
0.0
 11
26.130254
 21
-46.600001
 31
0.0
  0
LINE
  8
F08_IMG
  5
54B8
 10
24.230254
 20
-49.750002
 30
0.0
 11
24.230254
 21
-51.40002
 31
0.0
  0
ARC
  8
F08_IMG
  5
54B9
 10
24.130254
 20
-57.800001
 30
0.0
 40
2.0
 50
270.0
 51
0.0
  0
LINE
  8
F08_IMG
  5
54BA
 10
23.530254
 20
-53.10002
 30
0.0
 11
23.530254
 21
-56.200001
 31
0.0
  0
LINE
  8
F08_IMG
  5
54BB
 10
23.530254
 20
-53.10002
 30
0.0
 11
24.230254
 21
-52.40002
 31
0.0
  0
LINE
  8
F08_IMG
  5
54BC
 10
24.230254
 20
-51.40002
 30
0.0
 11
24.230254
 21
-52.40002
 31
0.0
  0
ARC
  8
F08_IMG
  5
54BD
 10
22.530254
 20
-56.200001
 30
0.0
 40
1.0
 50
270.0
 51
0.0
  0
LINE
  8
F08_IMG
  5
54BE
 10
24.230254
 20
-51.40002
 30
0.0
 11
25.030254
 21
-50.60002
 31
0.0
  0
LINE
  8
F08_IMG
  5
54BF
 10
24.230254
 20
-46.600001
 30
0.0
 11
24.230254
 21
-49.750002
 31
0.0
  0
LINE
  8
F08_IMG
  5
54C0
 10
26.130254
 20
-46.600001
 30
0.0
 11
22.231334
 21
-46.600001
 31
0.0
  0
LINE
  8
F08_IMG
  5
54C1
 10
5.630254
 20
57.200001
 30
0.0
 11
4.130483
 21
57.200001
 31
0.0
  0
LINE
  8
F08_IMG
  5
54C2
 10
-2.569746
 20
50.000001
 30
0.0
 11
5.030284
 21
50.000001
 31
0.0
  0
LINE
  8
F08_IMG
  5
54C3
 10
-3.169746
 20
55.800001
 30
0.0
 11
5.630254
 21
55.800001
 31
0.0
  0
LINE
  8
F08_IMG
  5
54C4
 10
1.530483
 20
50.000001
 30
0.0
 11
1.530483
 21
56.150001
 31
0.0
  0
LINE
  8
F08_IMG
  5
54C5
 10
3.130483
 20
50.000001
 30
0.0
 11
3.130483
 21
56.150001
 31
0.0
  0
LINE
  8
F08_IMG
  5
54C6
 10
-23.269945
 20
50.000001
 30
0.0
 11
-23.269945
 21
56.150001
 31
0.0
  0
LINE
  8
F08_IMG
  5
54C7
 10
-21.669945
 20
50.000001
 30
0.0
 11
-21.669945
 21
56.150001
 31
0.0
  0
CIRCLE
  8
F08_IMG
  5
54C8
 10
-11.269716
 20
41.000001
 30
0.0
 40
2.0
  0
LINE
  8
F08_IMG
  5
54C9
 10
-17.269716
 20
38.800001
 30
0.0
 11
-5.269716
 21
38.800001
 31
0.0
  0
LINE
  8
F08_IMG
  5
54CA
 10
-5.269746
 20
35.500001
 30
0.0
 11
-17.269716
 21
35.500001
 31
0.0
  0
ARC
  8
F08_IMG
  5
54CB
 10
-11.269716
 20
41.000001
 30
0.0
 40
2.5
 50
336.421822
 51
203.578178
  0
LINE
  8
F08_IMG
  5
54CC
 10
-21.669945
 20
47.900001
 30
0.0
 11
-21.269716
 21
47.900001
 31
0.0
  0
LINE
  8
F08_IMG
  5
54CD
 10
-23.670174
 20
46.600001
 30
0.0
 11
-21.269716
 21
46.600001
 31
0.0
  0
LINE
  8
F08_IMG
  5
54CE
 10
-19.969716
 20
50.000001
 30
0.0
 11
-24.669731
 21
50.000001
 31
0.0
  0
LINE
  8
F08_IMG
  5
54CF
 10
-29.269716
 20
36.500001
 30
0.0
 11
-29.269716
 21
44.300001
 31
0.0
  0
CIRCLE
  8
F08_IMG
  5
54D0
 10
-26.569731
 20
47.500001
 30
0.0
 40
2.0
  0
LINE
  8
F08_IMG
  5
54D1
 10
-24.669731
 20
51.200001
 30
0.0
 11
-28.769731
 21
51.200001
 31
0.0
  0
LINE
  8
F08_IMG
  5
54D2
 10
-24.669731
 20
50.700001
 30
0.0
 11
-28.769731
 21
50.700001
 31
0.0
  0
LINE
  8
F08_IMG
  5
54D3
 10
-25.901095
 20
48.168637
 30
0.0
 11
-27.337393
 21
46.732339
 31
0.0
  0
LINE
  8
F08_IMG
  5
54D4
 10
-26.62831
 20
45.441422
 30
0.0
 11
-27.769731
 21
44.300001
 31
0.0
  0
ARC
  8
F08_IMG
  5
54D5
 10
-28.769731
 20
49.700001
 30
0.0
 40
1.0
 50
90.0
 51
180.0
  0
ARC
  8
F08_IMG
  5
54D6
 10
-29.569731
 20
44.500001
 30
0.0
 40
0.2
 50
180.0
 51
270.0
  0
LINE
  8
F08_IMG
  5
54D7
 10
-29.769731
 20
49.700001
 30
0.0
 11
-29.769731
 21
44.500001
 31
0.0
  0
LINE
  8
F08_IMG
  5
54D8
 10
-27.769731
 20
44.300001
 30
0.0
 11
-30.069731
 21
44.300001
 31
0.0
  0
LINE
  8
F08_IMG
  5
54D9
 10
-27.238368
 20
48.168637
 30
0.0
 11
-25.802069
 21
46.732339
 31
0.0
  0
LINE
  8
F08_IMG
  5
54DA
 10
-21.669945
 20
47.900001
 30
0.0
 11
-21.669945
 21
50.000001
 31
0.0
  0
ARC
  8
F08_IMG
  5
54DB
 10
-23.670174
 20
47.600001
 30
0.0
 40
0.3
 50
90.0
 51
180.0
  0
ARC
  8
F08_IMG
  5
54DC
 10
-23.670174
 20
46.900001
 30
0.0
 40
0.3
 50
180.0
 51
270.0
  0
LINE
  8
F08_IMG
  5
54DD
 10
-23.970174
 20
46.900001
 30
0.0
 11
-23.970174
 21
47.600001
 31
0.0
  0
LINE
  8
F08_IMG
  5
54DE
 10
-23.269945
 20
47.900001
 30
0.0
 11
-23.670174
 21
47.900001
 31
0.0
  0
LINE
  8
F08_IMG
  5
54DF
 10
-23.269945
 20
50.000001
 30
0.0
 11
-23.269945
 21
47.900001
 31
0.0
  0
LINE
  8
F08_IMG
  5
54E0
 10
-24.669731
 20
48.400001
 30
0.0
 11
-24.669731
 21
51.200001
 31
0.0
  0
LINE
  8
F08_IMG
  5
54E1
 10
-18.269716
 20
36.500001
 30
0.0
 11
-18.269716
 21
44.499895
 31
0.0
  0
LINE
  8
F08_IMG
  5
54E2
 10
-17.269716
 20
40.000001
 30
0.0
 11
-13.001767
 21
40.000001
 31
0.0
  0
ARC
  8
F08_IMG
  5
54E3
 10
-17.269716
 20
36.500001
 30
0.0
 40
1.0
 50
180.0
 51
270.0
  0
LINE
  8
F08_IMG
  5
54E4
 10
-17.269716
 20
40.000001
 30
0.0
 11
-18.269716
 21
41.000001
 31
0.0
  0
LINE
  8
F08_IMG
  5
54E5
 10
-18.269716
 20
37.800001
 30
0.0
 11
-17.269716
 21
38.800001
 31
0.0
  0
ARC
  8
F08_IMG
  5
54E6
 10
-19.969716
 20
49.500001
 30
0.0
 40
0.5
 50
0.0
 51
90.0
  0
LINE
  8
F08_IMG
  5
54E7
 10
-19.469716
 20
46.578356
 30
0.0
 11
-19.469716
 21
49.500001
 31
0.0
  0
LINE
  8
F08_IMG
  5
54E8
 10
-18.269716
 20
44.499895
 30
0.0
 11
-19.469716
 21
46.578356
 31
0.0
  0
ARC
  8
F08_IMG
  5
54E9
 10
-21.269716
 20
47.600001
 30
0.0
 40
0.3
 50
0.0
 51
90.0
  0
ARC
  8
F08_IMG
  5
54EA
 10
-21.269716
 20
46.900001
 30
0.0
 40
0.3
 50
270.0
 51
0.0
  0
LINE
  8
F08_IMG
  5
54EB
 10
-20.969716
 20
46.900001
 30
0.0
 11
-20.969716
 21
47.600001
 31
0.0
  0
LINE
  8
F08_IMG
  5
54EC
 10
-13.969746
 20
46.900001
 30
0.0
 11
-13.969746
 21
50.600001
 31
0.0
  0
LINE
  8
F08_IMG
  5
54ED
 10
-15.769746
 20
46.900001
 30
0.0
 11
-15.769746
 21
50.600001
 31
0.0
  0
ARC
  8
F08_IMG
  5
54EE
 10
-14.869746
 20
50.600001
 30
0.0
 40
0.9
 50
0.0
 51
180.0
  0
ARC
  8
F08_IMG
  5
54EF
 10
-14.869746
 20
46.900001
 30
0.0
 40
0.9
 50
180.0
 51
0.0
  0
LINE
  8
F08_IMG
  5
54F0
 10
-4.269746
 20
44.499895
 30
0.0
 11
-3.069746
 21
46.578356
 31
0.0
  0
LINE
  8
F08_IMG
  5
54F1
 10
-4.269746
 20
36.500001
 30
0.0
 11
-4.269746
 21
44.499895
 31
0.0
  0
LINE
  8
F08_IMG
  5
54F2
 10
-9.537665
 20
40.000001
 30
0.0
 11
-5.269716
 21
40.000001
 31
0.0
  0
ARC
  8
F08_IMG
  5
54F3
 10
-5.269746
 20
36.500001
 30
0.0
 40
1.0
 50
270.0
 51
0.0
  0
LINE
  8
F08_IMG
  5
54F4
 10
-5.269716
 20
40.000001
 30
0.0
 11
-4.269716
 21
41.000001
 31
0.0
  0
LINE
  8
F08_IMG
  5
54F5
 10
-5.269716
 20
38.800001
 30
0.0
 11
-4.269716
 21
37.800001
 31
0.0
  0
ARC
  8
F08_IMG
  5
54F6
 10
-7.669746
 20
50.600001
 30
0.0
 40
0.9
 50
0.0
 51
180.0
  0
ARC
  8
F08_IMG
  5
54F7
 10
-7.669746
 20
46.900001
 30
0.0
 40
0.9
 50
180.0
 51
0.0
  0
LINE
  8
F08_IMG
  5
54F8
 10
-10.369746
 20
46.900001
 30
0.0
 11
-10.369746
 21
50.600001
 31
0.0
  0
LINE
  8
F08_IMG
  5
54F9
 10
-8.569746
 20
46.900001
 30
0.0
 11
-8.569746
 21
50.600001
 31
0.0
  0
LINE
  8
F08_IMG
  5
54FA
 10
-12.169746
 20
46.900001
 30
0.0
 11
-12.169746
 21
50.600001
 31
0.0
  0
ARC
  8
F08_IMG
  5
54FB
 10
-11.269746
 20
46.900001
 30
0.0
 40
0.9
 50
180.0
 51
0.0
  0
ARC
  8
F08_IMG
  5
54FC
 10
-11.269746
 20
50.600001
 30
0.0
 40
0.9
 50
0.0
 51
180.0
  0
LINE
  8
F08_IMG
  5
54FD
 10
-6.769746
 20
46.900001
 30
0.0
 11
-6.769746
 21
50.600001
 31
0.0
  0
LINE
  8
F08_IMG
  5
54FE
 10
-3.069746
 20
46.578356
 30
0.0
 11
-3.069746
 21
49.500001
 31
0.0
  0
ARC
  8
F08_IMG
  5
54FF
 10
-2.569746
 20
49.500001
 30
0.0
 40
0.5
 50
90.0
 51
180.0
  0
ARC
  8
F08_IMG
  5
5500
 10
3.530711
 20
47.600001
 30
0.0
 40
0.3
 50
0.0
 51
90.0
  0
ARC
  8
F08_IMG
  5
5501
 10
3.530711
 20
46.900001
 30
0.0
 40
0.3
 50
270.0
 51
0.0
  0
LINE
  8
F08_IMG
  5
5502
 10
3.830711
 20
46.900001
 30
0.0
 11
3.830711
 21
47.600001
 31
0.0
  0
ARC
  8
F08_IMG
  5
5503
 10
1.130254
 20
46.900001
 30
0.0
 40
0.3
 50
180.0
 51
270.0
  0
ARC
  8
F08_IMG
  5
5504
 10
1.130254
 20
47.600001
 30
0.0
 40
0.3
 50
90.0
 51
180.0
  0
LINE
  8
F08_IMG
  5
5505
 10
3.130483
 20
47.900001
 30
0.0
 11
3.130483
 21
50.000001
 31
0.0
  0
LINE
  8
F08_IMG
  5
5506
 10
1.530483
 20
47.900001
 30
0.0
 11
1.530483
 21
50.000001
 31
0.0
  0
LINE
  8
F08_IMG
  5
5507
 10
0.830254
 20
46.900001
 30
0.0
 11
0.830254
 21
47.600001
 31
0.0
  0
LINE
  8
F08_IMG
  5
5508
 10
1.530483
 20
47.900001
 30
0.0
 11
1.130254
 21
47.900001
 31
0.0
  0
LINE
  8
F08_IMG
  5
5509
 10
3.130483
 20
47.900001
 30
0.0
 11
3.530711
 21
47.900001
 31
0.0
  0
LINE
  8
F08_IMG
  5
550A
 10
3.530711
 20
46.600001
 30
0.0
 11
1.130254
 21
46.600001
 31
0.0
  0
LINE
  8
F08_IMG
  5
550B
 10
-12.169746
 20
57.200001
 30
0.0
 11
-13.969746
 21
57.200001
 31
0.0
  0
LINE
  8
F08_IMG
  5
550C
 10
-12.169716
 20
55.800001
 30
0.0
 11
-13.969716
 21
55.800001
 31
0.0
  0
ARC
  8
F08_IMG
  5
550D
 10
-20.669945
 20
56.150001
 30
0.0
 40
1.0
 50
90.0
 51
180.0
  0
LINE
  8
F08_IMG
  5
550E
 10
-19.369716
 20
55.800001
 30
0.0
 11
-28.169716
 21
55.800001
 31
0.0
  0
LINE
  8
F08_IMG
  5
550F
 10
-24.269945
 20
57.200001
 30
0.0
 11
-28.169746
 21
57.200001
 31
0.0
  0
LINE
  8
F08_IMG
  5
5510
 10
-28.169746
 20
54.700001
 30
0.0
 11
-28.169746
 21
59.800001
 31
0.0
  0
LINE
  8
F08_IMG
  5
5511
 10
-29.969746
 20
54.700001
 30
0.0
 11
-29.969746
 21
59.800001
 31
0.0
  0
ARC
  8
F08_IMG
  5
5512
 10
-29.069746
 20
54.700001
 30
0.0
 40
0.9
 50
180.0
 51
0.0
  0
LINE
  8
F08_IMG
  5
5513
 10
-28.169746
 20
57.200001
 30
0.0
 11
-29.969746
 21
57.200001
 31
0.0
  0
ARC
  8
F08_IMG
  5
5514
 10
-24.269945
 20
56.150001
 30
0.0
 40
1.0
 50
0.0
 51
90.0
  0
LINE
  8
F08_IMG
  5
5515
 10
-15.769746
 20
57.200001
 30
0.0
 11
-17.569746
 21
57.200001
 31
0.0
  0
LINE
  8
F08_IMG
  5
5516
 10
-15.769716
 20
55.800001
 30
0.0
 11
-17.569716
 21
55.800001
 31
0.0
  0
ARC
  8
F08_IMG
  5
5517
 10
-18.469746
 20
54.700001
 30
0.0
 40
0.9
 50
180.0
 51
0.0
  0
LINE
  8
F08_IMG
  5
5518
 10
-19.369746
 20
54.700001
 30
0.0
 11
-19.369746
 21
59.800001
 31
0.0
  0
LINE
  8
F08_IMG
  5
5519
 10
-17.569746
 20
54.700001
 30
0.0
 11
-17.569746
 21
59.800001
 31
0.0
  0
LINE
  8
F08_IMG
  5
551A
 10
-17.569746
 20
57.200001
 30
0.0
 11
-19.369746
 21
57.200001
 31
0.0
  0
LINE
  8
F08_IMG
  5
551B
 10
-19.369746
 20
57.200001
 30
0.0
 11
-20.669945
 21
57.200001
 31
0.0
  0
LINE
  8
F08_IMG
  5
551C
 10
-13.969746
 20
54.700001
 30
0.0
 11
-13.969746
 21
59.800001
 31
0.0
  0
LINE
  8
F08_IMG
  5
551D
 10
-15.769746
 20
54.700001
 30
0.0
 11
-15.769746
 21
59.800001
 31
0.0
  0
ARC
  8
F08_IMG
  5
551E
 10
-14.869746
 20
54.700001
 30
0.0
 40
0.9
 50
180.0
 51
0.0
  0
LINE
  8
F08_IMG
  5
551F
 10
-13.969746
 20
57.200001
 30
0.0
 11
-15.769746
 21
57.200001
 31
0.0
  0
ARC
  8
F08_IMG
  5
5520
 10
-4.069746
 20
54.700001
 30
0.0
 40
0.9
 50
180.0
 51
0.0
  0
LINE
  8
F08_IMG
  5
5521
 10
-3.169746
 20
57.200001
 30
0.0
 11
-4.969746
 21
57.200001
 31
0.0
  0
ARC
  8
F08_IMG
  5
5522
 10
-7.669746
 20
54.700001
 30
0.0
 40
0.9
 50
180.0
 51
0.0
  0
LINE
  8
F08_IMG
  5
5523
 10
-6.769746
 20
57.200001
 30
0.0
 11
-8.569746
 21
57.200001
 31
0.0
  0
LINE
  8
F08_IMG
  5
5524
 10
-8.569746
 20
57.200001
 30
0.0
 11
-10.369746
 21
57.200001
 31
0.0
  0
LINE
  8
F08_IMG
  5
5525
 10
-8.569746
 20
54.700001
 30
0.0
 11
-8.569746
 21
59.800001
 31
0.0
  0
LINE
  8
F08_IMG
  5
5526
 10
-10.369746
 20
54.700001
 30
0.0
 11
-10.369746
 21
59.800001
 31
0.0
  0
LINE
  8
F08_IMG
  5
5527
 10
-10.369746
 20
55.800001
 30
0.0
 11
-8.569746
 21
55.800001
 31
0.0
  0
LINE
  8
F08_IMG
  5
5528
 10
-12.169746
 20
54.700001
 30
0.0
 11
-12.169746
 21
59.800001
 31
0.0
  0
ARC
  8
F08_IMG
  5
5529
 10
-11.269746
 20
54.700001
 30
0.0
 40
0.9
 50
180.0
 51
0.0
  0
LINE
  8
F08_IMG
  5
552A
 10
-10.369746
 20
57.200001
 30
0.0
 11
-12.169746
 21
57.200001
 31
0.0
  0
LINE
  8
F08_IMG
  5
552B
 10
-4.969746
 20
54.700001
 30
0.0
 11
-4.969746
 21
59.800001
 31
0.0
  0
LINE
  8
F08_IMG
  5
552C
 10
-6.769746
 20
54.700001
 30
0.0
 11
-6.769746
 21
59.800001
 31
0.0
  0
LINE
  8
F08_IMG
  5
552D
 10
-4.969746
 20
57.200001
 30
0.0
 11
-6.769746
 21
57.200001
 31
0.0
  0
LINE
  8
F08_IMG
  5
552E
 10
-6.769746
 20
55.800001
 30
0.0
 11
-4.969746
 21
55.800001
 31
0.0
  0
LINE
  8
F08_IMG
  5
552F
 10
0.530483
 20
57.200001
 30
0.0
 11
-3.169746
 21
57.200001
 31
0.0
  0
LINE
  8
F08_IMG
  5
5530
 10
-3.169746
 20
54.700001
 30
0.0
 11
-3.169746
 21
59.800001
 31
0.0
  0
ARC
  8
F08_IMG
  5
5531
 10
0.530483
 20
56.150001
 30
0.0
 40
1.0
 50
0.0
 51
90.0
  0
ARC
  8
F08_IMG
  5
5532
 10
4.130483
 20
56.150001
 30
0.0
 40
1.0
 50
90.0
 51
180.0
  0
LINE
  8
F08_IMG
  5
5533
 10
24.230254
 20
51.400019
 30
0.0
 11
24.230254
 21
52.400019
 31
0.0
  0
LINE
  8
F08_IMG
  5
5534
 10
26.130254
 20
57.750001
 30
0.0
 11
26.130254
 21
46.600001
 31
0.0
  0
ARC
  8
F08_IMG
  5
5535
 10
22.231395
 20
46.100001
 30
0.0
 40
0.5
 50
90.0
 51
150.0
  0
LINE
  8
F08_IMG
  5
5536
 10
24.230254
 20
51.400019
 30
0.0
 11
20.730254
 21
51.400019
 31
0.0
  0
LINE
  8
F08_IMG
  5
5537
 10
25.030254
 20
47.900001
 30
0.0
 11
20.730254
 21
47.900001
 31
0.0
  0
ARC
  8
F08_IMG
  5
5538
 10
13.730254
 20
46.900001
 30
0.0
 40
0.9
 50
180.0
 51
270.0
  0
ARC
  8
F08_IMG
  5
5539
 10
13.730254
 20
50.600001
 30
0.0
 40
0.9
 50
90.0
 51
180.0
  0
CIRCLE
  8
F08_IMG
  5
553A
 10
13.730254
 20
41.000001
 30
0.0
 40
2.0
  0
LINE
  8
F08_IMG
  5
553B
 10
7.730254
 20
35.500001
 30
0.0
 11
19.730254
 21
35.500001
 31
0.0
  0
LINE
  8
F08_IMG
  5
553C
 10
7.730254
 20
38.800001
 30
0.0
 11
19.730254
 21
38.800001
 31
0.0
  0
ARC
  8
F08_IMG
  5
553D
 10
13.730254
 20
41.000001
 30
0.0
 40
2.5
 50
336.421822
 51
203.578178
  0
LINE
  8
F08_IMG
  5
553E
 10
6.730254
 20
36.500001
 30
0.0
 11
6.730254
 21
44.500001
 31
0.0
  0
LINE
  8
F08_IMG
  5
553F
 10
7.730254
 20
40.000001
 30
0.0
 11
11.998203
 21
40.000001
 31
0.0
  0
ARC
  8
F08_IMG
  5
5540
 10
7.730254
 20
36.500001
 30
0.0
 40
1.0
 50
180.0
 51
270.0
  0
LINE
  8
F08_IMG
  5
5541
 10
7.730254
 20
40.000001
 30
0.0
 11
6.730254
 21
41.000001
 31
0.0
  0
LINE
  8
F08_IMG
  5
5542
 10
6.730254
 20
37.800001
 30
0.0
 11
7.730254
 21
38.800001
 31
0.0
  0
ARC
  8
F08_IMG
  5
5543
 10
5.030284
 20
49.500001
 30
0.0
 40
0.5
 50
0.0
 51
90.0
  0
LINE
  8
F08_IMG
  5
5544
 10
5.530284
 20
46.578409
 30
0.0
 11
5.530284
 21
49.500001
 31
0.0
  0
LINE
  8
F08_IMG
  5
5545
 10
6.730284
 20
44.499948
 30
0.0
 11
5.530284
 21
46.578409
 31
0.0
  0
LINE
  8
F08_IMG
  5
5546
 10
12.830254
 20
46.900001
 30
0.0
 11
12.830254
 21
50.600001
 31
0.0
  0
ARC
  8
F08_IMG
  5
5547
 10
10.130254
 20
50.600001
 30
0.0
 40
0.9
 50
0.0
 51
180.0
  0
ARC
  8
F08_IMG
  5
5548
 10
10.130254
 20
46.900001
 30
0.0
 40
0.9
 50
180.0
 51
0.0
  0
LINE
  8
F08_IMG
  5
5549
 10
11.030254
 20
46.900001
 30
0.0
 11
11.030254
 21
50.600001
 31
0.0
  0
LINE
  8
F08_IMG
  5
554A
 10
9.230254
 20
46.900001
 30
0.0
 11
9.230254
 21
50.600001
 31
0.0
  0
LINE
  8
F08_IMG
  5
554B
 10
20.730254
 20
36.500001
 30
0.0
 11
20.730254
 21
44.499948
 31
0.0
  0
LINE
  8
F08_IMG
  5
554C
 10
15.462304
 20
40.000001
 30
0.0
 11
19.730254
 21
40.000001
 31
0.0
  0
ARC
  8
F08_IMG
  5
554D
 10
19.730254
 20
36.500001
 30
0.0
 40
1.0
 50
270.0
 51
0.0
  0
LINE
  8
F08_IMG
  5
554E
 10
19.730254
 20
40.000001
 30
0.0
 11
20.730254
 21
41.000001
 31
0.0
  0
LINE
  8
F08_IMG
  5
554F
 10
19.730254
 20
38.800001
 30
0.0
 11
20.730254
 21
37.800001
 31
0.0
  0
ARC
  8
F08_IMG
  5
5550
 10
17.330254
 20
50.600001
 30
0.0
 40
0.9
 50
0.0
 51
90.0
  0
ARC
  8
F08_IMG
  5
5551
 10
17.330254
 20
46.900001
 30
0.0
 40
0.9
 50
270.0
 51
0.0
  0
ARC
  8
F08_IMG
  5
5552
 10
17.330254
 20
46.900001
 30
0.0
 40
0.9
 50
180.0
 51
270.0
  0
ARC
  8
F08_IMG
  5
5553
 10
17.330254
 20
50.600001
 30
0.0
 40
0.9
 50
90.0
 51
180.0
  0
LINE
  8
F08_IMG
  5
5554
 10
16.430254
 20
46.900001
 30
0.0
 11
16.430254
 21
50.600001
 31
0.0
  0
LINE
  8
F08_IMG
  5
5555
 10
14.630254
 20
46.900001
 30
0.0
 11
14.630254
 21
50.600001
 31
0.0
  0
ARC
  8
F08_IMG
  5
5556
 10
13.730254
 20
50.600001
 30
0.0
 40
0.9
 50
0.0
 51
90.0
  0
ARC
  8
F08_IMG
  5
5557
 10
13.730254
 20
46.900001
 30
0.0
 40
0.9
 50
270.0
 51
0.0
  0
LINE
  8
F08_IMG
  5
5558
 10
20.730254
 20
47.900001
 30
0.0
 11
20.730254
 21
51.400019
 31
0.0
  0
LINE
  8
F08_IMG
  5
5559
 10
21.798382
 20
46.350001
 30
0.0
 11
20.730254
 21
44.499948
 31
0.0
  0
LINE
  8
F08_IMG
  5
555A
 10
18.230254
 20
46.900001
 30
0.0
 11
18.230254
 21
50.600001
 31
0.0
  0
LINE
  8
F08_IMG
  5
555B
 10
24.230254
 20
46.600001
 30
0.0
 11
24.230254
 21
49.750001
 31
0.0
  0
LINE
  8
F08_IMG
  5
555C
 10
24.230254
 20
49.750001
 30
0.0
 11
24.230254
 21
51.400019
 31
0.0
  0
LINE
  8
F08_IMG
  5
555D
 10
25.030254
 20
50.600019
 30
0.0
 11
25.030254
 21
47.900001
 31
0.0
  0
LINE
  8
F08_IMG
  5
555E
 10
24.230254
 20
51.400019
 30
0.0
 11
25.030254
 21
50.600019
 31
0.0
  0
LINE
  8
F08_IMG
  5
555F
 10
26.130254
 20
46.600001
 30
0.0
 11
22.231395
 21
46.600001
 31
0.0
  0
LINE
  8
F08_IMG
  5
5560
 10
22.530254
 20
57.200001
 30
0.0
 11
21.830254
 21
57.200001
 31
0.0
  0
LINE
  8
F08_IMG
  5
5561
 10
21.830254
 20
55.800001
 30
0.0
 11
26.130254
 21
55.800001
 31
0.0
  0
ARC
  8
F08_IMG
  5
5562
 10
13.730254
 20
54.700001
 30
0.0
 40
0.9
 50
180.0
 51
270.0
  0
LINE
  8
F08_IMG
  5
5563
 10
14.630254
 20
57.200001
 30
0.0
 11
12.830254
 21
57.200001
 31
0.0
  0
LINE
  8
F08_IMG
  5
5564
 10
9.230254
 20
57.200001
 30
0.0
 11
7.430254
 21
57.200001
 31
0.0
  0
LINE
  8
F08_IMG
  5
5565
 10
7.430254
 20
55.800001
 30
0.0
 11
9.230254
 21
55.800001
 31
0.0
  0
LINE
  8
F08_IMG
  5
5566
 10
7.430254
 20
54.700001
 30
0.0
 11
7.430254
 21
59.800001
 31
0.0
  0
LINE
  8
F08_IMG
  5
5567
 10
5.630254
 20
54.700001
 30
0.0
 11
5.630254
 21
59.800001
 31
0.0
  0
ARC
  8
F08_IMG
  5
5568
 10
6.530254
 20
54.700001
 30
0.0
 40
0.9
 50
180.0
 51
0.0
  0
LINE
  8
F08_IMG
  5
5569
 10
7.430254
 20
57.200001
 30
0.0
 11
5.630254
 21
57.200001
 31
0.0
  0
LINE
  8
F08_IMG
  5
556A
 10
12.830254
 20
54.700001
 30
0.0
 11
12.830254
 21
59.800001
 31
0.0
  0
ARC
  8
F08_IMG
  5
556B
 10
10.130254
 20
54.700001
 30
0.0
 40
0.9
 50
180.0
 51
0.0
  0
LINE
  8
F08_IMG
  5
556C
 10
11.030254
 20
54.700001
 30
0.0
 11
11.030254
 21
59.800001
 31
0.0
  0
LINE
  8
F08_IMG
  5
556D
 10
9.230254
 20
54.700001
 30
0.0
 11
9.230254
 21
59.800001
 31
0.0
  0
LINE
  8
F08_IMG
  5
556E
 10
11.030254
 20
57.200001
 30
0.0
 11
9.230254
 21
57.200001
 31
0.0
  0
LINE
  8
F08_IMG
  5
556F
 10
12.830254
 20
57.200001
 30
0.0
 11
11.030254
 21
57.200001
 31
0.0
  0
LINE
  8
F08_IMG
  5
5570
 10
11.030254
 20
55.800001
 30
0.0
 11
12.830254
 21
55.800001
 31
0.0
  0
ARC
  8
F08_IMG
  5
5571
 10
17.330254
 20
54.700001
 30
0.0
 40
0.9
 50
180.0
 51
0.0
  0
LINE
  8
F08_IMG
  5
5572
 10
18.230254
 20
57.200001
 30
0.0
 11
16.430254
 21
57.200001
 31
0.0
  0
LINE
  8
F08_IMG
  5
5573
 10
16.430254
 20
54.700001
 30
0.0
 11
16.430254
 21
59.800001
 31
0.0
  0
LINE
  8
F08_IMG
  5
5574
 10
14.630254
 20
54.700001
 30
0.0
 11
14.630254
 21
59.800001
 31
0.0
  0
ARC
  8
F08_IMG
  5
5575
 10
13.730254
 20
54.700001
 30
0.0
 40
0.9
 50
270.0
 51
0.0
  0
LINE
  8
F08_IMG
  5
5576
 10
16.430254
 20
57.200001
 30
0.0
 11
14.630254
 21
57.200001
 31
0.0
  0
LINE
  8
F08_IMG
  5
5577
 10
14.630254
 20
55.800001
 30
0.0
 11
16.430254
 21
55.800001
 31
0.0
  0
LINE
  8
F08_IMG
  5
5578
 10
21.830254
 20
54.700001
 30
0.0
 11
21.830254
 21
59.800001
 31
0.0
  0
LINE
  8
F08_IMG
  5
5579
 10
20.030254
 20
57.200001
 30
0.0
 11
18.230254
 21
57.200001
 31
0.0
  0
LINE
  8
F08_IMG
  5
557A
 10
18.230254
 20
54.700001
 30
0.0
 11
18.230254
 21
59.800001
 31
0.0
  0
LINE
  8
F08_IMG
  5
557B
 10
18.230254
 20
55.800001
 30
0.0
 11
20.030254
 21
55.800001
 31
0.0
  0
LINE
  8
F08_IMG
  5
557C
 10
20.030254
 20
54.700001
 30
0.0
 11
20.030254
 21
59.800001
 31
0.0
  0
ARC
  8
F08_IMG
  5
557D
 10
20.930254
 20
54.700001
 30
0.0
 40
0.9
 50
180.0
 51
0.0
  0
LINE
  8
F08_IMG
  5
557E
 10
21.830254
 20
57.200001
 30
0.0
 11
20.030254
 21
57.200001
 31
0.0
  0
ARC
  8
F08_IMG
  5
557F
 10
24.130254
 20
57.800001
 30
0.0
 40
2.0
 50
0.0
 51
90.0
  0
LINE
  8
F08_IMG
  5
5580
 10
23.530254
 20
53.100019
 30
0.0
 11
24.230254
 21
52.400019
 31
0.0
  0
LINE
  8
F08_IMG
  5
5581
 10
23.530254
 20
53.100019
 30
0.0
 11
23.530254
 21
56.200001
 31
0.0
  0
ARC
  8
F08_IMG
  5
5582
 10
22.530254
 20
56.200001
 30
0.0
 40
1.0
 50
0.0
 51
90.0
  0
LINE
  8
F08_IMG
  5
5583
 10
173.634383
 20
-57.200001
 30
0.0
 11
127.711338
 21
-57.200001
 31
0.0
  0
LINE
  8
F08_IMG
  5
5584
 10
173.634383
 20
-59.800001
 30
0.0
 11
126.634383
 21
-59.800001
 31
0.0
  0
LINE
  8
F08_IMG
  5
5585
 10
166.134863
 20
-46.600001
 30
0.0
 11
122.634383
 21
-46.600001
 31
0.0
  0
LINE
  8
F08_IMG
  5
5586
 10
125.134383
 20
-49.749941
 30
0.0
 11
125.134383
 21
-54.623046
 31
0.0
  0
LINE
  8
F08_IMG
  5
5587
 10
121.134383
 20
-44.300001
 30
0.0
 11
121.134383
 21
-50.700001
 31
0.0
  0
LINE
  8
F08_IMG
  5
5588
 10
122.634383
 20
-40.000001
 30
0.0
 11
122.634383
 21
-55.800001
 31
0.0
  0
LINE
  8
F08_IMG
  5
5589
 10
122.634383
 20
-55.800001
 30
0.0
 11
126.634383
 21
-59.800001
 31
0.0
  0
LINE
  8
F08_IMG
  5
558A
 10
121.134383
 20
-50.700001
 30
0.0
 11
122.634383
 21
-51.200001
 31
0.0
  0
LINE
  8
F08_IMG
  5
558B
 10
125.134383
 20
-54.623046
 30
0.0
 11
127.711338
 21
-57.200001
 31
0.0
  0
LINE
  8
F08_IMG
  5
558C
 10
122.634383
 20
-38.800001
 30
0.0
 11
123.134383
 21
-38.800001
 31
0.0
  0
LINE
  8
F08_IMG
  5
558D
 10
122.634383
 20
-40.000001
 30
0.0
 11
123.134383
 21
-40.000001
 31
0.0
  0
LINE
  8
F08_IMG
  5
558F
 10
121.134383
 20
-45.500001
 30
0.0
 11
120.034383
 21
-45.500001
 31
0.0
  0
LINE
  8
F08_IMG
  5
5590
 10
121.134383
 20
-49.500001
 30
0.0
 11
120.034383
 21
-49.500001
 31
0.0
  0
LINE
  8
F08_IMG
  5
5591
 10
121.134383
 20
-45.441423
 30
0.0
 11
122.634383
 21
-45.441423
 31
0.0
  0
LINE
  8
F08_IMG
  5
5592
 10
121.134383
 20
-44.300001
 30
0.0
 11
122.634383
 21
-44.300001
 31
0.0
  0
LINE
  8
F08_IMG
  5
5593
 10
119.034383
 20
-48.500001
 30
0.0
 11
119.034383
 21
-46.500001
 31
0.0
  0
ARC
  8
F08_IMG
  5
5594
 10
120.034383
 20
-46.500001
 30
0.0
 40
1.0
 50
90.0
 51
180.0
  0
ARC
  8
F08_IMG
  5
5595
 10
120.034383
 20
-48.500001
 30
0.0
 40
1.0
 50
180.0
 51
270.0
  0
LINE
  8
F08_IMG
  5
5596
 10
122.634383
 20
-35.500001
 30
0.0
 11
122.634383
 21
-38.800001
 31
0.0
  0
LINE
  8
F08_IMG
  5
5597
 10
125.134383
 20
-46.600001
 30
0.0
 11
125.134383
 21
-40.000001
 31
0.0
  0
LINE
  8
F08_IMG
  5
5598
 10
125.134383
 20
-49.749941
 30
0.0
 11
125.134383
 21
-46.600001
 31
0.0
  0
LINE
  8
F08_IMG
  5
5599
 10
124.334383
 20
-38.800001
 30
0.0
 11
125.134383
 21
-38.800001
 31
0.0
  0
LINE
  8
F08_IMG
  5
559A
 10
124.334383
 20
-40.000001
 30
0.0
 11
124.334383
 21
-38.800001
 31
0.0
  0
LINE
  8
F08_IMG
  5
559B
 10
123.134383
 20
-40.000001
 30
0.0
 11
123.134383
 21
-38.800001
 31
0.0
  0
LINE
  8
F08_IMG
  5
559C
 10
124.334383
 20
-40.000001
 30
0.0
 11
125.134383
 21
-40.000001
 31
0.0
  0
LINE
  8
F08_IMG
  5
559D
 10
166.134863
 20
-46.600001
 30
0.0
 11
167.134863
 21
-47.600001
 31
0.0
  0
LINE
  8
F08_IMG
  5
559E
 10
173.634383
 20
-59.800001
 30
0.0
 11
173.634383
 21
-49.600001
 31
0.0
  0
LINE
  8
F08_IMG
  5
559F
 10
171.634383
 20
-47.600001
 30
0.0
 11
167.134863
 21
-47.600001
 31
0.0
  0
ARC
  8
F08_IMG
  5
55A0
 10
171.634383
 20
-49.600001
 30
0.0
 40
2.0
 50
0.0
 51
90.0
  0
LINE
  8
F08_IMG
  5
55A1
 10
173.634383
 20
57.200001
 30
0.0
 11
127.711338
 21
57.200001
 31
0.0
  0
LINE
  8
F08_IMG
  5
55A2
 10
166.134863
 20
46.600001
 30
0.0
 11
122.634383
 21
46.600001
 31
0.0
  0
LINE
  8
F08_IMG
  5
55A3
 10
173.634383
 20
59.800001
 30
0.0
 11
126.634383
 21
59.800001
 31
0.0
  0
LINE
  8
F08_IMG
  5
55A4
 10
125.134383
 20
49.750062
 30
0.0
 11
125.134383
 21
54.623045
 31
0.0
  0
LINE
  8
F08_IMG
  5
55A5
 10
122.634383
 20
40.000001
 30
0.0
 11
122.634383
 21
55.800001
 31
0.0
  0
LINE
  8
F08_IMG
  5
55A6
 10
122.634383
 20
40.000001
 30
0.0
 11
123.134383
 21
40.000001
 31
0.0
  0
LINE
  8
F08_IMG
  5
55A7
 10
122.634383
 20
38.800001
 30
0.0
 11
123.134383
 21
38.800001
 31
0.0
  0
LINE
  8
F08_IMG
  5
55A9
 10
122.634383
 20
35.500001
 30
0.0
 11
122.634383
 21
38.800001
 31
0.0
  0
LINE
  8
F08_IMG
  5
55AA
 10
121.134383
 20
49.500001
 30
0.0
 11
120.034383
 21
49.500001
 31
0.0
  0
LINE
  8
F08_IMG
  5
55AB
 10
121.134383
 20
45.500001
 30
0.0
 11
120.034383
 21
45.500001
 31
0.0
  0
LINE
  8
F08_IMG
  5
55AC
 10
121.134383
 20
44.300001
 30
0.0
 11
121.134383
 21
50.700001
 31
0.0
  0
LINE
  8
F08_IMG
  5
55AD
 10
121.134383
 20
50.700001
 30
0.0
 11
122.634383
 21
51.200001
 31
0.0
  0
LINE
  8
F08_IMG
  5
55AE
 10
121.134383
 20
44.300001
 30
0.0
 11
122.634383
 21
44.300001
 31
0.0
  0
LINE
  8
F08_IMG
  5
55AF
 10
121.134383
 20
45.441422
 30
0.0
 11
122.634383
 21
45.441422
 31
0.0
  0
LINE
  8
F08_IMG
  5
55B0
 10
119.034383
 20
48.500001
 30
0.0
 11
119.034383
 21
46.500001
 31
0.0
  0
ARC
  8
F08_IMG
  5
55B1
 10
120.034383
 20
48.500001
 30
0.0
 40
1.0
 50
90.0
 51
180.0
  0
ARC
  8
F08_IMG
  5
55B2
 10
120.034383
 20
46.500001
 30
0.0
 40
1.0
 50
180.0
 51
270.0
  0
LINE
  8
F08_IMG
  5
55B3
 10
125.134383
 20
46.600001
 30
0.0
 11
125.134383
 21
40.000001
 31
0.0
  0
LINE
  8
F08_IMG
  5
55B4
 10
124.334383
 20
40.000001
 30
0.0
 11
125.134383
 21
40.000001
 31
0.0
  0
LINE
  8
F08_IMG
  5
55B5
 10
123.134383
 20
40.000001
 30
0.0
 11
123.134383
 21
38.800001
 31
0.0
  0
LINE
  8
F08_IMG
  5
55B6
 10
124.334383
 20
40.000001
 30
0.0
 11
124.334383
 21
38.800001
 31
0.0
  0
LINE
  8
F08_IMG
  5
55B7
 10
124.334383
 20
38.800001
 30
0.0
 11
125.134383
 21
38.800001
 31
0.0
  0
LINE
  8
F08_IMG
  5
55B8
 10
125.134383
 20
49.750062
 30
0.0
 11
125.134383
 21
46.600001
 31
0.0
  0
LINE
  8
F08_IMG
  5
55B9
 10
122.634383
 20
55.800001
 30
0.0
 11
126.634383
 21
59.800001
 31
0.0
  0
LINE
  8
F08_IMG
  5
55BA
 10
125.134383
 20
54.623045
 30
0.0
 11
127.711338
 21
57.200001
 31
0.0
  0
LINE
  8
F08_IMG
  5
55BB
 10
173.634383
 20
59.800001
 30
0.0
 11
173.634383
 21
49.600001
 31
0.0
  0
LINE
  8
F08_IMG
  5
55BC
 10
166.134863
 20
46.600001
 30
0.0
 11
167.134863
 21
47.600001
 31
0.0
  0
LINE
  8
F08_IMG
  5
55BD
 10
171.634383
 20
47.600001
 30
0.0
 11
167.134863
 21
47.600001
 31
0.0
  0
ARC
  8
F08_IMG
  5
55BE
 10
171.634383
 20
49.600001
 30
0.0
 40
2.0
 50
270.0
 51
0.0
  0
LINE
  8
F08_IMG
  5
55BF
 10
125.134383
 20
38.800001
 30
0.0
 11
125.134383
 21
35.500001
 31
0.0
  0
LINE
  8
F08_IMG
  5
55C0
 10
125.134383
 20
-38.800001
 30
0.0
 11
125.134383
 21
-35.500001
 31
0.0
  0
LINE
  8
F08_IMG
  5
55C3
 10
122.634383
 20
35.500001
 30
0.0
 11
125.134383
 21
35.500001
 31
0.0
  0
LINE
  8
F08_IMG
  5
55C4
 10
122.634383
 20
-35.500001
 30
0.0
 11
125.134383
 21
-35.500001
 31
0.0
  0
DIMENSION
  8
F02_DIM
  5
55F5
  2
*D32
 10
-85.115627
 20
59.800001
 30
0.0
 11
-88.115627
 21
67.800001
 31
0.0
 13
-47.148232
 23
50.0
 33
0.0
 14
-46.669716
 24
59.800001
 34
0.0
 50
90.0
  3
FSTD1
  0
DIMENSION
  8
F02_DIM
  5
5603
  2
*D33
 10
-85.115627
 20
-59.800001
 30
0.0
 11
-88.115627
 21
-67.800001
 31
0.0
 13
-47.148232
 23
-50.0
 33
0.0
 14
-46.669715
 24
-59.800001
 34
0.0
 50
90.0
  3
FSTD1
  0
LINE
  8
F01_OUT
  5
635F
 10
-12.769792
 20
-12.35
 30
0.0
 11
-12.269792
 21
-11.85
 31
0.0
  0
LINE
  8
F01_OUT
  5
6360
 10
-12.769792
 20
-14.35
 30
0.0
 11
-12.269792
 21
-14.85
 31
0.0
  0
LINE
  8
F01_OUT
  5
6361
 10
-15.269792
 20
-11.85
 30
0.0
 11
-12.269792
 21
-11.85
 31
0.0
  0
LINE
  8
F01_OUT
  5
6362
 10
-15.269792
 20
-11.35
 30
0.0
 11
-7.269792
 21
-11.35
 31
0.0
  0
LINE
  8
F01_OUT
  5
6363
 10
-15.269792
 20
-14.85
 30
0.0
 11
-12.269792
 21
-14.85
 31
0.0
  0
LINE
  8
F01_OUT
  5
6364
 10
-15.269792
 20
-15.35
 30
0.0
 11
-7.269792
 21
-15.35
 31
0.0
  0
LINE
  8
F01_OUT
  5
6365
 10
-12.769792
 20
-12.35
 30
0.0
 11
-12.769792
 21
-14.35
 31
0.0
  0
LINE
  8
F01_OUT
  5
6366
 10
-14.769792
 20
-12.35
 30
0.0
 11
-15.269792
 21
-11.85
 31
0.0
  0
LINE
  8
F01_OUT
  5
6367
 10
-14.769792
 20
-12.35
 30
0.0
 11
-14.769792
 21
-14.35
 31
0.0
  0
LINE
  8
F01_OUT
  5
6368
 10
-14.769792
 20
-14.35
 30
0.0
 11
-15.269792
 21
-14.85
 31
0.0
  0
LINE
  8
F01_OUT
  5
6369
 10
-15.269792
 20
-15.35
 30
0.0
 11
-15.269792
 21
-11.35
 31
0.0
  0
LINE
  8
F01_OUT
  5
636A
 10
-14.769792
 20
-12.35
 30
0.0
 11
-12.769792
 21
-12.35
 31
0.0
  0
LINE
  8
F01_OUT
  5
636B
 10
-14.769792
 20
-14.35
 30
0.0
 11
-12.769792
 21
-14.35
 31
0.0
  0
LINE
  8
F01_OUT
  5
636C
 10
-7.269792
 20
-15.35
 30
0.0
 11
-7.269792
 21
-11.35
 31
0.0
  0
LINE
  8
F01_OUT
  5
636D
 10
-12.269792
 20
-11.85
 30
0.0
 11
-12.269792
 21
-14.85
 31
0.0
  0
LINE
  8
F05_PRO
  5
636E
 10
44.5426
 20
-95.901519
 30
0.0
 11
-7.269792
 21
-15.35
 31
0.0
  0
TEXT
  8
F05_PRO
  5
636F
 10
47.082272
 20
-90.505998
 30
0.0
 40
3.0
  1
Sensitive current
 41
0.8
  0
TEXT
  8
F05_PRO
  5
6370
 10
47.082272
 20
-94.500338
 30
0.0
 40
3.0
  1
selective switch
 41
0.8
  0
LINE
  8
F05_PRO
  5
6371
 10
44.5426
 20
-95.901519
 30
0.0
 11
84.943801
 21
-95.901519
 31
0.0
  0
ENDSEC
  0
EOF
