  0
SECTION
  2
HEADER
  9
$ACADVER
  1
AC1009
  9
$INSBASE
 10
0.0
 20
0.0
 30
0.0
  9
$EXTMIN
 10
86.349683
 20
137.44759
 30
0.0
  9
$EXTMAX
 10
644.069953
 20
470.240336
 30
0.0
  9
$LIMMIN
 10
0.0
 20
0.0
  9
$LIMMAX
 10
210.0
 20
297.0
  9
$ORTHOMODE
 70
     1
  9
$REGENMODE
 70
     1
  9
$FILLMODE
 70
     1
  9
$QTEXTMODE
 70
     0
  9
$MIRRTEXT
 70
     1
  9
$DRAGMODE
 70
     2
  9
$LTSCALE
 40
1.0
  9
$OSMODE
 70
   545
  9
$ATTMODE
 70
     1
  9
$TEXTSIZE
 40
3.0
  9
$TRACEWID
 40
0.05
  9
$TEXTSTYLE
  7
STANDARD
  9
$CLAYER
  8
F02_DIM
  9
$CELTYPE
  6
BYLAYER
  9
$CECOLOR
 62
   256
  9
$DIMSCALE
 40
1.0
  9
$DIMASZ
 40
2.5
  9
$DIMEXO
 40
1.0
  9
$DIMDLI
 40
3.75
  9
$DIMRND
 40
0.0
  9
$DIMDLE
 40
0.0
  9
$DIMEXE
 40
1.0
  9
$DIMTP
 40
0.0
  9
$DIMTM
 40
0.0
  9
$DIMTXT
 40
4.0
  9
$DIMCEN
 40
0.1
  9
$DIMTSZ
 40
0.0
  9
$DIMTOL
 70
     0
  9
$DIMLIM
 70
     0
  9
$DIMTIH
 70
     0
  9
$DIMTOH
 70
     0
  9
$DIMSE1
 70
     0
  9
$DIMSE2
 70
     0
  9
$DIMTAD
 70
     1
  9
$DIMZIN
 70
     8
  9
$DIMBLK
  1

  9
$DIMASO
 70
     1
  9
$DIMSHO
 70
     1
  9
$DIMPOST
  1

  9
$DIMAPOST
  1

  9
$DIMALT
 70
     0
  9
$DIMALTD
 70
     4
  9
$DIMALTF
 40
0.03937
  9
$DIMLFAC
 40
1.0
  9
$DIMTOFL
 70
     1
  9
$DIMTVP
 40
0.0
  9
$DIMTIX
 70
     0
  9
$DIMSOXD
 70
     0
  9
$DIMSAH
 70
     1
  9
$DIMBLK1
  1
_OPEN30
  9
$DIMBLK2
  1
_OPEN30
  9
$DIMSTYLE
  2
FSTD1
  9
$DIMCLRD
 70
   256
  9
$DIMCLRE
 70
   256
  9
$DIMCLRT
 70
   256
  9
$DIMTFAC
 40
1.0
  9
$DIMGAP
 40
1.0
  9
$LUNITS
 70
     2
  9
$LUPREC
 70
     4
  9
$SKETCHINC
 40
0.1
  9
$FILLETRAD
 40
2.0
  9
$AUNITS
 70
     0
  9
$AUPREC
 70
     0
  9
$MENU
  1
acad
  9
$ELEVATION
 40
0.0
  9
$PELEVATION
 40
0.0
  9
$THICKNESS
 40
0.0
  9
$LIMCHECK
 70
     0
  9
$BLIPMODE
 70
     1
  9
$CHAMFERA
 40
0.0
  9
$CHAMFERB
 40
0.0
  9
$SKPOLY
 70
     0
  9
$TDCREATE
 40
2454825.587233796
  9
$TDUPDATE
 40
2454851.692494572
  9
$TDINDWG
 40
0.2061910532
  9
$TDUSRTIMER
 40
0.2061910532
  9
$USRTIMER
 70
     1
  9
$ANGBASE
 50
0.0
  9
$ANGDIR
 70
     0
  9
$PDMODE
 70
     0
  9
$PDSIZE
 40
0.0
  9
$PLINEWID
 40
0.0
  9
$COORDS
 70
     1
  9
$SPLFRAME
 70
     0
  9
$SPLINETYPE
 70
     6
  9
$SPLINESEGS
 70
     8
  9
$ATTDIA
 70
     0
  9
$ATTREQ
 70
     1
  9
$HANDLING
 70
     1
  9
$HANDSEED
  5
1EAD
  9
$SURFTAB1
 70
     6
  9
$SURFTAB2
 70
     6
  9
$SURFTYPE
 70
     6
  9
$SURFU
 70
     6
  9
$SURFV
 70
     6
  9
$UCSNAME
  2

  9
$UCSORG
 10
0.0
 20
0.0
 30
0.0
  9
$UCSXDIR
 10
1.0
 20
0.0
 30
0.0
  9
$UCSYDIR
 10
0.0
 20
1.0
 30
0.0
  9
$PUCSNAME
  2

  9
$PUCSORG
 10
0.0
 20
0.0
 30
0.0
  9
$PUCSXDIR
 10
1.0
 20
0.0
 30
0.0
  9
$PUCSYDIR
 10
0.0
 20
1.0
 30
0.0
  9
$USERI1
 70
     0
  9
$USERI2
 70
     0
  9
$USERI3
 70
     0
  9
$USERI4
 70
     0
  9
$USERI5
 70
     0
  9
$USERR1
 40
0.0
  9
$USERR2
 40
0.0
  9
$USERR3
 40
0.0
  9
$USERR4
 40
0.0
  9
$USERR5
 40
0.0
  9
$WORLDVIEW
 70
     1
  9
$SHADEDGE
 70
     3
  9
$SHADEDIF
 70
    70
  9
$TILEMODE
 70
     1
  9
$MAXACTVP
 70
    16
  9
$PINSBASE
 10
0.0
 20
0.0
 30
0.0
  9
$PLIMCHECK
 70
     0
  9
$PEXTMIN
 10
1.000000E+20
 20
1.000000E+20
 30
1.000000E+20
  9
$PEXTMAX
 10
-1.000000E+20
 20
-1.000000E+20
 30
-1.000000E+20
  9
$PLIMMIN
 10
0.0
 20
0.0
  9
$PLIMMAX
 10
12.0
 20
9.0
  9
$UNITMODE
 70
     0
  9
$VISRETAIN
 70
     0
  9
$PLINEGEN
 70
     1
  9
$PSLTSCALE
 70
     0
  9
$TREEDEPTH
 70
  3020
  9
$DWGCODEPAGE
  3
dos932
  0
ENDSEC
  0
SECTION
  2
TABLES
  0
TABLE
  2
VPORT
 70
     2
  0
VPORT
  2
*ACTIVE
 70
     0
 10
0.0
 20
0.0
 11
1.0
 21
1.0
 12
365.203271
 22
332.86792
 13
0.0
 23
0.0
 14
1.0
 24
1.0
 15
0.0
 25
0.0
 16
0.0
 26
0.0
 36
1.0
 17
0.0
 27
0.0
 37
0.0
 40
393.918378
 41
1.475202
 42
50.0
 43
0.0
 44
0.0
 50
0.0
 51
0.0
 71
     0
 72
   100
 73
     1
 74
     1
 75
     0
 76
     0
 77
     0
 78
     0
  0
ENDTAB
  0
TABLE
  2
LTYPE
 70
     4
  0
LTYPE
  2
CONTINUOUS
 70
    64
  3
Solid line
 72
    65
 73
     0
 40
0.0
  0
LTYPE
  2
CENTER
 70
    64
  3
Center ____ _ ____ _ ____ _ ____ _ ____ _ ____
 72
    65
 73
     4
 40
50.8
 49
31.75
 49
-6.35
 49
6.35
 49
-6.35
  0
LTYPE
  2
PHANTOM
 70
    64
  3
Phantom ______  __  __  ______  __  __  ______
 72
    65
 73
     6
 40
63.5
 49
31.75
 49
-6.35
 49
6.35
 49
-6.35
 49
6.35
 49
-6.35
  0
LTYPE
  2
DASHED
 70
    64
  3
Dashed __ __ __ __ __ __ __ __ __ __ __ __ __ _
 72
    65
 73
     2
 40
19.05
 49
12.7
 49
-6.35
  0
ENDTAB
  0
TABLE
  2
LAYER
 70
    10
  0
LAYER
  2
0
 70
    64
 62
     7
  6
CONTINUOUS
  0
LAYER
  2
DEFPOINTS
 70
    64
 62
     7
  6
CONTINUOUS
  0
LAYER
  2
F05_PRO
 70
    64
 62
     4
  6
CONTINUOUS
  0
LAYER
  2
F01_OUT
 70
    64
 62
     6
  6
CONTINUOUS
  0
LAYER
  2
F02_DIM
 70
    64
 62
     4
  6
CONTINUOUS
  0
LAYER
  2
F03_CNT
 70
    64
 62
     1
  6
CENTER
  0
LAYER
  2
F04_HID
 70
    64
 62
     3
  6
DASHED
  0
LAYER
  2
F06_CUT
 70
    64
 62
     6
  6
CONTINUOUS
  0
LAYER
  2
F07_COO
 70
    64
 62
     3
  6
PHANTOM
  0
LAYER
  2
F08_IMG
 70
    64
 62
     2
  6
PHANTOM
  0
ENDTAB
  0
TABLE
  2
STYLE
 70
     3
  0
STYLE
  2
MX_NOTE_STANDARD
 70
     0
 40
0.0
 41
1.0
 50
0.0
 71
     0
 42
10.0
  3
txt.shx
  4
extfont.shx
  0
STYLE
  2
STANDARD
 70
    64
 40
0.0
 41
1.0
 50
0.0
 71
     0
 42
3.0
  3
txt.shx
  4
bigfont.shx
  0
STYLE
  2
FSTD1
 70
    64
 40
0.0
 41
1.0
 50
0.0
 71
     0
 42
4.1656
  3
txt.shx
  4
extfont.shx
  0
ENDTAB
  0
TABLE
  2
VIEW
 70
     0
  0
ENDTAB
  0
TABLE
  2
UCS
 70
     0
  0
ENDTAB
  0
TABLE
  2
APPID
 70
     2
  0
APPID
  2
ACAD
 70
    64
  0
ENDTAB
  0
TABLE
  2
DIMSTYLE
 70
     4
  0
DIMSTYLE
  2
MXDIMSTYLE
 70
     0
  3

  4

  5

  6
_OPEN30
  7
_OPEN30
 40
1.0
 41
2.5
 42
0.5
 43
3.75
 44
1.0
 45
0.0
 46
0.0
 47
0.0
 48
0.0
140
4.1656
141
2.5
142
0.0
143
0.03937
144
1.0
145
0.0
146
1.0
147
1.0
 71
     0
 72
     0
 73
     0
 74
     0
 75
     0
 76
     0
 77
     1
 78
     8
170
     0
171
     4
172
     1
173
     1
174
     0
175
     0
176
     0
177
     0
178
     0
  0
DIMSTYLE
  2
FSTD1
 70
    64
  3

  4

  5

  6
_OPEN30
  7
_OPEN30
 40
1.0
 41
2.5
 42
1.0
 43
3.75
 44
1.0
 45
0.0
 46
0.0
 47
0.0
 48
0.0
140
4.0
141
0.1
142
0.0
143
0.03937
144
1.0
145
0.0
146
1.0
147
1.0
 71
     0
 72
     0
 73
     0
 74
     0
 75
     0
 76
     0
 77
     1
 78
     8
170
     0
171
     4
172
     1
173
     1
174
     0
175
     0
176
   256
177
   256
178
   256
  0
DIMSTYLE
  2
STANDARD
 70
     0
  3

  4

  5

  6

  7

 40
1.0
 41
0.18
 42
0.0625
 43
0.38
 44
0.18
 45
0.0
 46
0.0
 47
0.0
 48
0.0
140
0.18
141
0.09
142
0.0
143
25.4
144
1.0
145
0.0
146
1.0
147
0.09
 71
     0
 72
     0
 73
     1
 74
     1
 75
     0
 76
     0
 77
     0
 78
     0
170
     0
171
     2
172
     0
173
     0
174
     0
175
     0
176
     0
177
     0
178
     0
  0
DIMSTYLE
  2
FSTD2
 70
    64
  3

  4

  5

  6
_OPEN30
  7
_OPEN30
 40
1.0
 41
2.5
 42
1.0
 43
3.75
 44
1.0
 45
0.0
 46
0.0
 47
0.0
 48
0.0
140
4.0
141
0.1
142
0.0
143
0.03937
144
1.0
145
0.0
146
1.0
147
1.0
 71
     0
 72
     0
 73
     0
 74
     0
 75
     0
 76
     0
 77
     1
 78
     8
170
     0
171
     4
172
     1
173
     1
174
     0
175
     0
176
   256
177
   256
178
   256
  0
ENDTAB
  0
ENDSEC
  0
SECTION
  2
BLOCKS
  0
BLOCK
  8
0
  5
11F
  2
_OPEN30
 70
    66
 10
0.0
 20
0.0
 30
0.0
  3
_OPEN30
  0
LINE
  8
0
  6
BYBLOCK
 62
     0
  5
120
 10
-1.0
 20
0.267949
 30
0.0
 11
0.0
 21
0.0
 31
0.0
  0
LINE
  8
0
  6
BYBLOCK
 62
     0
  5
121
 10
0.0
 20
0.0
 30
0.0
 11
-1.0
 21
-0.267949
 31
0.0
  0
LINE
  8
0
  6
BYBLOCK
 62
     0
  5
122
 10
0.0
 20
0.0
 30
0.0
 11
-1.0
 21
0.0
 31
0.0
  0
ENDBLK
  8
0
  5
123
  0
BLOCK
  8
0
  5
1DAA
  2
*D1
 70
    65
 10
0.0
 20
0.0
 30
0.0
  3
*D1
  0
LINE
  8
0
  6
BYBLOCK
  5
1DAB
 10
140.072405
 20
348.865321
 30
0.0
 11
140.072405
 21
324.24408
 31
0.0
  0
LINE
  8
0
  6
BYBLOCK
  5
1DAC
 10
165.072375
 20
348.865321
 30
0.0
 11
165.072375
 21
324.24408
 31
0.0
  0
LINE
  8
0
  6
BYBLOCK
  5
1DAD
 10
142.572405
 20
325.24408
 30
0.0
 11
162.572375
 21
325.24408
 31
0.0
  0
INSERT
  8
0
  6
BYBLOCK
  5
1DAE
  2
_OPEN30
 10
140.072405
 20
325.24408
 30
0.0
 41
2.5
 42
2.5
 50
180.0
 43
2.5
  0
INSERT
  8
0
  6
BYBLOCK
  5
1DAF
  2
_OPEN30
 10
165.072375
 20
325.24408
 30
0.0
 41
2.5
 42
2.5
 43
2.5
  0
TEXT
  8
0
  6
BYBLOCK
  5
1DB0
 10
149.239057
 20
326.24408
 30
0.0
 40
4.0
  1
25
  7
STANDARD
  0
POINT
  8
DEFPOINTS
  6
BYBLOCK
 62
     0
  5
1DB1
 10
140.072405
 20
349.865321
 30
0.0
  0
POINT
  8
DEFPOINTS
  6
BYBLOCK
 62
     0
  5
1DB2
 10
165.072375
 20
349.865321
 30
0.0
  0
POINT
  8
DEFPOINTS
  6
BYBLOCK
 62
     0
  5
1DB3
 10
165.072375
 20
325.24408
 30
0.0
  0
ENDBLK
  8
0
  5
1DB4
  0
BLOCK
  8
0
  5
1DB5
  2
*D2
 70
    65
 10
0.0
 20
0.0
 30
0.0
  3
*D2
  0
LINE
  8
0
  6
BYBLOCK
  5
1DB6
 10
128.572344
 20
372.293857
 30
0.0
 11
128.572344
 21
314.609438
 31
0.0
  0
LINE
  8
0
  6
BYBLOCK
  5
1DB7
 10
176.07233
 20
372.940304
 30
0.0
 11
176.07233
 21
314.609438
 31
0.0
  0
LINE
  8
0
  6
BYBLOCK
  5
1DB8
 10
131.072344
 20
315.609438
 30
0.0
 11
173.57233
 21
315.609438
 31
0.0
  0
INSERT
  8
0
  6
BYBLOCK
  5
1DB9
  2
_OPEN30
 10
128.572344
 20
315.609438
 30
0.0
 41
2.5
 42
2.5
 50
180.0
 43
2.5
  0
INSERT
  8
0
  6
BYBLOCK
  5
1DBA
  2
_OPEN30
 10
176.07233
 20
315.609438
 30
0.0
 41
2.5
 42
2.5
 43
2.5
  0
TEXT
  8
0
  6
BYBLOCK
  5
1DBB
 10
146.322337
 20
316.609438
 30
0.0
 40
4.0
  1
47.5
  7
STANDARD
  0
POINT
  8
DEFPOINTS
  6
BYBLOCK
 62
     0
  5
1DBC
 10
128.572344
 20
373.293857
 30
0.0
  0
POINT
  8
DEFPOINTS
  6
BYBLOCK
 62
     0
  5
1DBD
 10
176.07233
 20
373.940304
 30
0.0
  0
POINT
  8
DEFPOINTS
  6
BYBLOCK
 62
     0
  5
1DBE
 10
176.07233
 20
315.609438
 30
0.0
  0
ENDBLK
  8
0
  5
1DBF
  0
BLOCK
  8
0
  5
1DC0
  2
*D3
 70
    65
 10
0.0
 20
0.0
 30
0.0
  3
*D3
  0
LINE
  8
0
  6
BYBLOCK
  5
1DC1
 10
127.57233
 20
350.690334
 30
0.0
 11
127.57233
 21
305.640248
 31
0.0
  0
LINE
  8
0
  6
BYBLOCK
  5
1DC2
 10
177.57233
 20
350.690334
 30
0.0
 11
177.57233
 21
305.640248
 31
0.0
  0
LINE
  8
0
  6
BYBLOCK
  5
1DC3
 10
130.07233
 20
306.640248
 30
0.0
 11
175.07233
 21
306.640248
 31
0.0
  0
INSERT
  8
0
  6
BYBLOCK
  5
1DC4
  2
_OPEN30
 10
127.57233
 20
306.640248
 30
0.0
 41
2.5
 42
2.5
 50
180.0
 43
2.5
  0
INSERT
  8
0
  6
BYBLOCK
  5
1DC5
  2
_OPEN30
 10
177.57233
 20
306.640248
 30
0.0
 41
2.5
 42
2.5
 43
2.5
  0
TEXT
  8
0
  6
BYBLOCK
  5
1DC6
 10
149.57233
 20
307.640248
 30
0.0
 40
4.0
  1
50
  7
STANDARD
  0
POINT
  8
DEFPOINTS
  6
BYBLOCK
 62
     0
  5
1DC7
 10
127.57233
 20
351.690334
 30
0.0
  0
POINT
  8
DEFPOINTS
  6
BYBLOCK
 62
     0
  5
1DC8
 10
177.57233
 20
351.690334
 30
0.0
  0
POINT
  8
DEFPOINTS
  6
BYBLOCK
 62
     0
  5
1DC9
 10
177.57233
 20
306.640248
 30
0.0
  0
ENDBLK
  8
0
  5
1DCA
  0
BLOCK
  8
0
  5
8B2
  2
*D4
 70
    65
 10
0.0
 20
0.0
 30
0.0
  3
*D4
  0
LINE
  8
0
  6
BYBLOCK
  5
8B3
 10
133.811258
 20
422.940305
 30
0.0
 11
118.076581
 21
422.940305
 31
0.0
  0
LINE
  8
0
  6
BYBLOCK
  5
8B4
 10
133.811258
 20
372.940304
 30
0.0
 11
118.076581
 21
372.940304
 31
0.0
  0
LINE
  8
0
  6
BYBLOCK
  5
8B5
 10
119.076581
 20
420.440305
 30
0.0
 11
119.076581
 21
375.440304
 31
0.0
  0
INSERT
  8
0
  6
BYBLOCK
  5
8B6
  2
_OPEN30
 10
119.076581
 20
422.940305
 30
0.0
 41
2.5
 42
2.5
 50
90.0
 43
2.5
  0
INSERT
  8
0
  6
BYBLOCK
  5
8B7
  2
_OPEN30
 10
119.076581
 20
372.940304
 30
0.0
 41
2.5
 42
2.5
 50
270.0
 43
2.5
  0
TEXT
  8
0
  6
BYBLOCK
  5
8B8
 10
118.076581
 20
394.940305
 30
0.0
 40
4.0
  1
50
 50
90.0
  7
STANDARD
  0
POINT
  8
DEFPOINTS
  6
BYBLOCK
 62
     0
  5
8B9
 10
134.811258
 20
422.940305
 30
0.0
  0
POINT
  8
DEFPOINTS
  6
BYBLOCK
 62
     0
  5
8BA
 10
134.811258
 20
372.940304
 30
0.0
  0
POINT
  8
DEFPOINTS
  6
BYBLOCK
 62
     0
  5
8BB
 10
119.076581
 20
372.940304
 30
0.0
  0
ENDBLK
  8
0
  5
8BC
  0
BLOCK
  8
0
  5
8DB
  2
*D5
 70
    65
 10
0.0
 20
0.0
 30
0.0
  3
*D5
  0
LINE
  8
0
  6
BYBLOCK
  5
8DC
 10
153.557751
 20
439.940335
 30
0.0
 11
108.028439
 21
439.940335
 31
0.0
  0
LINE
  8
0
  6
BYBLOCK
  5
8DD
 10
153.557751
 20
355.940335
 30
0.0
 11
108.028439
 21
355.940335
 31
0.0
  0
LINE
  8
0
  6
BYBLOCK
  5
8DE
 10
109.028439
 20
437.440335
 30
0.0
 11
109.028439
 21
358.440335
 31
0.0
  0
INSERT
  8
0
  6
BYBLOCK
  5
8DF
  2
_OPEN30
 10
109.028439
 20
439.940335
 30
0.0
 41
2.5
 42
2.5
 50
90.0
 43
2.5
  0
INSERT
  8
0
  6
BYBLOCK
  5
8E0
  2
_OPEN30
 10
109.028439
 20
355.940335
 30
0.0
 41
2.5
 42
2.5
 50
270.0
 43
2.5
  0
TEXT
  8
0
  6
BYBLOCK
  5
8E1
 10
108.028439
 20
394.607002
 30
0.0
 40
4.0
  1
84
 50
90.0
  7
STANDARD
  0
POINT
  8
DEFPOINTS
  6
BYBLOCK
 62
     0
  5
8E2
 10
154.557751
 20
439.940335
 30
0.0
  0
POINT
  8
DEFPOINTS
  6
BYBLOCK
 62
     0
  5
8E3
 10
154.557751
 20
355.940335
 30
0.0
  0
POINT
  8
DEFPOINTS
  6
BYBLOCK
 62
     0
  5
8E4
 10
109.028439
 20
355.940335
 30
0.0
  0
ENDBLK
  8
0
  5
8E5
  0
BLOCK
  8
0
  5
913
  2
*D6
 70
    65
 10
0.0
 20
0.0
 30
0.0
  3
*D7
  0
LINE
  8
0
  6
BYBLOCK
  5
914
 10
189.67691
 20
397.940335
 30
0.0
 11
204.416064
 21
397.940335
 31
0.0
  0
LINE
  8
0
  6
BYBLOCK
  5
915
 10
178.032749
 20
437.940335
 30
0.0
 11
204.416064
 21
437.940335
 31
0.0
  0
LINE
  8
0
  6
BYBLOCK
  5
916
 10
203.416064
 20
400.440335
 30
0.0
 11
203.416064
 21
435.440335
 31
0.0
  0
INSERT
  8
0
  6
BYBLOCK
  5
917
  2
_OPEN30
 10
203.416064
 20
397.940335
 30
0.0
 41
2.5
 42
2.5
 50
270.0
 43
2.5
  0
INSERT
  8
0
  6
BYBLOCK
  5
918
  2
_OPEN30
 10
203.416064
 20
437.940335
 30
0.0
 41
2.5
 42
2.5
 50
90.0
 43
2.5
  0
TEXT
  8
0
  6
BYBLOCK
  5
919
 10
202.416064
 20
414.940335
 30
0.0
 40
4.0
  1
40
 50
90.0
  7
STANDARD
  0
POINT
  8
DEFPOINTS
  6
BYBLOCK
 62
     0
  5
91A
 10
188.67691
 20
397.940335
 30
0.0
  0
POINT
  8
DEFPOINTS
  6
BYBLOCK
 62
     0
  5
91B
 10
177.032749
 20
437.940335
 30
0.0
  0
POINT
  8
DEFPOINTS
  6
BYBLOCK
 62
     0
  5
91C
 10
203.416064
 20
437.940335
 30
0.0
  0
ENDBLK
  8
0
  5
91D
  0
BLOCK
  8
0
  5
920
  2
*D7
 70
    65
 10
0.0
 20
0.0
 30
0.0
  3
*D8
  0
LINE
  8
0
  6
BYBLOCK
  5
921
 10
188.67691
 20
397.940335
 30
0.0
 11
204.416064
 21
397.940335
 31
0.0
  0
LINE
  8
0
  6
BYBLOCK
  5
922
 10
178.032749
 20
355.940334
 30
0.0
 11
204.416064
 21
355.940334
 31
0.0
  0
LINE
  8
0
  6
BYBLOCK
  5
923
 10
203.416064
 20
395.440335
 30
0.0
 11
203.416064
 21
358.440334
 31
0.0
  0
INSERT
  8
0
  6
BYBLOCK
  5
924
  2
_OPEN30
 10
203.416064
 20
397.940335
 30
0.0
 41
2.5
 42
2.5
 50
90.0
 43
2.5
  0
INSERT
  8
0
  6
BYBLOCK
  5
925
  2
_OPEN30
 10
203.416064
 20
355.940334
 30
0.0
 41
2.5
 42
2.5
 50
270.0
 43
2.5
  0
TEXT
  8
0
  6
BYBLOCK
  5
926
 10
202.416064
 20
373.607001
 30
0.0
 40
4.0
  1
42
 50
90.0
  7
STANDARD
  0
POINT
  8
DEFPOINTS
  6
BYBLOCK
 62
     0
  5
927
 10
187.67691
 20
397.940335
 30
0.0
  0
POINT
  8
DEFPOINTS
  6
BYBLOCK
 62
     0
  5
928
 10
177.032749
 20
355.940334
 30
0.0
  0
POINT
  8
DEFPOINTS
  6
BYBLOCK
 62
     0
  5
929
 10
203.416064
 20
355.940334
 30
0.0
  0
ENDBLK
  8
0
  5
92A
  0
BLOCK
  8
0
  5
931
  2
*D8
 70
    65
 10
0.0
 20
0.0
 30
0.0
  3
*D9
  0
LINE
  8
0
  6
BYBLOCK
  5
932
 10
178.032749
 20
437.940335
 30
0.0
 11
204.416064
 21
437.940335
 31
0.0
  0
LINE
  8
0
  6
BYBLOCK
  5
933
 10
182.65763
 20
447.940335
 30
0.0
 11
204.416064
 21
447.940335
 31
0.0
  0
LINE
  8
0
  6
BYBLOCK
  5
934
 10
203.416064
 20
440.440335
 30
0.0
 11
203.416064
 21
445.440335
 31
0.0
  0
INSERT
  8
0
  6
BYBLOCK
  5
935
  2
_OPEN30
 10
203.416064
 20
437.940335
 30
0.0
 41
2.5
 42
2.5
 50
270.0
 43
2.5
  0
INSERT
  8
0
  6
BYBLOCK
  5
936
  2
_OPEN30
 10
203.416064
 20
447.940335
 30
0.0
 41
2.5
 42
2.5
 50
90.0
 43
2.5
  0
TEXT
  8
0
  6
BYBLOCK
  5
937
 10
202.416064
 20
440.607002
 30
0.0
 40
4.0
  1
10
 50
90.0
  7
STANDARD
  0
POINT
  8
DEFPOINTS
  6
BYBLOCK
 62
     0
  5
938
 10
177.032749
 20
437.940335
 30
0.0
  0
POINT
  8
DEFPOINTS
  6
BYBLOCK
 62
     0
  5
939
 10
181.65763
 20
447.940335
 30
0.0
  0
POINT
  8
DEFPOINTS
  6
BYBLOCK
 62
     0
  5
93A
 10
203.416064
 20
447.940335
 30
0.0
  0
ENDBLK
  8
0
  5
93B
  0
BLOCK
  8
0
  5
94F
  2
*D9
 70
    65
 10
0.0
 20
0.0
 30
0.0
  3
*D10
  0
LINE
  8
0
  6
BYBLOCK
  5
950
 10
178.032749
 20
355.940334
 30
0.0
 11
204.416064
 21
355.940334
 31
0.0
  0
LINE
  8
0
  6
BYBLOCK
  5
951
 10
182.65763
 20
347.940333
 30
0.0
 11
204.416064
 21
347.940333
 31
0.0
  0
LINE
  8
0
  6
BYBLOCK
  5
952
 10
203.416064
 20
353.440334
 30
0.0
 11
203.416064
 21
350.440333
 31
0.0
  0
INSERT
  8
0
  6
BYBLOCK
  5
953
  2
_OPEN30
 10
203.416064
 20
355.940334
 30
0.0
 41
2.5
 42
2.5
 50
90.0
 43
2.5
  0
INSERT
  8
0
  6
BYBLOCK
  5
954
  2
_OPEN30
 10
203.416064
 20
347.940333
 30
0.0
 41
2.5
 42
2.5
 50
270.0
 43
2.5
  0
TEXT
  8
0
  6
BYBLOCK
  5
955
 10
202.416064
 20
350.607
 30
0.0
 40
4.0
  1
8
 50
90.0
  7
STANDARD
  0
POINT
  8
DEFPOINTS
  6
BYBLOCK
 62
     0
  5
956
 10
177.032749
 20
355.940334
 30
0.0
  0
POINT
  8
DEFPOINTS
  6
BYBLOCK
 62
     0
  5
957
 10
181.65763
 20
347.940333
 30
0.0
  0
POINT
  8
DEFPOINTS
  6
BYBLOCK
 62
     0
  5
958
 10
203.416064
 20
347.940333
 30
0.0
  0
ENDBLK
  8
0
  5
959
  0
BLOCK
  8
0
  5
9A8
  2
*D10
 70
    65
 10
0.0
 20
0.0
 30
0.0
  3
*D11
  0
LINE
  8
0
  6
BYBLOCK
  5
9A9
 10
441.165682
 20
439.940335
 30
0.0
 11
483.507623
 21
439.940335
 31
0.0
  0
LINE
  8
0
  6
BYBLOCK
  5
9AA
 10
441.165682
 20
355.940335
 30
0.0
 11
483.507623
 21
355.940335
 31
0.0
  0
LINE
  8
0
  6
BYBLOCK
  5
9AB
 10
482.507623
 20
437.440335
 30
0.0
 11
482.507623
 21
358.440335
 31
0.0
  0
INSERT
  8
0
  6
BYBLOCK
  5
9AC
  2
_OPEN30
 10
482.507623
 20
439.940335
 30
0.0
 41
2.5
 42
2.5
 50
90.0
 43
2.5
  0
INSERT
  8
0
  6
BYBLOCK
  5
9AD
  2
_OPEN30
 10
482.507623
 20
355.940335
 30
0.0
 41
2.5
 42
2.5
 50
270.0
 43
2.5
  0
TEXT
  8
0
  6
BYBLOCK
  5
9AE
 10
481.507623
 20
394.607002
 30
0.0
 40
4.0
  1
84
 50
90.0
  7
STANDARD
  0
POINT
  8
DEFPOINTS
  6
BYBLOCK
 62
     0
  5
9AF
 10
440.165682
 20
439.940335
 30
0.0
  0
POINT
  8
DEFPOINTS
  6
BYBLOCK
 62
     0
  5
9B0
 10
440.165682
 20
355.940335
 30
0.0
  0
POINT
  8
DEFPOINTS
  6
BYBLOCK
 62
     0
  5
9B1
 10
482.507623
 20
355.940335
 30
0.0
  0
ENDBLK
  8
0
  5
9B2
  0
BLOCK
  8
0
  5
9BA
  2
*D11
 70
    65
 10
0.0
 20
0.0
 30
0.0
  3
*D12
  0
LINE
  8
0
  6
BYBLOCK
  5
9BB
 10
260.998932
 20
285.723268
 30
0.0
 11
260.998932
 21
274.507725
 31
0.0
  0
LINE
  8
0
  6
BYBLOCK
  5
9BC
 10
243.998932
 20
285.723268
 30
0.0
 11
243.998932
 21
274.507725
 31
0.0
  0
LINE
  8
0
  6
BYBLOCK
  5
9BD
 10
258.498932
 20
275.507725
 30
0.0
 11
246.498932
 21
275.507725
 31
0.0
  0
INSERT
  8
0
  6
BYBLOCK
  5
9BE
  2
_OPEN30
 10
260.998932
 20
275.507725
 30
0.0
 41
2.5
 42
2.5
 43
2.5
  0
INSERT
  8
0
  6
BYBLOCK
  5
9BF
  2
_OPEN30
 10
243.998932
 20
275.507725
 30
0.0
 41
2.5
 42
2.5
 50
180.0
 43
2.5
  0
TEXT
  8
0
  6
BYBLOCK
  5
9C0
 10
249.832265
 20
276.507725
 30
0.0
 40
4.0
  1
17
  7
STANDARD
  0
POINT
  8
DEFPOINTS
  6
BYBLOCK
 62
     0
  5
9C1
 10
260.998932
 20
286.723268
 30
0.0
  0
POINT
  8
DEFPOINTS
  6
BYBLOCK
 62
     0
  5
9C2
 10
243.998932
 20
286.723268
 30
0.0
  0
POINT
  8
DEFPOINTS
  6
BYBLOCK
 62
     0
  5
9C3
 10
243.998932
 20
275.507725
 30
0.0
  0
ENDBLK
  8
0
  5
9C4
  0
BLOCK
  8
0
  5
9C8
  2
*D12
 70
    65
 10
0.0
 20
0.0
 30
0.0
  3
*D13
  0
LINE
  8
0
  6
BYBLOCK
  5
9C9
 10
263.248932
 20
294.723268
 30
0.0
 11
274.147984
 21
294.723268
 31
0.0
  0
LINE
  8
0
  6
BYBLOCK
  5
9CA
 10
261.998932
 20
301.723268
 30
0.0
 11
274.147984
 21
301.723268
 31
0.0
  0
LINE
  8
0
  6
BYBLOCK
  5
9CB
 10
273.147984
 20
292.223268
 30
0.0
 11
273.147984
 21
289.723268
 31
0.0
  0
LINE
  8
0
  6
BYBLOCK
  5
9CC
 10
273.147984
 20
304.223268
 30
0.0
 11
273.147984
 21
306.723268
 31
0.0
  0
LINE
  8
0
  6
BYBLOCK
  5
9CD
 10
273.147984
 20
294.723268
 30
0.0
 11
273.147984
 21
301.723268
 31
0.0
  0
INSERT
  8
0
  6
BYBLOCK
  5
9CE
  2
_OPEN30
 10
273.147984
 20
294.723268
 30
0.0
 41
2.5
 42
2.5
 50
90.0
 43
2.5
  0
INSERT
  8
0
  6
BYBLOCK
  5
9CF
  2
_OPEN30
 10
273.147984
 20
301.723268
 30
0.0
 41
2.5
 42
2.5
 50
270.0
 43
2.5
  0
TEXT
  8
0
  6
BYBLOCK
  5
9D0
 10
272.147984
 20
296.889935
 30
0.0
 40
4.0
  1
7
 50
90.0
  7
STANDARD
  0
POINT
  8
DEFPOINTS
  6
BYBLOCK
 62
     0
  5
9D1
 10
262.248932
 20
294.723268
 30
0.0
  0
POINT
  8
DEFPOINTS
  6
BYBLOCK
 62
     0
  5
9D2
 10
260.998932
 20
301.723268
 30
0.0
  0
POINT
  8
DEFPOINTS
  6
BYBLOCK
 62
     0
  5
9D3
 10
273.147984
 20
301.723268
 30
0.0
  0
ENDBLK
  8
0
  5
9D4
  0
BLOCK
  8
0
  5
9D7
  2
*D13
 70
    65
 10
0.0
 20
0.0
 30
0.0
  3
*D14
  0
LINE
  8
0
  6
BYBLOCK
  5
9D8
 10
330.895303
 20
285.723268
 30
0.0
 11
330.895303
 21
274.507725
 31
0.0
  0
LINE
  8
0
  6
BYBLOCK
  5
9D9
 10
306.895303
 20
285.973268
 30
0.0
 11
306.895303
 21
274.507725
 31
0.0
  0
LINE
  8
0
  6
BYBLOCK
  5
9DA
 10
328.395303
 20
275.507725
 30
0.0
 11
309.395303
 21
275.507725
 31
0.0
  0
INSERT
  8
0
  6
BYBLOCK
  5
9DB
  2
_OPEN30
 10
330.895303
 20
275.507725
 30
0.0
 41
2.5
 42
2.5
 43
2.5
  0
INSERT
  8
0
  6
BYBLOCK
  5
9DC
  2
_OPEN30
 10
306.895303
 20
275.507725
 30
0.0
 41
2.5
 42
2.5
 50
180.0
 43
2.5
  0
TEXT
  8
0
  6
BYBLOCK
  5
9DD
 10
315.56197
 20
276.507725
 30
0.0
 40
4.0
  1
24
  7
STANDARD
  0
POINT
  8
DEFPOINTS
  6
BYBLOCK
 62
     0
  5
9DE
 10
330.895303
 20
286.723268
 30
0.0
  0
POINT
  8
DEFPOINTS
  6
BYBLOCK
 62
     0
  5
9DF
 10
306.895303
 20
286.973268
 30
0.0
  0
POINT
  8
DEFPOINTS
  6
BYBLOCK
 62
     0
  5
9E0
 10
306.895303
 20
275.507725
 30
0.0
  0
ENDBLK
  8
0
  5
9E1
  0
BLOCK
  8
0
  5
9E7
  2
*D14
 70
    65
 10
0.0
 20
0.0
 30
0.0
  3
*D15
  0
LINE
  8
0
  6
BYBLOCK
  5
9E8
 10
373.885861
 20
286.223268
 30
0.0
 11
373.885861
 21
276.376025
 31
0.0
  0
LINE
  8
0
  6
BYBLOCK
  5
9E9
 10
380.885861
 20
285.523271
 30
0.0
 11
380.885861
 21
276.376025
 31
0.0
  0
LINE
  8
0
  6
BYBLOCK
  5
9EA
 10
371.385861
 20
277.376025
 30
0.0
 11
368.885861
 21
277.376025
 31
0.0
  0
LINE
  8
0
  6
BYBLOCK
  5
9EB
 10
383.385861
 20
277.376025
 30
0.0
 11
385.885861
 21
277.376025
 31
0.0
  0
LINE
  8
0
  6
BYBLOCK
  5
9EC
 10
373.885861
 20
277.376025
 30
0.0
 11
380.885861
 21
277.376025
 31
0.0
  0
INSERT
  8
0
  6
BYBLOCK
  5
9ED
  2
_OPEN30
 10
373.885861
 20
277.376025
 30
0.0
 41
2.5
 42
2.5
 43
2.5
  0
INSERT
  8
0
  6
BYBLOCK
  5
9EE
  2
_OPEN30
 10
380.885861
 20
277.376025
 30
0.0
 41
2.5
 42
2.5
 50
180.0
 43
2.5
  0
TEXT
  8
0
  6
BYBLOCK
  5
9EF
 10
376.052528
 20
278.376025
 30
0.0
 40
4.0
  1
7
  7
STANDARD
  0
POINT
  8
DEFPOINTS
  6
BYBLOCK
 62
     0
  5
9F0
 10
373.885861
 20
287.223268
 30
0.0
  0
POINT
  8
DEFPOINTS
  6
BYBLOCK
 62
     0
  5
9F1
 10
380.885861
 20
286.523271
 30
0.0
  0
POINT
  8
DEFPOINTS
  6
BYBLOCK
 62
     0
  5
9F2
 10
380.885861
 20
277.376025
 30
0.0
  0
ENDBLK
  8
0
  5
9F3
  0
BLOCK
  8
0
  5
A0E
  2
*D15
 70
    65
 10
0.0
 20
0.0
 30
0.0
  3
*D16
  0
LINE
  8
0
  6
BYBLOCK
  5
A0F
 10
372.885861
 20
287.223268
 30
0.0
 11
359.428641
 21
287.223268
 31
0.0
  0
LINE
  8
0
  6
BYBLOCK
  5
A10
 10
372.885861
 20
302.223268
 30
0.0
 11
359.428641
 21
302.223268
 31
0.0
  0
LINE
  8
0
  6
BYBLOCK
  5
A11
 10
360.428641
 20
289.723268
 30
0.0
 11
360.428641
 21
299.723268
 31
0.0
  0
INSERT
  8
0
  6
BYBLOCK
  5
A12
  2
_OPEN30
 10
360.428641
 20
287.223268
 30
0.0
 41
2.5
 42
2.5
 50
270.0
 43
2.5
  0
INSERT
  8
0
  6
BYBLOCK
  5
A13
  2
_OPEN30
 10
360.428641
 20
302.223268
 30
0.0
 41
2.5
 42
2.5
 50
90.0
 43
2.5
  0
TEXT
  8
0
  6
BYBLOCK
  5
A14
 10
359.428641
 20
285.389935
 30
0.0
 40
4.0
  1
Max.15
 50
90.0
  7
STANDARD
  0
POINT
  8
DEFPOINTS
  6
BYBLOCK
 62
     0
  5
A15
 10
373.885861
 20
287.223268
 30
0.0
  0
POINT
  8
DEFPOINTS
  6
BYBLOCK
 62
     0
  5
A16
 10
373.885861
 20
302.223268
 30
0.0
  0
POINT
  8
DEFPOINTS
  6
BYBLOCK
 62
     0
  5
A17
 10
360.428641
 20
302.223268
 30
0.0
  0
ENDBLK
  8
0
  5
A18
  0
BLOCK
  8
0
  5
1DD8
  2
*D16
 70
    65
 10
0.0
 20
0.0
 30
0.0
  3
*D17
  0
LINE
  8
0
  6
BYBLOCK
  5
1DD9
 10
353.829119
 20
353.877765
 30
0.0
 11
353.829119
 21
314.609438
 31
0.0
  0
LINE
  8
0
  6
BYBLOCK
  5
1DDA
 10
293.829119
 20
359.440335
 30
0.0
 11
293.829119
 21
314.609438
 31
0.0
  0
LINE
  8
0
  6
BYBLOCK
  5
1DDB
 10
351.329119
 20
315.609438
 30
0.0
 11
296.329119
 21
315.609438
 31
0.0
  0
INSERT
  8
0
  6
BYBLOCK
  5
1DDC
  2
_OPEN30
 10
353.829119
 20
315.609438
 30
0.0
 41
2.5
 42
2.5
 43
2.5
  0
INSERT
  8
0
  6
BYBLOCK
  5
1DDD
  2
_OPEN30
 10
293.829119
 20
315.609438
 30
0.0
 41
2.5
 42
2.5
 50
180.0
 43
2.5
  0
TEXT
  8
0
  6
BYBLOCK
  5
1DDE
 10
320.829119
 20
316.609438
 30
0.0
 40
4.0
  1
60
  7
STANDARD
  0
POINT
  8
DEFPOINTS
  6
BYBLOCK
 62
     0
  5
1DDF
 10
353.829119
 20
354.877765
 30
0.0
  0
POINT
  8
DEFPOINTS
  6
BYBLOCK
 62
     0
  5
1DE0
 10
293.829119
 20
360.440335
 30
0.0
  0
POINT
  8
DEFPOINTS
  6
BYBLOCK
 62
     0
  5
1DE1
 10
293.829119
 20
315.609438
 30
0.0
  0
ENDBLK
  8
0
  5
1DE2
  0
BLOCK
  8
0
  5
1DEE
  2
*D17
 70
    65
 10
0.0
 20
0.0
 30
0.0
  3
*D18
  0
LINE
  8
0
  6
BYBLOCK
  5
1DEF
 10
293.829119
 20
359.440335
 30
0.0
 11
293.829119
 21
314.609438
 31
0.0
  0
LINE
  8
0
  6
BYBLOCK
  5
1DF0
 10
285.829119
 20
371.940335
 30
0.0
 11
285.829119
 21
314.609438
 31
0.0
  0
LINE
  8
0
  6
BYBLOCK
  5
1DF1
 10
291.329119
 20
315.609438
 30
0.0
 11
288.329119
 21
315.609438
 31
0.0
  0
INSERT
  8
0
  6
BYBLOCK
  5
1DF2
  2
_OPEN30
 10
293.829119
 20
315.609438
 30
0.0
 41
2.5
 42
2.5
 43
2.5
  0
INSERT
  8
0
  6
BYBLOCK
  5
1DF3
  2
_OPEN30
 10
285.829119
 20
315.609438
 30
0.0
 41
2.5
 42
2.5
 50
180.0
 43
2.5
  0
TEXT
  8
0
  6
BYBLOCK
  5
1DF4
 10
288.495786
 20
316.609438
 30
0.0
 40
4.0
  1
8
  7
STANDARD
  0
POINT
  8
DEFPOINTS
  6
BYBLOCK
 62
     0
  5
1DF5
 10
293.829119
 20
360.440335
 30
0.0
  0
POINT
  8
DEFPOINTS
  6
BYBLOCK
 62
     0
  5
1DF6
 10
285.829119
 20
372.940335
 30
0.0
  0
POINT
  8
DEFPOINTS
  6
BYBLOCK
 62
     0
  5
1DF7
 10
285.829119
 20
315.609438
 30
0.0
  0
ENDBLK
  8
0
  5
1DF8
  0
BLOCK
  8
0
  5
1DF9
  2
*D18
 70
    65
 10
0.0
 20
0.0
 30
0.0
  3
*D19
  0
LINE
  8
0
  6
BYBLOCK
  5
1DFA
 10
285.829119
 20
371.940335
 30
0.0
 11
285.829119
 21
314.609438
 31
0.0
  0
LINE
  8
0
  6
BYBLOCK
  5
1DFB
 10
281.829119
 20
372.940335
 30
0.0
 11
281.829119
 21
314.609438
 31
0.0
  0
LINE
  8
0
  6
BYBLOCK
  5
1DFC
 10
288.329119
 20
315.609438
 30
0.0
 11
290.829119
 21
315.609438
 31
0.0
  0
LINE
  8
0
  6
BYBLOCK
  5
1DFD
 10
279.329119
 20
315.609438
 30
0.0
 11
272.162453
 21
315.609438
 31
0.0
  0
LINE
  8
0
  6
BYBLOCK
  5
1DFE
 10
285.829119
 20
315.609438
 30
0.0
 11
281.829119
 21
315.609438
 31
0.0
  0
INSERT
  8
0
  6
BYBLOCK
  5
1DFF
  2
_OPEN30
 10
285.829119
 20
315.609438
 30
0.0
 41
2.5
 42
2.5
 50
180.0
 43
2.5
  0
INSERT
  8
0
  6
BYBLOCK
  5
1E00
  2
_OPEN30
 10
281.829119
 20
315.609438
 30
0.0
 41
2.5
 42
2.5
 43
2.5
  0
TEXT
  8
0
  6
BYBLOCK
  5
1E01
 10
273.162453
 20
316.609438
 30
0.0
 40
4.0
  1
4
  7
STANDARD
  0
POINT
  8
DEFPOINTS
  6
BYBLOCK
 62
     0
  5
1E02
 10
285.829119
 20
372.940335
 30
0.0
  0
POINT
  8
DEFPOINTS
  6
BYBLOCK
 62
     0
  5
1E03
 10
281.829119
 20
373.940335
 30
0.0
  0
POINT
  8
DEFPOINTS
  6
BYBLOCK
 62
     0
  5
1E04
 10
281.829119
 20
315.609438
 30
0.0
  0
ENDBLK
  8
0
  5
1E05
  0
BLOCK
  8
0
  5
1DCD
  2
*D19
 70
    65
 10
0.0
 20
0.0
 30
0.0
  3
*D20
  0
LINE
  8
0
  6
BYBLOCK
  5
1DCE
 10
353.829119
 20
353.877765
 30
0.0
 11
353.829119
 21
305.640248
 31
0.0
  0
LINE
  8
0
  6
BYBLOCK
  5
1DCF
 10
269.829119
 20
406.440335
 30
0.0
 11
269.829119
 21
305.640248
 31
0.0
  0
LINE
  8
0
  6
BYBLOCK
  5
1DD0
 10
351.329119
 20
306.640248
 30
0.0
 11
272.329119
 21
306.640248
 31
0.0
  0
INSERT
  8
0
  6
BYBLOCK
  5
1DD1
  2
_OPEN30
 10
353.829119
 20
306.640248
 30
0.0
 41
2.5
 42
2.5
 43
2.5
  0
INSERT
  8
0
  6
BYBLOCK
  5
1DD2
  2
_OPEN30
 10
269.829119
 20
306.640248
 30
0.0
 41
2.5
 42
2.5
 50
180.0
 43
2.5
  0
TEXT
  8
0
  6
BYBLOCK
  5
1DD3
 10
308.495786
 20
307.640248
 30
0.0
 40
4.0
  1
84
  7
STANDARD
  0
POINT
  8
DEFPOINTS
  6
BYBLOCK
 62
     0
  5
1DD4
 10
353.829119
 20
354.877765
 30
0.0
  0
POINT
  8
DEFPOINTS
  6
BYBLOCK
 62
     0
  5
1DD5
 10
269.829119
 20
407.440335
 30
0.0
  0
POINT
  8
DEFPOINTS
  6
BYBLOCK
 62
     0
  5
1DD6
 10
269.829119
 20
306.640248
 30
0.0
  0
ENDBLK
  8
0
  5
1DD7
  0
BLOCK
  8
0
  5
A6F
  2
*D20
 70
    65
 10
0.0
 20
0.0
 30
0.0
  3
*D21
  0
LINE
  8
0
  6
BYBLOCK
  5
A70
 10
362.126446
 20
437.490335
 30
0.0
 11
378.576531
 21
437.490335
 31
0.0
  0
LINE
  8
0
  6
BYBLOCK
  5
A71
 10
362.126446
 20
442.390335
 30
0.0
 11
378.576531
 21
442.390335
 31
0.0
  0
LINE
  8
0
  6
BYBLOCK
  5
A72
 10
377.576531
 20
434.990335
 30
0.0
 11
377.576531
 21
432.490335
 31
0.0
  0
LINE
  8
0
  6
BYBLOCK
  5
A73
 10
377.576531
 20
444.890335
 30
0.0
 11
377.576531
 21
461.390335
 31
0.0
  0
LINE
  8
0
  6
BYBLOCK
  5
A74
 10
377.576531
 20
437.490335
 30
0.0
 11
377.576531
 21
442.390335
 31
0.0
  0
INSERT
  8
0
  6
BYBLOCK
  5
A75
  2
_OPEN30
 10
377.576531
 20
437.490335
 30
0.0
 41
2.5
 42
2.5
 50
90.0
 43
2.5
  0
INSERT
  8
0
  6
BYBLOCK
  5
A76
  2
_OPEN30
 10
377.576531
 20
442.390335
 30
0.0
 41
2.5
 42
2.5
 50
270.0
 43
2.5
  0
TEXT
  8
0
  6
BYBLOCK
  5
A77
 10
376.576531
 20
448.390335
 30
0.0
 40
4.0
  1
%%c4.9
 50
90.0
  7
STANDARD
  0
POINT
  8
DEFPOINTS
  6
BYBLOCK
 62
     0
  5
A78
 10
361.126446
 20
437.490335
 30
0.0
  0
POINT
  8
DEFPOINTS
  6
BYBLOCK
 62
     0
  5
A79
 10
361.126446
 20
442.390335
 30
0.0
  0
POINT
  8
DEFPOINTS
  6
BYBLOCK
 62
     0
  5
A7A
 10
377.576531
 20
442.390335
 30
0.0
  0
ENDBLK
  8
0
  5
A7B
  0
BLOCK
  8
0
  5
A8A
  2
*D21
 70
    65
 10
0.0
 20
0.0
 30
0.0
  3
*D22
  0
LINE
  8
0
  6
BYBLOCK
  5
A8B
 10
309.126446
 20
436.040335
 30
0.0
 11
288.17799
 21
436.040335
 31
0.0
  0
LINE
  8
0
  6
BYBLOCK
  5
A8C
 10
309.126446
 20
443.840335
 30
0.0
 11
288.17799
 21
443.840335
 31
0.0
  0
LINE
  8
0
  6
BYBLOCK
  5
A8D
 10
289.17799
 20
438.540335
 30
0.0
 11
289.17799
 21
441.340335
 31
0.0
  0
LINE
  8
0
  6
BYBLOCK
  5
A8E
 10
289.17799
 20
443.840335
 30
0.0
 11
289.17799
 21
460.340335
 31
0.0
  0
INSERT
  8
0
  6
BYBLOCK
  5
A8F
  2
_OPEN30
 10
289.17799
 20
436.040335
 30
0.0
 41
2.5
 42
2.5
 50
270.0
 43
2.5
  0
INSERT
  8
0
  6
BYBLOCK
  5
A90
  2
_OPEN30
 10
289.17799
 20
443.840335
 30
0.0
 41
2.5
 42
2.5
 50
90.0
 43
2.5
  0
TEXT
  8
0
  6
BYBLOCK
  5
A91
 10
288.17799
 20
447.340335
 30
0.0
 40
4.0
  1
%%c7.8
 50
90.0
  7
STANDARD
  0
POINT
  8
DEFPOINTS
  6
BYBLOCK
 62
     0
  5
A92
 10
310.126446
 20
436.040335
 30
0.0
  0
POINT
  8
DEFPOINTS
  6
BYBLOCK
 62
     0
  5
A93
 10
310.126446
 20
443.840335
 30
0.0
  0
POINT
  8
DEFPOINTS
  6
BYBLOCK
 62
     0
  5
A94
 10
289.17799
 20
443.840335
 30
0.0
  0
ENDBLK
  8
0
  5
A95
  0
BLOCK
  8
0
  5
AC0
  2
*D22
 70
    65
 10
0.0
 20
0.0
 30
0.0
  3
*D23
  0
LINE
  8
0
  6
BYBLOCK
  5
AC1
 10
361.126446
 20
436.490335
 30
0.0
 11
361.126446
 21
427.418218
 31
0.0
  0
LINE
  8
0
  6
BYBLOCK
  5
AC2
 10
318.126446
 20
435.040335
 30
0.0
 11
318.126446
 21
427.418218
 31
0.0
  0
LINE
  8
0
  6
BYBLOCK
  5
AC3
 10
358.626446
 20
428.418218
 30
0.0
 11
320.626446
 21
428.418218
 31
0.0
  0
INSERT
  8
0
  6
BYBLOCK
  5
AC4
  2
_OPEN30
 10
361.126446
 20
428.418218
 30
0.0
 41
2.5
 42
2.5
 43
2.5
  0
INSERT
  8
0
  6
BYBLOCK
  5
AC5
  2
_OPEN30
 10
318.126446
 20
428.418218
 30
0.0
 41
2.5
 42
2.5
 50
180.0
 43
2.5
  0
TEXT
  8
0
  6
BYBLOCK
  5
AC6
 10
336.293112
 20
429.418218
 30
0.0
 40
4.0
  1
43
  7
STANDARD
  0
POINT
  8
DEFPOINTS
  6
BYBLOCK
 62
     0
  5
AC7
 10
361.126446
 20
437.490335
 30
0.0
  0
POINT
  8
DEFPOINTS
  6
BYBLOCK
 62
     0
  5
AC8
 10
318.126446
 20
436.040335
 30
0.0
  0
POINT
  8
DEFPOINTS
  6
BYBLOCK
 62
     0
  5
AC9
 10
318.126446
 20
428.418218
 30
0.0
  0
ENDBLK
  8
0
  5
ACA
  0
BLOCK
  8
0
  5
BD4
  2
*D23
 70
    65
 10
0.0
 20
0.0
 30
0.0
  3
*D24
  0
LINE
  8
0
  6
BYBLOCK
  5
BD5
 10
586.701803
 20
423.940335
 30
0.0
 11
611.502926
 21
423.940335
 31
0.0
  0
LINE
  8
0
  6
BYBLOCK
  5
BD6
 10
586.701803
 20
371.940335
 30
0.0
 11
611.502926
 21
371.940335
 31
0.0
  0
LINE
  8
0
  6
BYBLOCK
  5
BD7
 10
610.502926
 20
421.440335
 30
0.0
 11
610.502926
 21
374.440335
 31
0.0
  0
INSERT
  8
0
  6
BYBLOCK
  5
BD8
  2
_OPEN30
 10
610.502926
 20
423.940335
 30
0.0
 41
2.5
 42
2.5
 50
90.0
 43
2.5
  0
INSERT
  8
0
  6
BYBLOCK
  5
BD9
  2
_OPEN30
 10
610.502926
 20
371.940335
 30
0.0
 41
2.5
 42
2.5
 50
270.0
 43
2.5
  0
TEXT
  8
0
  6
BYBLOCK
  5
BDA
 10
609.502926
 20
389.273668
 30
0.0
 40
4.0
  1
Min.52
 50
90.0
  7
STANDARD
  0
POINT
  8
DEFPOINTS
  6
BYBLOCK
 62
     0
  5
BDB
 10
585.701803
 20
423.940335
 30
0.0
  0
POINT
  8
DEFPOINTS
  6
BYBLOCK
 62
     0
  5
BDC
 10
585.701803
 20
371.940335
 30
0.0
  0
POINT
  8
DEFPOINTS
  6
BYBLOCK
 62
     0
  5
BDD
 10
610.502926
 20
371.940335
 30
0.0
  0
ENDBLK
  8
0
  5
BDE
  0
BLOCK
  8
0
  5
BDF
  2
*D24
 70
    65
 10
0.0
 20
0.0
 30
0.0
  3
*D25
  0
LINE
  8
0
  6
BYBLOCK
  5
BE0
 10
537.701803
 20
372.940335
 30
0.0
 11
537.701803
 21
333.872139
 31
0.0
  0
LINE
  8
0
  6
BYBLOCK
  5
BE1
 10
587.701803
 20
372.940335
 30
0.0
 11
587.701803
 21
333.872139
 31
0.0
  0
LINE
  8
0
  6
BYBLOCK
  5
BE2
 10
540.201803
 20
334.872139
 30
0.0
 11
585.201803
 21
334.872139
 31
0.0
  0
INSERT
  8
0
  6
BYBLOCK
  5
BE3
  2
_OPEN30
 10
537.701803
 20
334.872139
 30
0.0
 41
2.5
 42
2.5
 50
180.0
 43
2.5
  0
INSERT
  8
0
  6
BYBLOCK
  5
BE4
  2
_OPEN30
 10
587.701803
 20
334.872139
 30
0.0
 41
2.5
 42
2.5
 43
2.5
  0
TEXT
  8
0
  6
BYBLOCK
  5
BE5
 10
554.368469
 20
335.872139
 30
0.0
 40
4.0
  1
Min.50
  7
STANDARD
  0
POINT
  8
DEFPOINTS
  6
BYBLOCK
 62
     0
  5
BE6
 10
537.701803
 20
373.940335
 30
0.0
  0
POINT
  8
DEFPOINTS
  6
BYBLOCK
 62
     0
  5
BE7
 10
587.701803
 20
373.940335
 30
0.0
  0
POINT
  8
DEFPOINTS
  6
BYBLOCK
 62
     0
  5
BE8
 10
587.701803
 20
334.872139
 30
0.0
  0
ENDBLK
  8
0
  5
BE9
  0
BLOCK
  8
0
  5
BCC
  2
*D25
 70
    65
 10
0.0
 20
0.0
 30
0.0
  3
*D26
  0
LINE
  8
0
  6
BYBLOCK
  5
BCD
 10
510.555229
 20
449.079925
 30
0.0
 11
538.238093
 21
423.303256
 31
0.0
  0
TEXT
  8
0
  6
BYBLOCK
  5
BCE
 10
511.968544
 20
449.13032
 30
0.0
 40
4.0
  1
Max.R2
 50
317.042118
  7
STANDARD
  0
LINE
  8
0
  6
BYBLOCK
  5
BCF
 10
539.701803
 20
421.940335
 30
0.0
 11
538.238093
 21
423.303256
 31
0.0
  0
INSERT
  8
0
  6
BYBLOCK
  5
BD0
  2
_OPEN30
 10
538.238093
 20
423.303256
 30
0.0
 41
2.5
 42
2.5
 50
317.042118
 43
2.5
  0
POINT
  8
DEFPOINTS
  6
BYBLOCK
 62
     0
  5
BD1
 10
538.238093
 20
423.303256
 30
0.0
  0
POINT
  8
DEFPOINTS
  6
BYBLOCK
 62
     0
  5
BD2
 10
539.701803
 20
421.940335
 30
0.0
  0
ENDBLK
  8
0
  5
BD3
  0
BLOCK
  8
0
  5
B58
  2
*D26
 70
    65
 10
0.0
 20
0.0
 30
0.0
  3
*D27
  0
LINE
  8
0
  6
BYBLOCK
  5
B59
 10
134.457705
 20
383.391463
 30
0.0
 11
134.457705
 21
380.710149
 31
0.0
  0
LINE
  8
0
  6
BYBLOCK
  5
B5A
 10
158.457691
 20
383.391463
 30
0.0
 11
158.457691
 21
380.710149
 31
0.0
  0
LINE
  8
0
  6
BYBLOCK
  5
B5B
 10
136.957705
 20
381.710149
 30
0.0
 11
155.957691
 21
381.710149
 31
0.0
  0
INSERT
  8
0
  6
BYBLOCK
  5
B5C
  2
_OPEN30
 10
134.457705
 20
381.710149
 30
0.0
 41
2.5
 42
2.5
 50
180.0
 43
2.5
  0
INSERT
  8
0
  6
BYBLOCK
  5
B5D
  2
_OPEN30
 10
158.457691
 20
381.710149
 30
0.0
 41
2.5
 42
2.5
 43
2.5
  0
TEXT
  8
0
  6
BYBLOCK
  5
B5E
 10
143.124365
 20
382.710149
 30
0.0
 40
4.0
  1
24
  7
STANDARD
  0
POINT
  8
DEFPOINTS
  6
BYBLOCK
 62
     0
  5
B5F
 10
134.457705
 20
384.391463
 30
0.0
  0
POINT
  8
DEFPOINTS
  6
BYBLOCK
 62
     0
  5
B60
 10
158.457691
 20
384.391463
 30
0.0
  0
POINT
  8
DEFPOINTS
  6
BYBLOCK
 62
     0
  5
B61
 10
158.457691
 20
381.710149
 30
0.0
  0
ENDBLK
  8
0
  5
B62
  0
BLOCK
  8
0
  5
B7A
  2
*D27
 70
    65
 10
0.0
 20
0.0
 30
0.0
  3
*D28
  0
LINE
  8
0
  6
BYBLOCK
  5
B7B
 10
134.457705
 20
393.39509
 30
0.0
 11
134.457705
 21
388.86876
 31
0.0
  0
LINE
  8
0
  6
BYBLOCK
  5
B7C
 10
156.45769
 20
393.39509
 30
0.0
 11
156.45769
 21
388.86876
 31
0.0
  0
LINE
  8
0
  6
BYBLOCK
  5
B7D
 10
136.957705
 20
389.86876
 30
0.0
 11
153.95769
 21
389.86876
 31
0.0
  0
INSERT
  8
0
  6
BYBLOCK
  5
B7E
  2
_OPEN30
 10
134.457705
 20
389.86876
 30
0.0
 41
2.5
 42
2.5
 50
180.0
 43
2.5
  0
INSERT
  8
0
  6
BYBLOCK
  5
B7F
  2
_OPEN30
 10
156.45769
 20
389.86876
 30
0.0
 41
2.5
 42
2.5
 43
2.5
  0
TEXT
  8
0
  6
BYBLOCK
  5
B80
 10
142.124364
 20
390.86876
 30
0.0
 40
4.0
  1
22
  7
STANDARD
  0
POINT
  8
DEFPOINTS
  6
BYBLOCK
 62
     0
  5
B81
 10
134.457705
 20
394.39509
 30
0.0
  0
POINT
  8
DEFPOINTS
  6
BYBLOCK
 62
     0
  5
B82
 10
156.45769
 20
394.39509
 30
0.0
  0
POINT
  8
DEFPOINTS
  6
BYBLOCK
 62
     0
  5
B83
 10
156.45769
 20
389.86876
 30
0.0
  0
ENDBLK
  8
0
  5
B84
  0
BLOCK
  8
0
  5
1DE3
  2
*D28
 70
    65
 10
0.0
 20
0.0
 30
0.0
  3
*D30
  0
LINE
  8
0
  6
BYBLOCK
  5
1DE4
 10
353.829119
 20
353.877765
 30
0.0
 11
353.829119
 21
324.24408
 31
0.0
  0
LINE
  8
0
  6
BYBLOCK
  5
1DE5
 10
302.829119
 20
349.740335
 30
0.0
 11
302.829119
 21
324.24408
 31
0.0
  0
LINE
  8
0
  6
BYBLOCK
  5
1DE6
 10
351.329119
 20
325.24408
 30
0.0
 11
305.329119
 21
325.24408
 31
0.0
  0
INSERT
  8
0
  6
BYBLOCK
  5
1DE7
  2
_OPEN30
 10
353.829119
 20
325.24408
 30
0.0
 41
2.5
 42
2.5
 43
2.5
  0
INSERT
  8
0
  6
BYBLOCK
  5
1DE8
  2
_OPEN30
 10
302.829119
 20
325.24408
 30
0.0
 41
2.5
 42
2.5
 50
180.0
 43
2.5
  0
TEXT
  8
0
  6
BYBLOCK
  5
1DE9
 10
325.662453
 20
326.24408
 30
0.0
 40
4.0
  1
51
  7
STANDARD
  0
POINT
  8
DEFPOINTS
  6
BYBLOCK
 62
     0
  5
1DEA
 10
353.829119
 20
354.877765
 30
0.0
  0
POINT
  8
DEFPOINTS
  6
BYBLOCK
 62
     0
  5
1DEB
 10
302.829119
 20
350.740335
 30
0.0
  0
POINT
  8
DEFPOINTS
  6
BYBLOCK
 62
     0
  5
1DEC
 10
302.829119
 20
325.24408
 30
0.0
  0
ENDBLK
  8
0
  5
1DED
  0
BLOCK
  8
0
  5
16B0
  2
*D29
 70
    65
 10
0.0
 20
0.0
 30
0.0
  3
*D31
  0
LINE
  8
0
  6
BYBLOCK
  5
16B1
 10
613.736044
 20
272.114289
 30
0.0
 11
599.138862
 21
256.931674
 31
0.0
  0
LINE
  8
0
  6
BYBLOCK
  5
16B2
 10
591.861605
 20
249.362557
 30
0.0
 11
590.128925
 21
247.560386
 31
0.0
  0
TEXT
  8
0
  6
BYBLOCK
  5
16B3
 10
604.005239
 20
263.436073
 30
0.0
 40
4.0
  1
%%c5.5
 50
46.126216
  7
STANDARD
  0
LINE
  8
0
  6
BYBLOCK
  5
16B4
 10
593.594285
 20
251.164727
 30
0.0
 11
597.406181
 21
255.129503
 31
0.0
  0
INSERT
  8
0
  6
BYBLOCK
  5
16B5
  2
_OPEN30
 10
593.594285
 20
251.164727
 30
0.0
 41
2.5
 42
2.5
 50
46.126216
 43
2.5
  0
INSERT
  8
0
  6
BYBLOCK
  5
16B6
  2
_OPEN30
 10
597.406181
 20
255.129503
 30
0.0
 41
2.5
 42
2.5
 50
226.126216
 43
2.5
  0
POINT
  8
DEFPOINTS
  6
BYBLOCK
 62
     0
  5
16B7
 10
597.406181
 20
255.129503
 30
0.0
  0
POINT
  8
DEFPOINTS
  6
BYBLOCK
 62
     0
  5
16B8
 10
593.594285
 20
251.164727
 30
0.0
  0
ENDBLK
  8
0
  5
16B9
  0
BLOCK
  8
0
  5
1E0F
  2
*D30
 70
    65
 10
0.0
 20
0.0
 30
0.0
  3
*D32
  0
LINE
  8
0
  6
BYBLOCK
  5
1E10
 10
128.372391
 20
447.940335
 30
0.0
 11
90.349683
 21
447.940335
 31
0.0
  0
LINE
  8
0
  6
BYBLOCK
  5
1E11
 10
128.372391
 20
347.940333
 30
0.0
 11
90.349683
 21
347.940333
 31
0.0
  0
LINE
  8
0
  6
BYBLOCK
  5
1E12
 10
91.349683
 20
445.440335
 30
0.0
 11
91.349683
 21
350.440333
 31
0.0
  0
INSERT
  8
0
  6
BYBLOCK
  5
1E13
  2
_OPEN30
 10
91.349683
 20
447.940335
 30
0.0
 41
2.5
 42
2.5
 50
90.0
 43
2.5
  0
INSERT
  8
0
  6
BYBLOCK
  5
1E14
  2
_OPEN30
 10
91.349683
 20
347.940333
 30
0.0
 41
2.5
 42
2.5
 50
270.0
 43
2.5
  0
TEXT
  8
0
  6
BYBLOCK
  5
1E15
 10
90.349683
 20
393.940334
 30
0.0
 40
4.0
  1
100
 50
90.0
  7
STANDARD
  0
POINT
  8
DEFPOINTS
  6
BYBLOCK
 62
     0
  5
1E16
 10
129.372391
 20
447.940335
 30
0.0
  0
POINT
  8
DEFPOINTS
  6
BYBLOCK
 62
     0
  5
1E17
 10
129.372391
 20
347.940333
 30
0.0
  0
POINT
  8
DEFPOINTS
  6
BYBLOCK
 62
     0
  5
1E18
 10
91.349683
 20
347.940333
 30
0.0
  0
ENDBLK
  8
0
  5
1E19
  0
BLOCK
  8
0
  5
1E1C
  2
*D31
 70
    65
 10
0.0
 20
0.0
 30
0.0
  3
*D33
  0
LINE
  8
0
  6
BYBLOCK
  5
1E1D
 10
128.372391
 20
447.940335
 30
0.0
 11
90.349683
 21
447.940335
 31
0.0
  0
LINE
  8
0
  6
BYBLOCK
  5
1E1E
 10
128.672345
 20
457.740336
 30
0.0
 11
90.349683
 21
457.740336
 31
0.0
  0
LINE
  8
0
  6
BYBLOCK
  5
1E1F
 10
91.349683
 20
450.440335
 30
0.0
 11
91.349683
 21
455.240336
 31
0.0
  0
LINE
  8
0
  6
BYBLOCK
  5
1E20
 10
91.349683
 20
457.740336
 30
0.0
 11
91.349683
 21
470.240336
 31
0.0
  0
INSERT
  8
0
  6
BYBLOCK
  5
1E21
  2
_OPEN30
 10
91.349683
 20
447.940335
 30
0.0
 41
2.5
 42
2.5
 50
270.0
 43
2.5
  0
INSERT
  8
0
  6
BYBLOCK
  5
1E22
  2
_OPEN30
 10
91.349683
 20
457.740336
 30
0.0
 41
2.5
 42
2.5
 50
90.0
 43
2.5
  0
TEXT
  8
0
  6
BYBLOCK
  5
1E23
 10
90.349683
 20
461.240336
 30
0.0
 40
4.0
  1
9.8
 50
90.0
  7
STANDARD
  0
POINT
  8
DEFPOINTS
  6
BYBLOCK
 62
     0
  5
1E24
 10
129.372391
 20
447.940335
 30
0.0
  0
POINT
  8
DEFPOINTS
  6
BYBLOCK
 62
     0
  5
1E25
 10
129.672345
 20
457.740336
 30
0.0
  0
POINT
  8
DEFPOINTS
  6
BYBLOCK
 62
     0
  5
1E26
 10
91.349683
 20
457.740336
 30
0.0
  0
ENDBLK
  8
0
  5
1E27
  0
BLOCK
  8
0
  5
1E2A
  2
*D32
 70
    65
 10
0.0
 20
0.0
 30
0.0
  3
*D34
  0
LINE
  8
0
  6
BYBLOCK
  5
1E2B
 10
128.372391
 20
347.940333
 30
0.0
 11
90.349683
 21
347.940333
 31
0.0
  0
LINE
  8
0
  6
BYBLOCK
  5
1E2C
 10
128.672773
 20
338.140334
 30
0.0
 11
90.349683
 21
338.140334
 31
0.0
  0
LINE
  8
0
  6
BYBLOCK
  5
1E2D
 10
91.349683
 20
345.440333
 30
0.0
 11
91.349683
 21
340.640334
 31
0.0
  0
LINE
  8
0
  6
BYBLOCK
  5
1E2E
 10
91.349683
 20
338.140334
 30
0.0
 11
91.349683
 21
325.640334
 31
0.0
  0
INSERT
  8
0
  6
BYBLOCK
  5
1E2F
  2
_OPEN30
 10
91.349683
 20
347.940333
 30
0.0
 41
2.5
 42
2.5
 50
90.0
 43
2.5
  0
INSERT
  8
0
  6
BYBLOCK
  5
1E30
  2
_OPEN30
 10
91.349683
 20
338.140334
 30
0.0
 41
2.5
 42
2.5
 50
270.0
 43
2.5
  0
TEXT
  8
0
  6
BYBLOCK
  5
1E31
 10
90.349683
 20
326.640334
 30
0.0
 40
4.0
  1
9.8
 50
90.0
  7
STANDARD
  0
POINT
  8
DEFPOINTS
  6
BYBLOCK
 62
     0
  5
1E32
 10
129.372391
 20
347.940333
 30
0.0
  0
POINT
  8
DEFPOINTS
  6
BYBLOCK
 62
     0
  5
1E33
 10
129.672773
 20
338.140334
 30
0.0
  0
POINT
  8
DEFPOINTS
  6
BYBLOCK
 62
     0
  5
1E34
 10
91.349683
 20
338.140334
 30
0.0
  0
ENDBLK
  8
0
  5
1E35
  0
BLOCK
  8
0
  5
1E7B
  2
*X33
 70
    65
 10
0.0
 20
0.0
 30
0.0
  3
*X35
  0
LINE
  8
F02_DIM
 62
     0
  5
1E66
 10
435.536957
 20
245.147115
 30
0.0
 11
436.440039
 21
246.050197
 31
0.0
  0
LINE
  8
F02_DIM
 62
     0
  5
1E67
 10
432.70853
 20
245.147115
 30
0.0
 11
436.440039
 21
248.878624
 31
0.0
  0
LINE
  8
F02_DIM
 62
     0
  5
1E68
 10
432.440039
 20
247.707051
 30
0.0
 11
436.440039
 21
251.707051
 31
0.0
  0
LINE
  8
F02_DIM
 62
     0
  5
1E69
 10
432.440039
 20
250.535478
 30
0.0
 11
436.440039
 21
254.535478
 31
0.0
  0
LINE
  8
F02_DIM
 62
     0
  5
1E6A
 10
432.440039
 20
253.363905
 30
0.0
 11
436.440039
 21
257.363905
 31
0.0
  0
LINE
  8
F02_DIM
 62
     0
  5
1E6B
 10
432.440039
 20
256.192332
 30
0.0
 11
436.440039
 21
260.192332
 31
0.0
  0
LINE
  8
F02_DIM
 62
     0
  5
1E6C
 10
432.440039
 20
259.020759
 30
0.0
 11
436.440039
 21
263.020759
 31
0.0
  0
LINE
  8
F02_DIM
 62
     0
  5
1E6D
 10
430.737968
 20
260.147116
 30
0.0
 11
436.051402
 21
265.46055
 31
0.0
  0
LINE
  8
F02_DIM
 62
     0
  5
1E6E
 10
427.909541
 20
260.147116
 30
0.0
 11
433.222975
 21
265.46055
 31
0.0
  0
LINE
  8
F02_DIM
 62
     0
  5
1E6F
 10
412.90954
 20
245.147115
 30
0.0
 11
415.440039
 21
247.677614
 31
0.0
  0
LINE
  8
F02_DIM
 62
     0
  5
1E70
 10
425.081113
 20
260.147116
 30
0.0
 11
430.394548
 21
265.46055
 31
0.0
  0
LINE
  8
F02_DIM
 62
     0
  5
1E71
 10
411.440039
 20
246.506041
 30
0.0
 11
415.440039
 21
250.506041
 31
0.0
  0
LINE
  8
F02_DIM
 62
     0
  5
1E72
 10
422.252686
 20
260.147116
 30
0.0
 11
427.566121
 21
265.46055
 31
0.0
  0
LINE
  8
F02_DIM
 62
     0
  5
1E73
 10
411.440039
 20
249.334468
 30
0.0
 11
415.440039
 21
253.334468
 31
0.0
  0
LINE
  8
F02_DIM
 62
     0
  5
1E74
 10
419.424259
 20
260.147116
 30
0.0
 11
424.737694
 21
265.46055
 31
0.0
  0
LINE
  8
F02_DIM
 62
     0
  5
1E75
 10
411.440039
 20
252.162895
 30
0.0
 11
415.440039
 21
256.162895
 31
0.0
  0
LINE
  8
F02_DIM
 62
     0
  5
1E76
 10
416.595832
 20
260.147116
 30
0.0
 11
421.909266
 21
265.46055
 31
0.0
  0
LINE
  8
F02_DIM
 62
     0
  5
1E77
 10
411.440039
 20
254.991322
 30
0.0
 11
415.440039
 21
258.991322
 31
0.0
  0
LINE
  8
F02_DIM
 62
     0
  5
1E78
 10
411.440039
 20
257.819749
 30
0.0
 11
419.080839
 21
265.46055
 31
0.0
  0
LINE
  8
F02_DIM
 62
     0
  5
1E79
 10
411.440039
 20
260.648176
 30
0.0
 11
416.252412
 21
265.46055
 31
0.0
  0
LINE
  8
F02_DIM
 62
     0
  5
1E7A
 10
411.440039
 20
263.476604
 30
0.0
 11
413.423985
 21
265.46055
 31
0.0
  0
ENDBLK
  8
0
  5
1E7C
  0
BLOCK
  8
0
  5
1E98
  2
*X34
 70
    65
 10
0.0
 20
0.0
 30
0.0
  3
*X36
  0
LINE
  8
F02_DIM
 62
     0
  5
1E7E
 10
505.212266
 20
245.147116
 30
0.0
 11
507.261007
 21
247.195857
 31
0.0
  0
LINE
  8
F02_DIM
 62
     0
  5
1E7F
 10
502.383839
 20
245.147116
 30
0.0
 11
507.261007
 21
250.024284
 31
0.0
  0
LINE
  8
F02_DIM
 62
     0
  5
1E80
 10
499.555412
 20
245.147116
 30
0.0
 11
507.261007
 21
252.852711
 31
0.0
  0
LINE
  8
F02_DIM
 62
     0
  5
1E81
 10
496.726984
 20
245.147116
 30
0.0
 11
507.261007
 21
255.681139
 31
0.0
  0
LINE
  8
F02_DIM
 62
     0
  5
1E82
 10
493.898557
 20
245.147116
 30
0.0
 11
507.261007
 21
258.509566
 31
0.0
  0
LINE
  8
F02_DIM
 62
     0
  5
1E83
 10
495.761007
 20
249.837992
 30
0.0
 11
507.261007
 21
261.337993
 31
0.0
  0
LINE
  8
F02_DIM
 62
     0
  5
1E84
 10
491.07013
 20
245.147116
 30
0.0
 11
494.07013
 21
248.147115
 31
0.0
  0
LINE
  8
F02_DIM
 62
     0
  5
1E85
 10
495.761007
 20
252.666419
 30
0.0
 11
507.261007
 21
264.16642
 31
0.0
  0
LINE
  8
F02_DIM
 62
     0
  5
1E86
 10
488.241703
 20
245.147116
 30
0.0
 11
491.241703
 21
248.147115
 31
0.0
  0
LINE
  8
F02_DIM
 62
     0
  5
1E87
 10
495.761007
 20
255.494846
 30
0.0
 11
505.713276
 21
265.447116
 31
0.0
  0
LINE
  8
F02_DIM
 62
     0
  5
1E88
 10
485.761007
 20
245.494846
 30
0.0
 11
488.413276
 21
248.147115
 31
0.0
  0
LINE
  8
F02_DIM
 62
     0
  5
1E89
 10
495.584849
 20
258.147115
 30
0.0
 11
502.884849
 21
265.447116
 31
0.0
  0
LINE
  8
F02_DIM
 62
     0
  5
1E8A
 10
492.756422
 20
258.147115
 30
0.0
 11
500.056422
 21
265.447116
 31
0.0
  0
LINE
  8
F02_DIM
 62
     0
  5
1E8B
 10
489.927994
 20
258.147115
 30
0.0
 11
497.227995
 21
265.447116
 31
0.0
  0
LINE
  8
F02_DIM
 62
     0
  5
1E8C
 10
487.099567
 20
258.147115
 30
0.0
 11
494.399567
 21
265.447116
 31
0.0
  0
LINE
  8
F02_DIM
 62
     0
  5
1E8D
 10
485.761007
 20
259.636982
 30
0.0
 11
491.57114
 21
265.447116
 31
0.0
  0
LINE
  8
F02_DIM
 62
     0
  5
1E8E
 10
483.45834
 20
260.162742
 30
0.0
 11
488.742713
 21
265.447116
 31
0.0
  0
LINE
  8
F02_DIM
 62
     0
  5
1E8F
 10
480.648978
 20
260.181807
 30
0.0
 11
485.914286
 21
265.447116
 31
0.0
  0
LINE
  8
F02_DIM
 62
     0
  5
1E90
 10
477.839615
 20
260.200872
 30
0.0
 11
483.085859
 21
265.447116
 31
0.0
  0
LINE
  8
F02_DIM
 62
     0
  5
1E91
 10
475.030253
 20
260.219937
 30
0.0
 11
480.257432
 21
265.447116
 31
0.0
  0
LINE
  8
F02_DIM
 62
     0
  5
1E92
 10
472.220891
 20
260.239002
 30
0.0
 11
477.429005
 21
265.447116
 31
0.0
  0
LINE
  8
F02_DIM
 62
     0
  5
1E93
 10
469.411529
 20
260.258067
 30
0.0
 11
474.600578
 21
265.447116
 31
0.0
  0
LINE
  8
F02_DIM
 62
     0
  5
1E94
 10
466.602167
 20
260.277132
 30
0.0
 11
471.77215
 21
265.447116
 31
0.0
  0
LINE
  8
F02_DIM
 62
     0
  5
1E95
 10
463.792805
 20
260.296197
 30
0.0
 11
468.943723
 21
265.447116
 31
0.0
  0
LINE
  8
F02_DIM
 62
     0
  5
1E96
 10
462.461018
 20
261.792838
 30
0.0
 11
466.115296
 21
265.447116
 31
0.0
  0
LINE
  8
F02_DIM
 62
     0
  5
1E97
 10
462.461018
 20
264.621265
 30
0.0
 11
463.286869
 21
265.447116
 31
0.0
  0
ENDBLK
  8
0
  5
1E99
  0
ENDSEC
  0
SECTION
  2
ENTITIES
  0
LINE
  8
F03_CNT
  5
125
 10
172.772345
 20
387.340478
 30
0.0
 11
172.772345
 21
381.540478
 31
0.0
  0
LINE
  8
F01_OUT
  5
138
 10
477.702959
 20
260.147115
 30
0.0
 11
479.700252
 21
260.147115
 31
0.0
  0
LINE
  8
F01_OUT
  5
13C
 10
483.261007
 20
245.397115
 30
0.0
 11
485.761007
 21
245.397115
 31
0.0
  0
LINE
  8
F01_OUT
  5
13E
 10
483.261007
 20
260.147115
 30
0.0
 11
483.261007
 21
245.397115
 31
0.0
  0
LINE
  8
F01_OUT
  5
149
 10
507.261007
 20
245.147115
 30
0.0
 11
507.261007
 21
265.447115
 31
0.0
  0
LINE
  8
F01_OUT
  5
14A
 10
411.440038
 20
245.147115
 30
0.0
 11
436.440038
 21
245.147115
 31
0.0
  0
LINE
  8
F01_OUT
  5
14B
 10
415.440038
 20
260.147115
 30
0.0
 11
432.440038
 21
260.147115
 31
0.0
  0
LINE
  8
F01_OUT
  5
14C
 10
432.440038
 20
260.147115
 30
0.0
 11
432.440038
 21
245.147115
 31
0.0
  0
LINE
  8
F01_OUT
  5
14D
 10
415.440038
 20
260.147115
 30
0.0
 11
415.440038
 21
245.147115
 31
0.0
  0
LINE
  8
F01_OUT
  5
14E
 10
495.761007
 20
258.147115
 30
0.0
 11
495.761007
 21
248.147115
 31
0.0
  0
LINE
  8
F01_OUT
  5
14F
 10
485.761007
 20
258.147115
 30
0.0
 11
495.761007
 21
258.147115
 31
0.0
  0
LINE
  8
F01_OUT
  5
150
 10
485.761007
 20
248.147115
 30
0.0
 11
495.761007
 21
248.147115
 31
0.0
  0
LINE
  8
F01_OUT
  5
151
 10
485.761007
 20
260.147115
 30
0.0
 11
485.761007
 21
245.147115
 31
0.0
  0
LINE
  8
F01_OUT
  5
152
 10
462.461019
 20
260.147115
 30
0.0
 11
485.761007
 21
260.147115
 31
0.0
  0
LINE
  8
F01_OUT
  5
153
 10
469.461019
 20
245.147115
 30
0.0
 11
507.261007
 21
245.147115
 31
0.0
  0
LINE
  8
F01_OUT
  5
169
 10
588.500233
 20
260.647115
 30
0.0
 11
588.500233
 21
245.647115
 31
0.0
  0
LINE
  8
F01_OUT
  5
16A
 10
588.500233
 20
260.647115
 30
0.0
 11
617.876317
 21
260.647115
 31
0.0
  0
LINE
  8
F01_OUT
  5
16B
 10
588.500233
 20
245.647115
 30
0.0
 11
617.876317
 21
245.647115
 31
0.0
  0
LINE
  8
F03_CNT
  5
17A
 10
140.072405
 20
362.015346
 30
0.0
 11
140.072405
 21
349.865321
 31
0.0
  0
LINE
  8
F03_CNT
  5
17B
 10
140.072405
 20
445.076007
 30
0.0
 11
140.072405
 21
430.808428
 31
0.0
  0
LINE
  8
F03_CNT
  5
17D
 10
133.997393
 20
355.940334
 30
0.0
 11
146.147387
 21
355.940334
 31
0.0
  0
LINE
  8
F03_CNT
  5
17E
 10
158.997394
 20
355.940334
 30
0.0
 11
171.147388
 21
355.940334
 31
0.0
  0
LINE
  8
F03_CNT
  5
17F
 10
165.072375
 20
362.015346
 30
0.0
 11
165.072375
 21
349.865321
 31
0.0
  0
LINE
  8
F03_CNT
  5
180
 10
133.997393
 20
437.940335
 30
0.0
 11
146.147387
 21
437.940335
 31
0.0
  0
LINE
  8
F03_CNT
  5
181
 10
165.072375
 20
445.076007
 30
0.0
 11
165.072375
 21
430.808428
 31
0.0
  0
LINE
  8
F03_CNT
  5
183
 10
122.783567
 20
397.940335
 30
0.0
 11
181.791549
 21
397.940335
 31
0.0
  0
LINE
  8
F03_CNT
  5
186
 10
268.638658
 20
397.940335
 30
0.0
 11
357.774541
 21
397.940335
 31
0.0
  0
LINE
  8
F03_CNT
  5
187
 10
152.57233
 20
463.212805
 30
0.0
 11
152.57233
 21
333.341703
 31
0.0
  0
CIRCLE
  8
F01_OUT
  5
195
 10
172.772345
 20
384.440478
 30
0.0
 40
1.9
  0
ARC
  8
F01_OUT
  5
196
 10
175.07236
 20
421.940305
 30
0.0
 40
1.0
 50
0.0
 51
90.0
  0
ARC
  8
F01_OUT
  5
197
 10
128.925897
 20
373.293857
 30
0.0
 40
0.353553
 50
180.0
 51
270.0
  0
CIRCLE
  8
F01_OUT
  5
198
 10
152.57239
 20
439.940275
 30
0.0
 40
2.45
  0
ARC
  8
F01_OUT
  5
199
 10
152.57239
 20
439.940275
 30
0.0
 40
3.9
 50
104.478333
 51
37.303102
  0
ARC
  8
F01_OUT
  5
19A
 10
156.072329
 20
442.606813
 30
0.0
 40
0.5
 50
180.0
 51
217.303102
  0
ARC
  8
F01_OUT
  5
19B
 10
151.472329
 20
444.200541
 30
0.0
 40
0.5
 50
284.478333
 51
0.0
  0
ARC
  8
F01_OUT
  5
19C
 10
149.072329
 20
353.274016
 30
0.0
 40
0.5
 50
0.0
 51
37.300479
  0
ARC
  8
F01_OUT
  5
19D
 10
153.672329
 20
351.680097
 30
0.0
 40
0.5
 50
104.476692
 51
179.999991
  0
CIRCLE
  8
F01_OUT
  5
19E
 10
152.57239
 20
355.940395
 30
0.0
 40
2.45
  0
ARC
  8
F01_OUT
  5
19F
 10
128.925897
 20
422.586751
 30
0.0
 40
0.353553
 50
90.0
 51
180.0
  0
ARC
  8
F01_OUT
  5
1A0
 10
150.218776
 20
422.586751
 30
0.0
 40
0.353553
 50
0.0
 51
90.0
  0
ARC
  8
F01_OUT
  5
1A1
 10
175.07233
 20
373.940304
 30
0.0
 40
1.0
 50
270.0
 51
359.999999
  0
ARC
  8
F01_OUT
  5
1A2
 10
152.57239
 20
355.940395
 30
0.0
 40
3.9
 50
284.476692
 51
217.300479
  0
ARC
  8
F01_OUT
  5
1A3
 10
150.218776
 20
373.293857
 30
0.0
 40
0.353553
 50
270.0
 51
0.0
  0
LINE
  8
F01_OUT
  5
1A4
 10
175.772269
 20
351.690334
 30
0.0
 11
177.57233
 21
351.690334
 31
0.0
  0
LINE
  8
F01_OUT
  5
1A5
 10
175.772269
 20
351.690334
 30
0.0
 11
175.772269
 21
347.940333
 31
0.0
  0
LINE
  8
F01_OUT
  5
1A6
 10
177.57233
 20
444.190336
 30
0.0
 11
177.57233
 21
351.690334
 31
0.0
  0
LINE
  8
F01_OUT
  5
1A7
 10
175.772269
 20
444.190336
 30
0.0
 11
175.772269
 21
447.940335
 31
0.0
  0
LINE
  8
F01_OUT
  5
1A8
 10
175.772269
 20
444.190336
 30
0.0
 11
177.57233
 21
444.190336
 31
0.0
  0
LINE
  8
F01_OUT
  5
1A9
 10
175.07236
 20
422.940305
 30
0.0
 11
128.925897
 21
422.940305
 31
0.0
  0
LINE
  8
F01_OUT
  5
1AA
 10
157.572329
 20
359.940335
 30
0.0
 11
147.572329
 21
359.940335
 31
0.0
  0
LINE
  8
F01_OUT
  5
1AB
 10
147.572329
 20
430.940335
 30
0.0
 11
132.572329
 21
430.940335
 31
0.0
  0
LINE
  8
F01_OUT
  5
1AC
 10
177.57233
 20
435.840299
 30
0.0
 11
172.57233
 21
435.840299
 31
0.0
  0
LINE
  8
F01_OUT
  5
1AD
 10
177.57233
 20
359.940335
 30
0.0
 11
172.57233
 21
359.940335
 31
0.0
  0
LINE
  8
F01_OUT
  5
1AE
 10
147.572329
 20
430.940335
 30
0.0
 11
147.572329
 21
447.940335
 31
0.0
  0
LINE
  8
F01_OUT
  5
1AF
 10
172.57233
 20
447.940335
 30
0.0
 11
172.57233
 21
430.940335
 31
0.0
  0
LINE
  8
F01_OUT
  5
1B0
 10
132.572329
 20
447.940335
 30
0.0
 11
132.572329
 21
430.940335
 31
0.0
  0
LINE
  8
F01_OUT
  5
1B1
 10
157.572329
 20
447.940335
 30
0.0
 11
157.572329
 21
430.940335
 31
0.0
  0
LINE
  8
F01_OUT
  5
1B2
 10
157.572329
 20
435.840299
 30
0.0
 11
147.572329
 21
435.840299
 31
0.0
  0
LINE
  8
F01_OUT
  5
1B6
 10
153.172329
 20
351.680097
 30
0.0
 11
153.172329
 21
347.940333
 31
0.0
  0
LINE
  8
F01_OUT
  5
1B7
 10
149.572329
 20
353.274016
 30
0.0
 11
149.572329
 21
347.940333
 31
0.0
  0
LINE
  8
F01_OUT
  5
1B9
 10
149.572329
 20
351.690334
 30
0.0
 11
153.172329
 21
351.690334
 31
0.0
  0
LINE
  8
F01_OUT
  5
1BA
 10
148.67239
 20
355.944288
 30
0.0
 11
148.67239
 21
355.929421
 31
0.0
  0
LINE
  8
F01_OUT
  5
1BC
 10
129.372391
 20
351.690334
 30
0.0
 11
129.372391
 21
347.940333
 31
0.0
  0
LINE
  8
F01_OUT
  5
1BD
 10
129.372391
 20
351.690334
 30
0.0
 11
127.57233
 21
351.690334
 31
0.0
  0
LINE
  8
F01_OUT
  5
1BE
 10
155.572329
 20
442.606813
 30
0.0
 11
155.572329
 21
447.940335
 31
0.0
  0
LINE
  8
F01_OUT
  5
1BF
 10
151.972329
 20
444.190336
 30
0.0
 11
155.572329
 21
444.190336
 31
0.0
  0
LINE
  8
F01_OUT
  5
1C0
 10
129.372391
 20
444.190336
 30
0.0
 11
129.372391
 21
447.940335
 31
0.0
  0
LINE
  8
F01_OUT
  5
1C1
 10
129.372391
 20
444.190336
 30
0.0
 11
127.57233
 21
444.190336
 31
0.0
  0
LINE
  8
F01_OUT
  5
1C4
 10
128.572344
 20
422.586751
 30
0.0
 11
128.572344
 21
373.293857
 31
0.0
  0
LINE
  8
F01_OUT
  5
1C5
 10
172.57233
 20
347.940333
 30
0.0
 11
172.57233
 21
362.940334
 31
0.0
  0
LINE
  8
F01_OUT
  5
1C6
 10
147.572329
 20
347.940333
 30
0.0
 11
147.572329
 21
362.940334
 31
0.0
  0
LINE
  8
F01_OUT
  5
1C8
 10
151.972329
 20
444.200541
 30
0.0
 11
151.972329
 21
447.940335
 31
0.0
  0
LINE
  8
F01_OUT
  5
1C9
 10
157.572329
 20
362.940334
 30
0.0
 11
157.572329
 21
347.940333
 31
0.0
  0
LINE
  8
F01_OUT
  5
1CA
 10
132.572329
 20
362.940334
 30
0.0
 11
132.572329
 21
347.940333
 31
0.0
  0
LINE
  8
F01_OUT
  5
1CB
 10
150.572329
 20
422.586751
 30
0.0
 11
150.572329
 21
373.293857
 31
0.0
  0
LINE
  8
F01_OUT
  5
1CD
 10
127.57233
 20
444.190336
 30
0.0
 11
127.57233
 21
351.690334
 31
0.0
  0
LINE
  8
F01_OUT
  5
1CE
 10
176.07233
 20
421.940305
 30
0.0
 11
176.07233
 21
373.940304
 31
0.0
  0
LINE
  8
F01_OUT
  5
1CF
 10
128.925897
 20
372.940304
 30
0.0
 11
175.07233
 21
372.940304
 31
0.0
  0
LINE
  8
F01_OUT
  5
1D0
 10
172.57233
 20
430.940335
 30
0.0
 11
157.572329
 21
430.940335
 31
0.0
  0
ARC
  8
F01_OUT
  5
1D6
 10
135.772329
 20
417.575653
 30
0.0
 40
1.75
 50
90.0
 51
180.0
  0
ARC
  8
F01_OUT
  5
1D7
 10
144.372337
 20
417.575653
 30
0.0
 40
1.75
 50
0.0
 51
90.0
  0
LINE
  8
F01_OUT
  5
1D8
 10
134.022329
 20
417.575653
 30
0.0
 11
134.022329
 21
401.840365
 31
0.0
  0
LINE
  8
F01_OUT
  5
1D9
 10
146.122337
 20
417.575653
 30
0.0
 11
146.122337
 21
401.840365
 31
0.0
  0
LINE
  8
F01_OUT
  5
1DA
 10
146.122337
 20
413.040365
 30
0.0
 11
146.572344
 21
413.040365
 31
0.0
  0
LINE
  8
F01_OUT
  5
1DB
 10
145.425435
 20
415.217868
 30
0.0
 11
134.808009
 21
415.217868
 31
0.0
  0
LINE
  8
F01_OUT
  5
1DC
 10
144.372337
 20
419.325653
 30
0.0
 11
135.772329
 21
419.325653
 31
0.0
  0
LINE
  8
F01_OUT
  5
1DD
 10
133.572329
 20
401.840365
 30
0.0
 11
146.572344
 21
401.840365
 31
0.0
  0
LINE
  8
F01_OUT
  5
1DE
 10
133.572329
 20
413.040365
 30
0.0
 11
134.022329
 21
413.040365
 31
0.0
  0
LINE
  8
F01_OUT
  5
1DF
 10
146.572344
 20
416.190365
 30
0.0
 11
146.572344
 21
398.690365
 31
0.0
  0
LINE
  8
F01_OUT
  5
1E0
 10
133.572329
 20
416.190365
 30
0.0
 11
133.572329
 21
398.690365
 31
0.0
  0
LINE
  8
F01_OUT
  5
1E1
 10
133.572329
 20
398.690365
 30
0.0
 11
146.572344
 21
398.690365
 31
0.0
  0
LINE
  8
F01_OUT
  5
1E2
 10
133.572329
 20
416.190365
 30
0.0
 11
134.022329
 21
416.190365
 31
0.0
  0
LINE
  8
F01_OUT
  5
1E3
 10
146.122337
 20
416.190365
 30
0.0
 11
146.572344
 21
416.190365
 31
0.0
  0
LINE
  8
F01_OUT
  5
1E4
 10
134.022329
 20
407.219416
 30
0.0
 11
146.122337
 21
407.219416
 31
0.0
  0
LINE
  8
F01_OUT
  5
1E5
 10
149.572337
 20
421.940335
 30
0.0
 11
129.572337
 21
421.940335
 31
0.0
  0
LINE
  8
F01_OUT
  5
1E6
 10
129.572337
 20
421.940335
 30
0.0
 11
129.572337
 21
373.940335
 31
0.0
  0
LINE
  8
F01_OUT
  5
1E7
 10
149.572337
 20
421.940335
 30
0.0
 11
149.572337
 21
373.940335
 31
0.0
  0
LINE
  8
F01_OUT
  5
1E8
 10
149.572337
 20
373.940335
 30
0.0
 11
129.572337
 21
373.940335
 31
0.0
  0
LINE
  8
F01_OUT
  5
1E9
 10
129.572337
 20
373.940335
 30
0.0
 11
128.572337
 21
373.362984
 31
0.0
  0
LINE
  8
F01_OUT
  5
1EA
 10
149.572337
 20
373.940335
 30
0.0
 11
150.572337
 21
373.362984
 31
0.0
  0
LINE
  8
F01_OUT
  5
1EB
 10
129.572337
 20
421.940335
 30
0.0
 11
128.572337
 21
422.517685
 31
0.0
  0
LINE
  8
F01_OUT
  5
1EC
 10
149.572337
 20
421.940335
 30
0.0
 11
150.572337
 21
422.517685
 31
0.0
  0
LINE
  8
F01_OUT
  5
1ED
 10
282.829119
 20
422.17843
 30
0.0
 11
282.829119
 21
373.690335
 31
0.0
  0
LINE
  8
F01_OUT
  5
1EE
 10
302.829119
 20
444.190335
 30
0.0
 11
353.287048
 21
444.190335
 31
0.0
  0
LINE
  8
F01_OUT
  5
1EF
 10
302.829119
 20
351.690335
 30
0.0
 11
353.287038
 21
351.690335
 31
0.0
  0
ARC
  8
F01_OUT
  5
1F0
 10
294.329119
 20
360.440335
 30
0.0
 40
0.5
 50
180.0
 51
270.0
  0
ARC
  8
F01_OUT
  5
1F1
 10
294.329119
 20
435.440335
 30
0.0
 40
0.5
 50
90.0
 51
180.0
  0
LINE
  8
F01_OUT
  5
1F2
 10
351.028959
 20
382.290466
 30
0.0
 11
353.328959
 21
379.990466
 31
0.0
  0
LINE
  8
F01_OUT
  5
1F3
 10
350.388177
 20
380.290466
 30
0.0
 11
350.528959
 21
380.290466
 31
0.0
  0
LINE
  8
F01_OUT
  5
1F4
 10
351.028959
 20
382.290466
 30
0.0
 11
350.528959
 21
380.290466
 31
0.0
  0
LINE
  8
F01_OUT
  5
1F5
 10
353.328959
 20
379.990466
 30
0.0
 11
353.431541
 21
379.030579
 31
0.0
  0
LINE
  8
F01_OUT
  5
1F6
 10
302.829119
 20
359.940335
 30
0.0
 11
302.829119
 21
350.740335
 31
0.0
  0
ARC
  8
F01_OUT
  5
1F7
 10
351.829119
 20
377.833815
 30
0.0
 40
2.0
 50
0.0
 51
75.0
  0
LINE
  8
F01_OUT
  5
1F8
 10
350.079119
 20
380.373278
 30
0.0
 11
352.346757
 21
379.765666
 31
0.0
  0
LINE
  8
F01_OUT
  5
1F9
 10
285.829119
 20
422.940335
 30
0.0
 11
281.829119
 21
421.940335
 31
0.0
  0
LINE
  8
F01_OUT
  5
1FA
 10
285.829119
 20
422.940335
 30
0.0
 11
285.829119
 21
372.940335
 31
0.0
  0
LINE
  8
F01_OUT
  5
1FB
 10
302.829119
 20
350.740335
 30
0.0
 11
305.629119
 21
347.940335
 31
0.0
  0
LINE
  8
F01_OUT
  5
1FC
 10
302.829119
 20
445.140335
 30
0.0
 11
305.629119
 21
447.940335
 31
0.0
  0
LINE
  8
F01_OUT
  5
1FD
 10
293.829119
 20
422.940335
 30
0.0
 11
285.829119
 21
422.940335
 31
0.0
  0
LINE
  8
F01_OUT
  5
1FE
 10
353.829119
 20
377.833815
 30
0.0
 11
353.829119
 21
354.877765
 31
0.0
  0
ARC
  8
F01_OUT
  5
1FF
 10
351.817678
 20
414.697026
 30
0.0
 40
0.3
 50
190.0
 51
229.0
  0
ARC
  8
F01_OUT
  5
200
 10
351.817678
 20
414.697026
 30
0.0
 40
0.3
 50
190.0
 51
229.0
  0
ARC
  8
F01_OUT
  5
201
 10
350.960711
 20
445.940335
 30
0.0
 40
2.0
 50
9.651861
 51
90.0
  0
ARC
  8
F01_OUT
  5
202
 10
353.329089
 20
413.740384
 30
0.0
 40
0.5
 50
270.0
 51
0.0
  0
ARC
  8
F01_OUT
  5
203
 10
350.9607
 20
349.940335
 30
0.0
 40
2.0
 50
270.0
 51
350.348137
  0
ARC
  8
F01_OUT
  5
204
 10
273.794954
 20
417.575482
 30
0.0
 40
1.75
 50
68.0
 51
158.0
  0
ARC
  8
F01_OUT
  5
205
 10
273.233044
 20
416.184707
 30
0.0
 40
1.75
 50
158.0
 51
248.0
  0
CIRCLE
  8
F01_OUT
  5
206
 10
274.672632
 20
416.412004
 30
0.0
 40
1.0
  0
LINE
  8
F01_OUT
  5
207
 10
350.079119
 20
415.740323
 30
0.0
 11
350.079119
 21
380.373286
 31
0.0
  0
LINE
  8
F01_OUT
  5
208
 10
351.329089
 20
415.740323
 30
0.0
 11
351.522236
 21
414.644932
 31
0.0
  0
LINE
  8
F01_OUT
  5
209
 10
353.036078
 20
413.240384
 30
0.0
 11
353.329089
 21
413.240384
 31
0.0
  0
LINE
  8
F01_OUT
  5
20A
 10
351.62086
 20
414.470614
 30
0.0
 11
353.036078
 21
413.240384
 31
0.0
  0
LINE
  8
F01_OUT
  5
20B
 10
305.629119
 20
447.940335
 30
0.0
 11
350.960711
 21
447.940335
 31
0.0
  0
LINE
  8
F01_OUT
  5
20C
 10
352.93239
 20
349.605012
 30
0.0
 11
353.829119
 21
354.877765
 31
0.0
  0
LINE
  8
F01_OUT
  5
20D
 10
352.9324
 20
446.275657
 30
0.0
 11
353.829119
 21
441.002963
 31
0.0
  0
LINE
  8
F01_OUT
  5
20E
 10
305.629119
 20
347.940335
 30
0.0
 11
350.9607
 21
347.940335
 31
0.0
  0
LINE
  8
F01_OUT
  5
20F
 10
350.079119
 20
415.740323
 30
0.0
 11
351.329089
 21
415.740323
 31
0.0
  0
LINE
  8
F01_OUT
  5
210
 10
353.829119
 20
441.002963
 30
0.0
 11
353.829119
 21
413.740384
 31
0.0
  0
LINE
  8
F01_OUT
  5
211
 10
272.172383
 20
418.231044
 30
0.0
 11
271.610473
 21
416.840268
 31
0.0
  0
LINE
  8
F01_OUT
  5
212
 10
274.450516
 20
419.198054
 30
0.0
 11
281.829119
 21
416.216905
 31
0.0
  0
LINE
  8
F01_OUT
  5
213
 10
272.577483
 20
414.562135
 30
0.0
 11
281.829119
 21
410.824231
 31
0.0
  0
LINE
  8
F01_OUT
  5
214
 10
275.053791
 20
417.336514
 30
0.0
 11
281.829119
 21
414.599103
 31
0.0
  0
LINE
  8
F01_OUT
  5
215
 10
281.829119
 20
412.442045
 30
0.0
 11
274.298015
 21
415.484791
 31
0.0
  0
LINE
  8
F01_OUT
  5
216
 10
302.829119
 20
435.940335
 30
0.0
 11
294.329119
 21
435.940335
 31
0.0
  0
LINE
  8
F01_OUT
  5
217
 10
293.829119
 20
435.440335
 30
0.0
 11
293.829119
 21
360.440335
 31
0.0
  0
LINE
  8
F01_OUT
  5
218
 10
285.829119
 20
372.940335
 30
0.0
 11
293.829119
 21
372.940335
 31
0.0
  0
LINE
  8
F01_OUT
  5
219
 10
281.829119
 20
421.940335
 30
0.0
 11
281.829119
 21
373.940335
 31
0.0
  0
LINE
  8
F01_OUT
  5
21A
 10
302.829119
 20
359.940335
 30
0.0
 11
294.329119
 21
359.940335
 31
0.0
  0
LINE
  8
F01_OUT
  5
21B
 10
302.829119
 20
445.140335
 30
0.0
 11
302.829119
 21
435.940335
 31
0.0
  0
LINE
  8
F01_OUT
  5
21C
 10
285.829119
 20
372.940335
 30
0.0
 11
281.829119
 21
373.940335
 31
0.0
  0
LINE
  8
F01_OUT
  5
21D
 10
129.372391
 20
445.140335
 30
0.0
 11
132.57233
 21
445.140335
 31
0.0
  0
LINE
  8
F01_OUT
  5
21E
 10
175.772269
 20
445.140335
 30
0.0
 11
172.57233
 21
445.140335
 31
0.0
  0
LINE
  8
F01_OUT
  5
21F
 10
175.772269
 20
350.740335
 30
0.0
 11
172.57233
 21
350.740335
 31
0.0
  0
LINE
  8
F01_OUT
  5
220
 10
129.372391
 20
350.740335
 30
0.0
 11
132.57233
 21
350.740335
 31
0.0
  0
LINE
  8
F01_OUT
  5
223
 10
485.761007
 20
257.147115
 30
0.0
 11
483.261007
 21
257.147115
 31
0.0
  0
LINE
  8
F01_OUT
  5
224
 10
485.761007
 20
249.147115
 30
0.0
 11
483.261007
 21
249.147115
 31
0.0
  0
LINE
  8
F04_HID
  5
225
 10
310.829119
 20
437.490335
 30
0.0
 11
353.829119
 21
437.490335
 31
0.0
  0
LINE
  8
F04_HID
  5
226
 10
310.829119
 20
442.390335
 30
0.0
 11
353.829119
 21
442.390335
 31
0.0
  0
LINE
  8
F04_HID
  5
227
 10
302.829119
 20
436.040335
 30
0.0
 11
310.829119
 21
436.040335
 31
0.0
  0
LINE
  8
F04_HID
  5
228
 10
302.829119
 20
443.840335
 30
0.0
 11
310.829119
 21
443.840335
 31
0.0
  0
LINE
  8
F04_HID
  5
229
 10
310.829119
 20
436.040335
 30
0.0
 11
310.829119
 21
443.840335
 31
0.0
  0
LINE
  8
F03_CNT
  5
22C
 10
595.500233
 20
244.947118
 30
0.0
 11
595.500233
 21
261.347112
 31
0.0
  0
LINE
  8
F03_CNT
  5
22D
 10
603.70023
 20
253.147115
 30
0.0
 11
587.300236
 21
253.147115
 31
0.0
  0
LINE
  8
F03_CNT
  5
28F
 10
158.997394
 20
437.940335
 30
0.0
 11
171.147388
 21
437.940335
 31
0.0
  0
INSERT
  8
F01_OUT
  6
CONTINUOUS
  5
3E0
  2
*X34
 10
0.0
 20
0.0
 30
0.0
1001
ACAD
1000
HATCH
1002
{
1070
    19
1000
ANSI31
1040
0.629921
1040
0.0
1000
R14_HATCH_DATA
1000
3E0
1011
1.0
1021
0.0
1031
0.0
1011
0.0
1021
1.0
1031
0.0
1011
0.0
1021
0.0
1031
1.0
1040
0.0
1010
0.0
1020
0.0
1030
1.0
1000
ANSI31
1070
     0
1070
     0
1071
        1
1071
        2
1070
     0
1070
     1
1071
       11
1040
462.461018
1040
260.147116
1040
462.461018
1040
265.447116
1040
507.261007
1040
265.447116
1040
507.261007
1040
245.147116
1040
485.761007
1040
245.147116
1040
485.761007
1040
248.147115
1040
495.761007
1040
248.147115
1040
495.761007
1040
258.147115
1040
485.761007
1040
258.147115
1040
485.761007
1040
260.147116
1040
462.59046
1040
260.304357
1071
        0
1070
     0
1070
     1
1040
0.0
1040
0.629921
1070
     0
1070
     1
1040
0.785398
1040
184.547872
1040
-41.576153
1040
-1.414214
1040
1.414214
1070
     0
1071
        1
1040
184.547872
1040
-41.576153
1040
0.0
1002
}
  0
INSERT
  8
F01_OUT
  6
CONTINUOUS
  5
3E1
  2
*X33
 10
0.0
 20
0.0
 30
0.0
1001
ACAD
1000
HATCH
1002
{
1070
    19
1000
ANSI31
1040
0.629921
1040
0.0
1000
R14_HATCH_DATA
1000
3E1
1011
1.0
1021
0.0
1031
0.0
1011
0.0
1021
1.0
1031
0.0
1011
0.0
1021
0.0
1031
1.0
1040
0.0
1010
0.0
1020
0.0
1030
1.0
1000
ANSI31
1070
     0
1070
     0
1071
        1
1071
        2
1070
     0
1070
     1
1071
        8
1040
436.440039
1040
245.147115
1040
436.440039
1040
265.46055
1040
411.440039
1040
265.46055
1040
411.440039
1040
245.147115
1040
415.440039
1040
245.147115
1040
415.440039
1040
260.147116
1040
432.440039
1040
260.147116
1040
432.440039
1040
245.147115
1071
        0
1070
     0
1070
     1
1040
0.0
1040
0.629921
1070
     0
1070
     1
1040
0.785398
1040
171.441106
1040
-41.576153
1040
-1.414214
1040
1.414214
1070
     0
1071
        1
1040
171.441106
1040
-41.576153
1040
0.0
1002
}
  0
ARC
  8
F02_DIM
  5
3E2
 10
296.879119
 20
407.440335
 30
0.0
 40
27.05
 50
163.666331
 51
180.0
  0
LINE
  8
F03_CNT
  5
3E3
 10
496.661007
 20
253.147115
 30
0.0
 11
472.171463
 21
253.147115
 31
0.0
  0
LINE
  8
F03_CNT
  5
3E4
 10
423.940038
 20
243.397115
 30
0.0
 11
423.940038
 21
262.897115
 31
0.0
  0
LINE
  8
F03_CNT
  5
3E5
 10
433.690038
 20
253.147115
 30
0.0
 11
414.190038
 21
253.147115
 31
0.0
  0
TEXT
  8
F05_PRO
  5
7FF
 10
581.357964
 20
174.852864
 30
0.0
 40
5.0
  1
Dimension : mm
  7
STANDARD
  0
TEXT
  8
F05_PRO
  5
800
 10
149.182828
 20
155.44759
 30
0.0
 40
8.0
  1
Type
  7
STANDARD
  0
ARC
  8
F05_PRO
  5
801
 10
132.519553
 20
164.419168
 30
0.0
 40
8.419574
 50
280.279158
 51
339.332945
1001
ACAD
1000
ASC_BOUNDS
1002
{
1070
    19
1002
}
  0
POLYLINE
  8
F05_PRO
  5
802
 66
     1
 10
0.0
 20
0.0
 30
0.0
 70
   128
  0
VERTEX
  8
F05_PRO
  5
1E9A
 10
135.344198
 20
169.752487
 30
0.0
  0
VERTEX
  8
F05_PRO
  5
1E9B
 10
134.053259
 20
169.566566
 30
0.0
  0
VERTEX
  8
F05_PRO
  5
1E9C
 10
132.78563
 20
169.115926
 30
0.0
  0
VERTEX
  8
F05_PRO
  5
1E9D
 10
131.582324
 20
168.415148
 30
0.0
  0
VERTEX
  8
F05_PRO
  5
1E9E
 10
130.482273
 20
167.486906
 30
0.0
  0
VERTEX
  8
F05_PRO
  5
1E9F
 10
129.521069
 20
166.361231
 30
0.0
  0
VERTEX
  8
F05_PRO
  5
1EA0
 10
128.729811
 20
165.074545
 30
0.0
  0
VERTEX
  8
F05_PRO
  5
1EA1
 10
128.134101
 20
163.668478
 30
0.0
  0
SEQEND
  8
F05_PRO
  5
1EA2
  0
LINE
  8
F05_PRO
  5
803
 10
129.88196
 20
163.63759
 30
0.0
 11
141.926706
 21
163.63759
 31
0.0
  0
LINE
  8
F05_PRO
  5
804
 10
130.111024
 20
164.71759
 30
0.0
 11
140.974307
 21
164.71759
 31
0.0
  0
ARC
  8
F05_PRO
  5
805
 10
135.769714
 20
162.367182
 30
0.0
 40
8.364916
 50
98.442625
 51
137.3304
1001
ACAD
1000
ASC_BOUNDS
1002
{
1070
    19
1002
}
  0
ARC
  8
F05_PRO
  5
806
 10
132.783586
 20
164.183214
 30
0.0
 40
9.05618
 50
279.159834
 51
342.417868
1001
ACAD
1000
ASC_BOUNDS
1002
{
1070
    19
1002
}
  0
ARC
  8
F05_PRO
  5
807
 10
133.135548
 20
161.447563
 30
0.0
 40
6.3
 50
182.729155
 51
279.960292
1001
ACAD
1000
ASC_BOUNDS
1002
{
1070
    19
1002
}
  0
ARC
  8
F05_PRO
  5
808
 10
120.690007
 20
167.82259
 30
0.0
 40
2.625
 50
90.0
 51
168.003101
  0
LINE
  8
F05_PRO
  5
809
 10
115.376706
 20
155.44759
 30
0.0
 11
119.90051
 21
155.44759
 31
0.0
  0
LINE
  8
F05_PRO
  5
80A
 10
115.376706
 20
155.44759
 30
0.0
 11
118.12234
 21
168.368219
 31
0.0
  0
ARC
  8
F05_PRO
  5
80B
 10
135.948761
 20
161.33788
 30
0.0
 40
9.082225
 50
144.533818
 51
158.153358
  0
ARC
  8
F05_PRO
  5
80C
 10
122.879382
 20
165.85759
 30
0.0
 40
0.75
 50
90.0
 51
168.003101
  0
LINE
  8
F05_PRO
  5
80D
 10
121.870385
 20
164.71759
 30
0.0
 11
127.518792
 21
164.71759
 31
0.0
  0
ARC
  8
F05_PRO
  5
80E
 10
133.392909
 20
161.732152
 30
0.0
 40
5.632662
 50
186.002385
 51
276.412304
1001
ACAD
1000
ASC_BOUNDS
1002
{
1070
    19
1002
}
  0
LINE
  8
F05_PRO
  5
80F
 10
119.90051
 20
155.44759
 30
0.0
 11
121.11176
 21
161.14759
 31
0.0
  0
LINE
  8
F05_PRO
  5
810
 10
121.870385
 20
164.71759
 30
0.0
 11
122.145763
 21
166.013484
 31
0.0
  0
LINE
  8
F05_PRO
  5
811
 10
121.11176
 20
161.14759
 30
0.0
 11
126.842694
 21
161.14759
 31
0.0
  0
POLYLINE
  8
F05_PRO
  5
812
 66
     1
 10
0.0
 20
0.0
 30
0.0
 70
   128
  0
VERTEX
  8
F05_PRO
  5
1EA3
 10
128.134101
 20
163.668478
 30
0.0
  0
VERTEX
  8
F05_PRO
  5
1EA4
 10
127.851626
 20
162.383483
 30
0.0
  0
VERTEX
  8
F05_PRO
  5
1EA5
 10
127.791128
 20
161.128577
 30
0.0
  0
SEQEND
  8
F05_PRO
  5
1EA6
  0
LINE
  8
F05_PRO
  5
813
 10
130.111024
 20
164.71759
 30
0.0
 11
129.88196
 21
163.63759
 31
0.0
  0
LINE
  8
F05_PRO
  5
814
 10
120.690007
 20
170.44759
 30
0.0
 11
130.114206
 21
170.44759
 31
0.0
  0
LINE
  8
F05_PRO
  5
815
 10
122.879382
 20
166.60759
 30
0.0
 11
128.551669
 21
166.60759
 31
0.0
  0
LINE
  8
F05_PRO
  5
816
 10
130.114206
 20
170.44759
 30
0.0
 11
129.619206
 21
168.036669
 31
0.0
  0
ARC
  8
F05_PRO
  5
817
 10
135.686397
 20
164.50512
 30
0.0
 40
6.242447
 50
1.499529
 51
100.57959
1001
ACAD
1000
ASC_BOUNDS
1002
{
1070
    19
1002
}
  0
ARC
  8
F05_PRO
  5
818
 10
135.662152
 20
164.442737
 30
0.0
 40
5.319261
 50
2.961866
 51
93.426847
  0
LINE
  8
F05_PRO
  5
819
 10
141.416706
 20
161.44759
 30
0.0
 11
140.397303
 21
161.44759
 31
0.0
  0
LINE
  8
F05_PRO
  5
81A
 10
141.926706
 20
163.63759
 30
0.0
 11
141.926706
 21
164.668477
 31
0.0
  0
TEXT
  8
F05_PRO
  5
81B
 10
561.332245
 20
160.198917
 30
0.0
 40
3.0
  1
FILE NAME
  7
FSTD1
  0
LINE
  8
F05_PRO
  5
81C
 10
508.239502
 20
165.44759
 30
0.0
 11
644.069953
 21
165.44759
 31
0.0
  0
TEXT
  8
F05_PRO
  5
81D
 10
558.78024
 20
153.631379
 30
0.0
 40
3.0
  1
BW50U2
  7
FSTD1
  0
LINE
  8
F05_PRO
  5
822
 10
531.849613
 20
165.44759
 30
0.0
 11
531.849613
 21
137.44759
 31
0.0
  0
LINE
  8
F05_PRO
  5
823
 10
508.239502
 20
165.44759
 30
0.0
 11
508.239502
 21
137.44759
 31
0.0
  0
LINE
  8
F05_PRO
  5
824
 10
555.966506
 20
165.44759
 30
0.0
 11
555.966506
 21
137.44759
 31
0.0
  0
TEXT
  8
F05_PRO
  5
825
 10
534.745121
 20
153.375364
 30
0.0
 40
3.0
  1
2009-01
  7
FSTD1
  0
TEXT
  8
F05_PRO
  5
826
 10
537.94819
 20
160.284256
 30
0.0
 40
3.0
  1
DATE
  7
FSTD1
  0
TEXT
  8
F05_PRO
  5
827
 10
511.827384
 20
153.631379
 30
0.0
 40
3.0
  1
DRAWN
  7
FSTD1
  0
TEXT
  8
F05_PRO
  5
828
 10
511.827384
 20
146.489262
 30
0.0
 40
3.0
  1
CHANGE
  7
FSTD1
  0
LINE
  8
F05_PRO
  5
829
 10
644.069953
 20
165.44759
 30
0.0
 11
644.069953
 21
137.44759
 31
0.0
  0
LINE
  8
F05_PRO
  5
82A
 10
629.972796
 20
165.44759
 30
0.0
 11
629.972796
 21
137.44759
 31
0.0
  0
LINE
  8
F05_PRO
  5
82B
 10
591.705866
 20
165.44759
 30
0.0
 11
591.705866
 21
137.44759
 31
0.0
  0
TEXT
  8
F05_PRO
  5
82D
 10
596.167253
 20
159.942903
 30
0.0
 40
3.0
  1
DRAWING NO.
  7
FSTD1
  0
TEXT
  8
F05_PRO
  5
82E
 10
632.695775
 20
160.169068
 30
0.0
 40
3.0
  1
INDEX
 41
0.7
  7
FSTD1
  0
TEXT
  8
F05_PRO
  5
834
 10
187.547704
 20
154.51271
 30
0.0
 40
8.0
  1
BW50RAGU-2P
 41
0.8
  7
STANDARD
  0
TEXT
  8
F05_PRO
  5
845
 10
118.708772
 20
397.612038
 30
0.0
 40
3.0
  1
C
  7
STANDARD
  0
TEXT
  8
F05_PRO
  5
846
 10
119.774192
 20
395.857579
 30
0.0
 40
3.0
  1
L
  7
STANDARD
  0
TEXT
  8
F05_PRO
  5
848
 10
152.342426
 20
464.530017
 30
0.0
 40
3.0
  1
L
  7
STANDARD
  0
TEXT
  8
F05_PRO
  5
849
 10
151.277006
 20
466.284476
 30
0.0
 40
3.0
  1
C
  7
STANDARD
  0
TEXT
  8
F05_PRO
  5
84A
 10
264.806026
 20
395.857579
 30
0.0
 40
3.0
  1
L
  7
STANDARD
  0
TEXT
  8
F05_PRO
  5
84B
 10
263.740606
 20
397.612038
 30
0.0
 40
3.0
  1
C
  7
STANDARD
  0
TEXT
  8
F05_PRO
  5
84C
 10
268.881899
 20
425.657147
 30
0.0
 40
3.0
  1
ON
  7
STANDARD
  0
DIMENSION
  8
F02_DIM
  5
896
  2
*D1
 10
165.072375
 20
325.24408
 30
0.0
 11
152.57239
 21
328.24408
 31
0.0
 13
140.072405
 23
349.865321
 33
0.0
 14
165.072375
 24
349.865321
 34
0.0
  3
FSTD1
  0
DIMENSION
  8
F02_DIM
  5
8A3
  2
*D2
 10
176.07233
 20
315.609438
 30
0.0
 11
152.322337
 21
318.609438
 31
0.0
 13
128.572344
 23
373.293857
 33
0.0
 14
176.07233
 24
373.940304
 34
0.0
  3
FSTD1
  0
DIMENSION
  8
F02_DIM
  5
8B0
  2
*D3
 10
177.57233
 20
306.640248
 30
0.0
 11
152.57233
 21
309.640248
 31
0.0
 13
127.57233
 23
351.690334
 33
0.0
 14
177.57233
 24
351.690334
 34
0.0
  3
FSTD1
  0
DIMENSION
  8
F02_DIM
  5
8BD
  2
*D4
 10
113.19122
 20
372.940304
 30
0.0
 11
110.19122
 21
397.940305
 31
0.0
 12
-5.885361
 22
0.0
 32
0.0
 13
128.925897
 23
422.940305
 33
0.0
 14
128.925897
 24
372.940304
 34
0.0
 50
90.0
  3
FSTD1
  0
LINE
  8
F03_CNT
  5
8CB
 10
148.67239
 20
439.940335
 30
0.0
 11
156.47239
 21
439.940335
 31
0.0
  0
LINE
  8
F03_CNT
  5
8CC
 10
148.67239
 20
355.940335
 30
0.0
 11
156.47239
 21
355.940335
 31
0.0
  0
DIMENSION
  8
F02_DIM
  5
8E6
  2
*D5
 10
103.143078
 20
355.940335
 30
0.0
 11
100.143078
 21
397.940335
 31
0.0
 12
-5.885361
 22
0.0
 32
0.0
 13
148.67239
 23
439.940335
 33
0.0
 14
148.67239
 24
355.940335
 34
0.0
 50
90.0
  3
FSTD1
  0
LINE
  8
F03_CNT
  5
8F5
 10
169.872202
 20
384.440335
 30
0.0
 11
175.672488
 21
384.440335
 31
0.0
  0
DIMENSION
  8
F02_DIM
  5
91E
  2
*D6
 10
197.530703
 20
437.940335
 30
0.0
 11
194.530703
 21
417.940335
 31
0.0
 12
-5.885361
 22
0.0
 32
0.0
 13
182.791549
 23
397.940335
 33
0.0
 14
171.147388
 24
437.940335
 34
0.0
 50
90.0
  3
FSTD1
  0
DIMENSION
  8
F02_DIM
  5
92B
  2
*D7
 10
197.530703
 20
355.940334
 30
0.0
 11
194.530703
 21
376.940335
 31
0.0
 12
-5.885361
 22
0.0
 32
0.0
 13
181.791549
 23
397.940335
 33
0.0
 14
171.147388
 24
355.940334
 34
0.0
 50
90.0
  3
FSTD1
  0
LINE
  8
F01_OUT
  5
92C
 10
155.572329
 20
447.940335
 30
0.0
 11
175.772269
 21
447.940335
 31
0.0
  0
LINE
  8
F01_OUT
  5
92D
 10
129.372391
 20
447.940335
 30
0.0
 11
151.972329
 21
447.940335
 31
0.0
  0
DIMENSION
  8
F02_DIM
  5
93C
  2
*D8
 10
197.530703
 20
447.940335
 30
0.0
 11
194.530703
 21
442.940335
 31
0.0
 12
-5.885361
 22
0.0
 32
0.0
 13
171.147388
 23
437.940335
 33
0.0
 14
175.772269
 24
447.940335
 34
0.0
 50
90.0
  3
FSTD1
  0
LINE
  8
F01_OUT
  5
94C
 10
129.372391
 20
347.940333
 30
0.0
 11
149.572329
 21
347.940333
 31
0.0
  0
LINE
  8
F01_OUT
  5
94D
 10
153.172329
 20
347.940333
 30
0.0
 11
175.772269
 21
347.940333
 31
0.0
  0
DIMENSION
  8
F02_DIM
  5
95A
  2
*D9
 10
197.530703
 20
347.940333
 30
0.0
 11
194.530703
 21
351.940334
 31
0.0
 12
-5.885361
 22
0.0
 32
0.0
 13
171.147388
 23
355.940334
 33
0.0
 14
175.772269
 24
347.940333
 34
0.0
 50
90.0
  3
FSTD1
  0
LINE
  8
F01_OUT
  5
97A
 10
132.572329
 20
362.940334
 30
0.0
 11
147.572329
 21
362.940334
 31
0.0
  0
LINE
  8
F01_OUT
  5
97B
 10
157.572329
 20
362.940334
 30
0.0
 11
172.57233
 21
362.940334
 31
0.0
  0
LINE
  8
F03_CNT
  5
97C
 10
421.377032
 20
397.940335
 30
0.0
 11
491.377032
 21
397.940335
 31
0.0
  0
LINE
  8
F03_CNT
  5
998
 10
456.377032
 20
452.940335
 30
0.0
 11
456.377032
 21
342.940335
 31
0.0
  0
LINE
  8
F07_COO
  5
999
 10
431.377032
 20
447.940335
 30
0.0
 11
431.377032
 21
347.940335
 31
0.0
  0
LINE
  8
F07_COO
  5
99A
 10
481.377032
 20
447.940335
 30
0.0
 11
481.377032
 21
347.940335
 31
0.0
  0
LINE
  8
F07_COO
  5
99B
 10
431.377032
 20
447.940335
 30
0.0
 11
481.377032
 21
447.940335
 31
0.0
  0
LINE
  8
F07_COO
  5
99C
 10
431.377032
 20
347.940335
 30
0.0
 11
481.377032
 21
347.940335
 31
0.0
  0
LINE
  8
F03_CNT
  5
9A1
 10
450.935281
 20
439.940335
 30
0.0
 11
461.818783
 21
439.940335
 31
0.0
  0
LINE
  8
F03_CNT
  5
9A2
 10
450.935281
 20
355.940335
 30
0.0
 11
461.818783
 21
355.940335
 31
0.0
  0
CIRCLE
  8
F06_CUT
  5
9A3
 10
456.377032
 20
439.940335
 30
0.0
 40
2.5
  0
CIRCLE
  8
F06_CUT
  5
9A4
 10
456.377032
 20
355.940335
 30
0.0
 40
2.5
  0
DIMENSION
  8
F02_DIM
  5
9B3
  2
*D10
 10
504.160724
 20
355.940335
 30
0.0
 11
501.160724
 21
397.940335
 31
0.0
 12
21.653102
 22
0.0
 32
0.0
 13
461.818783
 23
439.940335
 33
0.0
 14
461.818783
 24
355.940335
 34
0.0
 50
90.0
  3
FSTD1
  0
TEXT
  8
F05_PRO
  5
9B4
 10
416.445272
 20
397.612038
 30
0.0
 40
3.0
  1
C
  7
STANDARD
  0
TEXT
  8
F05_PRO
  5
9B5
 10
417.510691
 20
395.857579
 30
0.0
 40
3.0
  1
L
  7
STANDARD
  0
TEXT
  8
F05_PRO
  5
9B6
 10
456.328014
 20
460.575574
 30
0.0
 40
3.0
  1
L
  7
STANDARD
  0
TEXT
  8
F05_PRO
  5
9B7
 10
455.262594
 20
462.330033
 30
0.0
 40
3.0
  1
C
  7
STANDARD
  0
TEXT
  8
F05_PRO
  5
9B8
 10
430.247451
 20
321.879638
 30
0.0
 40
5.0
  1
Panel drilling
  7
STANDARD
 72
     1
 11
456.330784
 21
321.879638
 31
0.0
  0
DIMENSION
  8
F02_DIM
  5
9C5
  2
*D11
 10
415.440038
 20
233.931572
 30
0.0
 11
423.940038
 21
236.931572
 31
0.0
 12
171.441106
 22
-41.576153
 32
0.0
 13
432.440038
 23
245.147115
 33
0.0
 14
415.440038
 24
245.147115
 34
0.0
  3
FSTD1
  0
DIMENSION
  8
F02_DIM
  5
9D5
  2
*D12
 10
444.58909
 20
260.147115
 30
0.0
 11
441.58909
 21
256.647115
 31
0.0
 12
171.441106
 22
-41.576153
 32
0.0
 13
433.690038
 23
253.147115
 33
0.0
 14
432.440038
 24
260.147115
 34
0.0
 50
90.0
  3
FSTD1
  0
DIMENSION
  8
F02_DIM
  5
9E2
  2
*D13
 10
483.261007
 20
233.931572
 30
0.0
 11
495.261007
 21
236.931572
 31
0.0
 12
176.365703
 22
-41.576153
 32
0.0
 13
507.261007
 23
245.147115
 33
0.0
 14
483.261007
 24
245.397115
 34
0.0
  3
FSTD1
  0
TEXT
  8
F05_PRO
  5
9E4
 10
426.450829
 20
218.509908
 30
0.0
 40
5.0
  1
Terminal section
  7
STANDARD
 72
     1
 11
460.034163
 21
218.509908
 31
0.0
  0
TEXT
  8
F05_PRO
  5
9E5
 10
565.536516
 20
219.899913
 30
0.0
 40
5.0
  1
Busbar cutting
  7
STANDARD
 72
     1
 11
597.036516
 21
219.899913
 31
0.0
  0
DIMENSION
  8
F02_DIM
  5
9F4
  2
*D14
 10
595.500233
 20
235.799872
 30
0.0
 11
592.000233
 21
238.799872
 31
0.0
 12
214.614372
 22
-41.576153
 32
0.0
 13
588.500233
 23
245.647115
 33
0.0
 14
595.500233
 24
244.947118
 34
0.0
  3
FSTD1
  0
DIMENSION
  8
F02_DIM
  5
A01
  2
*D15
 10
575.043014
 20
260.647115
 30
0.0
 11
575.043014
 21
253.147115
 31
0.0
 12
214.614372
 22
-41.576153
 32
0.0
 70
   128
  1
Max.<>
 13
588.500233
 23
245.647115
 33
0.0
 14
588.500233
 24
260.647115
 34
0.0
 50
90.0
  3
FSTD1
  0
TEXT
  8
F05_PRO
  5
A25
 10
623.502638
 20
251.941301
 30
0.0
 40
3.0
  1
t   4
  7
STANDARD
  0
LINE
  8
F05_PRO
  5
A26
 10
629.780957
 20
251.903409
 30
0.0
 11
627.683281
 21
251.903409
 31
0.0
  0
LINE
  8
F05_PRO
  5
A27
 10
627.683281
 20
252.625096
 30
0.0
 11
629.792421
 21
252.625096
 31
0.0
  0
LINE
  8
F05_PRO
  5
A28
 10
629.792421
 20
253.048944
 30
0.0
 11
627.660357
 21
253.91955
 31
0.0
  0
LINE
  8
F05_PRO
  5
A29
 10
627.660357
 20
253.91955
 30
0.0
 11
629.74657
 21
254.870344
 31
0.0
  0
DIMENSION
  8
F02_DIM
  5
A36
  2
*D16
 10
293.829119
 20
315.609438
 30
0.0
 11
323.829119
 21
318.609438
 31
0.0
 13
353.829119
 23
354.877765
 33
0.0
 14
293.829119
 24
360.440335
 34
0.0
  3
FSTD1
  0
DIMENSION
  8
F02_DIM
  5
A43
  2
*D17
 10
285.829119
 20
315.609438
 30
0.0
 11
289.829119
 21
318.609438
 31
0.0
 13
293.829119
 23
360.440335
 33
0.0
 14
285.829119
 24
372.940335
 34
0.0
  3
FSTD1
  0
DIMENSION
  8
F02_DIM
  5
A52
  2
*D18
 10
281.829119
 20
315.609438
 30
0.0
 11
274.495786
 21
318.609438
 31
0.0
 13
285.829119
 23
372.940335
 33
0.0
 14
281.829119
 24
373.940335
 34
0.0
  3
FSTD1
  0
DIMENSION
  8
F02_DIM
  5
A5F
  2
*D19
 10
269.829119
 20
306.640248
 30
0.0
 11
311.829119
 21
309.640248
 31
0.0
 13
353.829119
 23
354.877765
 33
0.0
 14
269.829119
 24
407.440335
 34
0.0
  3
FSTD1
  0
DIMENSION
  8
F02_DIM
  5
A6E
  2
*D20
 10
370.279205
 20
442.390335
 30
0.0
 11
367.279205
 21
454.390335
 31
0.0
 12
-7.297326
 22
0.0
 32
0.0
  1
%%c<>
 13
353.829119
 23
437.490335
 33
0.0
 14
353.829119
 24
442.390335
 34
0.0
 50
90.0
  3
FSTD1
  0
DIMENSION
  8
F02_DIM
  5
A89
  2
*D21
 10
281.880664
 20
443.840335
 30
0.0
 11
278.880664
 21
453.340335
 31
0.0
 12
-7.297326
 22
0.0
 32
0.0
  1
%%c<>
 13
302.829119
 23
436.040335
 33
0.0
 14
302.829119
 24
443.840335
 34
0.0
 50
90.0
  3
FSTD1
  0
DIMENSION
  8
F02_DIM
  5
ACB
  2
*D22
 10
310.829119
 20
428.418218
 30
0.0
 11
332.329119
 21
431.418218
 31
0.0
 12
-7.297326
 22
0.0
 32
0.0
 13
353.829119
 23
437.490335
 33
0.0
 14
310.829119
 24
436.040335
 34
0.0
  3
FSTD1
  0
LINE
  8
F03_CNT
  5
AD7
 10
591.283004
 20
452.940335
 30
0.0
 11
591.283004
 21
342.940335
 31
0.0
  0
LINE
  8
F07_COO
  5
AD8
 10
566.283004
 20
447.940335
 30
0.0
 11
566.283004
 21
347.940335
 31
0.0
  0
LINE
  8
F07_COO
  5
AD9
 10
616.283004
 20
447.940335
 30
0.0
 11
616.283004
 21
347.940335
 31
0.0
  0
TEXT
  8
F05_PRO
  5
ADB
 10
549.486756
 20
321.879638
 30
0.0
 40
5.0
  1
Front panel cutting
  7
STANDARD
 72
     1
 11
591.236756
 21
321.879638
 31
0.0
  0
LINE
  8
F03_CNT
  5
ADC
 10
556.283004
 20
397.940335
 30
0.0
 11
626.283004
 21
397.940335
 31
0.0
  0
LINE
  8
F07_COO
  5
ADD
 10
566.283004
 20
347.940335
 30
0.0
 11
616.283004
 21
347.940335
 31
0.0
  0
TEXT
  8
F05_PRO
  5
ADE
 10
551.351243
 20
397.612038
 30
0.0
 40
3.0
  1
C
  7
STANDARD
  0
TEXT
  8
F05_PRO
  5
ADF
 10
552.416663
 20
395.857579
 30
0.0
 40
3.0
  1
L
  7
STANDARD
  0
LINE
  8
F07_COO
  5
AE2
 10
566.283004
 20
447.940335
 30
0.0
 11
616.283004
 21
447.940335
 31
0.0
  0
TEXT
  8
F05_PRO
  5
AE5
 10
591.233985
 20
460.575574
 30
0.0
 40
3.0
  1
L
  7
STANDARD
  0
TEXT
  8
F05_PRO
  5
AE6
 10
590.168566
 20
462.330033
 30
0.0
 40
3.0
  1
C
  7
STANDARD
  0
LINE
  8
F06_CUT
  5
AF3
 10
566.283004
 20
421.940335
 30
0.0
 11
566.283004
 21
373.940335
 31
0.0
  0
LINE
  8
F06_CUT
  5
AF4
 10
616.283004
 20
421.940335
 30
0.0
 11
616.283004
 21
373.940335
 31
0.0
  0
LINE
  8
F06_CUT
  5
AF5
 10
568.283004
 20
423.940335
 30
0.0
 11
614.283004
 21
423.940335
 31
0.0
  0
LINE
  8
F06_CUT
  5
AF6
 10
568.283004
 20
371.940335
 30
0.0
 11
614.283004
 21
371.940335
 31
0.0
  0
ARC
  8
F06_CUT
  5
AF7
 10
568.283004
 20
421.940335
 30
0.0
 40
2.0
 50
90.0
 51
180.0
  0
ARC
  8
F06_CUT
  5
AF8
 10
614.283004
 20
421.940335
 30
0.0
 40
2.0
 50
0.0
 51
90.0
  0
ARC
  8
F06_CUT
  5
AF9
 10
614.283004
 20
373.940335
 30
0.0
 40
2.0
 50
270.0
 51
0.0
  0
ARC
  8
F06_CUT
  5
AFA
 10
568.283004
 20
373.940335
 30
0.0
 40
2.0
 50
180.0
 51
270.0
  0
DIMENSION
  8
F02_DIM
  5
B0B
  2
*D23
 10
639.084128
 20
371.940335
 30
0.0
 11
636.084128
 21
397.940335
 31
0.0
 12
28.581201
 22
0.0
 32
0.0
  1
Min.<>
 13
614.283004
 23
423.940335
 33
0.0
 14
614.283004
 24
371.940335
 34
0.0
 50
90.0
  3
FSTD1
  0
DIMENSION
  8
F02_DIM
  5
B18
  2
*D24
 10
616.283004
 20
334.872139
 30
0.0
 11
591.283004
 21
337.872139
 31
0.0
 12
28.581201
 22
0.0
 32
0.0
  1
Min.<>
 13
566.283004
 23
373.940335
 33
0.0
 14
616.283004
 24
373.940335
 34
0.0
  3
FSTD1
  0
DIMENSION
  8
F02_DIM
  5
B38
  2
*D25
 10
568.283004
 20
421.940335
 30
0.0
 11
547.186833
 21
441.583859
 31
0.0
 12
28.581201
 22
0.0
 32
0.0
 70
   132
  1
Max.<>
 15
566.819294
 25
423.303256
 35
0.0
  3
FSTD1
1001
ACAD
1000
DSTYLE
1002
{
1070
   288
1070
     1
1002
}
  0
TEXT
  8
F05_PRO
  5
B43
 10
194.550855
 20
324.866473
 30
0.0
 40
3.0
  1
Trip button
 41
0.8
  7
STANDARD
  0
TEXT
  8
F05_PRO
  5
B44
 10
194.550855
 20
317.887259
 30
0.0
 40
3.0
  1
(%%c3.8)
  7
STANDARD
  0
LINE
  8
F05_PRO
  5
B45
 10
172.772345
 20
384.440335
 30
0.0
 11
192.888998
 21
323.180581
 31
0.0
  0
LINE
  8
F05_PRO
  5
B46
 10
192.888998
 20
323.180581
 30
0.0
 11
222.802429
 21
323.180581
 31
0.0
  0
TEXT
  8
F05_PRO
  5
B47
 10
112.578882
 20
466.791148
 30
0.0
 40
3.0
  1
Mounting hole
 41
0.8
  7
STANDARD
  0
LINE
  8
F05_PRO
  5
B48
 10
152.57233
 20
439.940335
 30
0.0
 11
143.27719
 21
464.655846
 31
0.0
  0
LINE
  8
F05_PRO
  5
B49
 10
143.27719
 20
464.655846
 30
0.0
 11
111.154433
 21
464.655846
 31
0.0
  0
DIMENSION
  8
F02_DIM
  5
B63
  2
*D26
 10
152.57233
 20
381.710149
 30
0.0
 11
140.572337
 21
384.710149
 31
0.0
 12
-5.885361
 22
0.0
 32
0.0
 13
128.572344
 23
384.391463
 33
0.0
 14
152.57233
 24
384.391463
 34
0.0
  3
FSTD1
  0
DIMENSION
  8
F02_DIM
  5
B85
  2
*D27
 10
150.572329
 20
389.86876
 30
0.0
 11
139.572337
 21
392.86876
 31
0.0
 12
-5.885361
 22
0.0
 32
0.0
 13
128.572344
 23
394.39509
 33
0.0
 14
150.572329
 24
394.39509
 34
0.0
  3
FSTD2
  0
INSERT
  8
F05_PRO
  5
B95
  2
_OPEN30
 10
466.170941
 20
447.940335
 30
0.0
 41
2.5
 42
2.5
 50
240.376347
 43
2.5
  0
LINE
  8
F05_PRO
  5
1EA7
 10
467.406693
 20
450.113562
 30
0.0
 11
474.229759
 21
462.112795
 31
0.0
1001
ACAD
1000
R13OBJECT
1002
{
1005
B95
1002
}
  0
TEXT
  8
F05_PRO
  5
B96
 10
475.436313
 20
463.733733
 30
0.0
 40
3.0
  1
MCCB
  7
STANDARD
  0
LINE
  8
F05_PRO
  5
B97
 10
474.229759
 20
462.112795
 30
0.0
 11
489.260733
 21
462.112795
 31
0.0
  0
TEXT
  8
F05_PRO
  5
B98
 10
610.342285
 20
463.733733
 30
0.0
 40
3.0
  1
MCCB
  7
STANDARD
  0
LINE
  8
F05_PRO
  5
B99
 10
609.135731
 20
462.112795
 30
0.0
 11
624.166705
 21
462.112795
 31
0.0
  0
INSERT
  8
F05_PRO
  5
B9A
  2
_OPEN30
 10
601.076912
 20
447.940335
 30
0.0
 41
2.5
 42
2.5
 50
240.376347
 43
2.5
  0
LINE
  8
F05_PRO
  5
1EA8
 10
602.312664
 20
450.113562
 30
0.0
 11
609.135731
 21
462.112795
 31
0.0
1001
ACAD
1000
R13OBJECT
1002
{
1005
B9A
1002
}
  0
INSERT
  8
F02_DIM
  5
B9B
  2
_OPEN30
 10
454.759116
 20
441.846207
 30
0.0
 41
2.5
 42
2.5
 50
298.928716
 43
2.5
  0
LINE
  8
F02_DIM
  5
1EA9
 10
453.549813
 20
444.034262
 30
0.0
 11
443.904317
 21
461.48637
 31
0.0
1001
ACAD
1000
R13OBJECT
1002
{
1005
B9B
1002
}
  0
TEXT
  8
F02_DIM
  5
B9C
 10
420.90859
 20
463.004935
 30
0.0
 40
3.0
  1
M4 or %%c5
  7
STANDARD
  0
LINE
  8
F02_DIM
  5
B9D
 10
443.904317
 20
461.48637
 30
0.0
 11
418.578626
 21
461.48637
 31
0.0
  0
TEXT
  8
F02_DIM
  5
B9F
 10
447.601642
 20
276.825364
 30
0.0
 40
3.0
  1
M5x14
  7
STANDARD
  0
TEXT
  8
F02_DIM
  5
BA0
 10
447.661524
 20
270.903371
 30
0.0
 40
3.0
  1
Self-lifting screw
 41
0.8
  7
STANDARD
  0
LINE
  8
F02_DIM
  5
BA1
 10
484.245645
 20
275.277368
 30
0.0
 11
445.864284
 21
275.277368
 31
0.0
  0
DIMENSION
  8
F02_DIM
  5
C2D
  2
*D28
 10
302.829119
 20
325.24408
 30
0.0
 11
328.329119
 21
328.24408
 31
0.0
 13
353.829119
 23
354.877765
 33
0.0
 14
302.829119
 24
350.740335
 34
0.0
  3
FSTD2
  0
LINE
  8
F05_PRO
  5
C35
 10
508.239502
 20
158.44759
 30
0.0
 11
644.069953
 21
158.44759
 31
0.0
  0
LINE
  8
F05_PRO
  5
C36
 10
508.239502
 20
151.44759
 30
0.0
 11
644.069953
 21
151.44759
 31
0.0
  0
LINE
  8
F05_PRO
  5
C37
 10
508.239502
 20
144.44759
 30
0.0
 11
644.069953
 21
144.44759
 31
0.0
  0
LINE
  8
F05_PRO
  5
C38
 10
508.239502
 20
137.44759
 30
0.0
 11
644.069953
 21
137.44759
 31
0.0
  0
LINE
  8
F01_OUT
  5
1110
 10
480.561007
 20
259.147115
 30
0.0
 11
483.261007
 21
259.147115
 31
0.0
  0
LINE
  8
F01_OUT
  5
1111
 10
480.561007
 20
247.147115
 30
0.0
 11
483.261007
 21
247.147115
 31
0.0
  0
LINE
  8
F01_OUT
  5
1117
 10
480.561007
 20
256.347115
 30
0.0
 11
481.261007
 21
259.147115
 31
0.0
  0
LINE
  8
F01_OUT
  5
1118
 10
480.561007
 20
247.147115
 30
0.0
 11
480.561007
 21
259.147115
 31
0.0
  0
LINE
  8
F01_OUT
  5
1119
 10
422.940038
 20
259.147115
 30
0.0
 11
422.940038
 21
257.534597
 31
0.0
  0
LINE
  8
F01_OUT
  5
111A
 10
429.390038
 20
259.147115
 30
0.0
 11
432.190038
 21
256.347115
 31
0.0
  0
LINE
  8
F01_OUT
  5
111B
 10
415.690038
 20
247.647115
 30
0.0
 11
415.690038
 21
258.647115
 31
0.0
  0
LINE
  8
F01_OUT
  5
111C
 10
432.190038
 20
247.647115
 30
0.0
 11
432.190038
 21
258.647115
 31
0.0
  0
LINE
  8
F01_OUT
  5
111D
 10
424.940038
 20
259.147115
 30
0.0
 11
424.940038
 21
257.534597
 31
0.0
  0
LINE
  8
F01_OUT
  5
111E
 10
415.690038
 20
256.347115
 30
0.0
 11
418.490038
 21
259.147115
 31
0.0
  0
LINE
  8
F01_OUT
  5
1120
 10
431.690038
 20
247.147115
 30
0.0
 11
416.190038
 21
247.147115
 31
0.0
  0
LINE
  8
F01_OUT
  5
1121
 10
429.390038
 20
247.147115
 30
0.0
 11
432.190038
 21
249.947115
 31
0.0
  0
LINE
  8
F01_OUT
  5
1122
 10
432.190038
 20
254.147115
 30
0.0
 11
428.32752
 21
254.147115
 31
0.0
  0
LINE
  8
F01_OUT
  5
1123
 10
432.190038
 20
256.147115
 30
0.0
 11
427.490038
 21
256.147115
 31
0.0
  0
LINE
  8
F01_OUT
  5
1124
 10
432.190038
 20
250.147115
 30
0.0
 11
427.490038
 21
250.147115
 31
0.0
  0
LINE
  8
F01_OUT
  5
1125
 10
432.190038
 20
252.147115
 30
0.0
 11
428.32752
 21
252.147115
 31
0.0
  0
LINE
  8
F01_OUT
  5
112D
 10
425.090038
 20
253.797115
 30
0.0
 11
426.390038
 21
253.797115
 31
0.0
  0
LINE
  8
F01_OUT
  5
112E
 10
421.490038
 20
252.497115
 30
0.0
 11
422.790038
 21
252.497115
 31
0.0
  0
LINE
  8
F01_OUT
  5
112F
 10
425.090038
 20
252.497115
 30
0.0
 11
426.390038
 21
252.497115
 31
0.0
  0
LINE
  8
F01_OUT
  5
1130
 10
426.390038
 20
252.497115
 30
0.0
 11
426.390038
 21
253.797115
 31
0.0
  0
LINE
  8
F01_OUT
  5
1131
 10
424.590038
 20
248.694307
 30
0.0
 11
424.590038
 21
251.997115
 31
0.0
  0
LINE
  8
F01_OUT
  5
1132
 10
424.590038
 20
257.599923
 30
0.0
 11
424.590038
 21
254.297115
 31
0.0
  0
LINE
  8
F01_OUT
  5
1133
 10
421.490038
 20
253.797115
 30
0.0
 11
422.790038
 21
253.797115
 31
0.0
  0
LINE
  8
F01_OUT
  5
1134
 10
423.290038
 20
248.694307
 30
0.0
 11
423.290038
 21
251.997115
 31
0.0
  0
LINE
  8
F01_OUT
  5
1135
 10
423.290038
 20
254.297115
 30
0.0
 11
423.290038
 21
257.599923
 31
0.0
  0
LINE
  8
F01_OUT
  5
1136
 10
421.490038
 20
252.497115
 30
0.0
 11
421.490038
 21
253.797115
 31
0.0
  0
LINE
  8
F01_OUT
  5
1137
 10
422.940038
 20
247.147115
 30
0.0
 11
422.940038
 21
248.759633
 31
0.0
  0
LINE
  8
F01_OUT
  5
1138
 10
424.940038
 20
247.147115
 30
0.0
 11
424.940038
 21
248.759633
 31
0.0
  0
LINE
  8
F01_OUT
  5
1139
 10
415.690038
 20
256.147115
 30
0.0
 11
420.390038
 21
256.147115
 31
0.0
  0
LINE
  8
F01_OUT
  5
113A
 10
415.690038
 20
254.147115
 30
0.0
 11
419.552556
 21
254.147115
 31
0.0
  0
LINE
  8
F01_OUT
  5
113B
 10
415.690038
 20
250.147115
 30
0.0
 11
420.390038
 21
250.147115
 31
0.0
  0
LINE
  8
F01_OUT
  5
113C
 10
415.690038
 20
252.147115
 30
0.0
 11
419.552556
 21
252.147115
 31
0.0
  0
LINE
  8
F01_OUT
  5
113D
 10
415.690038
 20
249.947115
 30
0.0
 11
418.490038
 21
247.147115
 31
0.0
  0
ARC
  8
F01_OUT
  5
113E
 10
423.940038
 20
253.147115
 30
0.0
 40
4.5
 50
90.0
 51
90.0
  0
ARC
  8
F01_OUT
  5
113F
 10
422.790038
 20
254.297115
 30
0.0
 40
0.5
 50
270.0
 51
0.0
  0
ARC
  8
F01_OUT
  5
1140
 10
425.090038
 20
254.297115
 30
0.0
 40
0.5
 50
180.0
 51
270.0
  0
ARC
  8
F01_OUT
  5
1141
 10
425.090038
 20
251.997115
 30
0.0
 40
0.5
 50
90.0
 51
180.0
  0
ARC
  8
F01_OUT
  5
1142
 10
422.790038
 20
251.997115
 30
0.0
 40
0.5
 50
0.0
 51
90.0
  0
ARC
  8
F01_OUT
  5
1143
 10
416.190038
 20
247.647115
 30
0.0
 40
0.5
 50
180.0
 51
270.0
  0
ARC
  8
F01_OUT
  5
1144
 10
420.390038
 20
250.447115
 30
0.0
 40
0.3
 50
270.0
 51
301.518401
  0
ARC
  8
F01_OUT
  5
1145
 10
420.390038
 20
255.847115
 30
0.0
 40
0.3
 50
58.481599
 51
90.0
  0
ARC
  8
F01_OUT
  5
1146
 10
427.490038
 20
255.847115
 30
0.0
 40
0.3
 50
90.0
 51
121.518401
  0
ARC
  8
F01_OUT
  5
1147
 10
427.490038
 20
250.447115
 30
0.0
 40
0.3
 50
238.481599
 51
270.0
  0
ARC
  8
F01_OUT
  5
114C
 10
431.690038
 20
247.647115
 30
0.0
 40
0.5
 50
270.0
 51
0.0
  0
LINE
  8
F01_OUT
  5
114D
 10
479.361007
 20
249.097115
 30
0.0
 11
480.261007
 21
249.097115
 31
0.0
  0
LINE
  8
F01_OUT
  5
114E
 10
479.361007
 20
257.197115
 30
0.0
 11
480.261007
 21
257.197115
 31
0.0
  0
LINE
  8
F01_OUT
  5
114F
 10
477.801102
 20
248.647115
 30
0.0
 11
479.06683
 21
248.647115
 31
0.0
  0
LINE
  8
F01_OUT
  5
1150
 10
479.06683
 20
257.647115
 30
0.0
 11
477.801102
 21
257.647115
 31
0.0
  0
LINE
  8
F01_OUT
  5
1151
 10
479.06683
 20
257.647115
 30
0.0
 11
479.06683
 21
248.647115
 31
0.0
  0
LINE
  8
F01_OUT
  5
1152
 10
479.06683
 20
251.147115
 30
0.0
 11
479.658256
 21
251.147115
 31
0.0
  0
LINE
  8
F01_OUT
  5
1153
 10
479.966888
 20
255.147115
 30
0.0
 11
480.561007
 21
255.147115
 31
0.0
  0
LINE
  8
F01_OUT
  5
1154
 10
480.961007
 20
254.447115
 30
0.0
 11
480.961007
 21
255.847115
 31
0.0
  0
LINE
  8
F01_OUT
  5
1155
 10
480.561007
 20
254.147115
 30
0.0
 11
480.661007
 21
254.147115
 31
0.0
  0
LINE
  8
F01_OUT
  5
1156
 10
480.561007
 20
256.147115
 30
0.0
 11
480.661007
 21
256.147115
 31
0.0
  0
LINE
  8
F01_OUT
  5
1157
 10
480.561007
 20
250.147115
 30
0.0
 11
480.661007
 21
250.147115
 31
0.0
  0
LINE
  8
F01_OUT
  5
1158
 10
480.561007
 20
252.147115
 30
0.0
 11
480.661007
 21
252.147115
 31
0.0
  0
LINE
  8
F01_OUT
  5
1159
 10
480.561007
 20
249.947115
 30
0.0
 11
481.261007
 21
247.147115
 31
0.0
  0
LINE
  8
F01_OUT
  5
115A
 10
480.961007
 20
251.847115
 30
0.0
 11
480.961007
 21
250.447115
 31
0.0
  0
POLYLINE
  8
F01_OUT
  5
115B
 66
     1
 10
0.0
 20
0.0
 30
0.0
 70
     4
 75
     6
  0
VERTEX
  8
F01_OUT
  5
115C
 10
480.261007
 20
257.197115
 30
0.0
 70
    16
  0
VERTEX
  8
F01_OUT
  5
115D
 10
480.186007
 20
256.859615
 30
0.0
 70
    16
  0
VERTEX
  8
F01_OUT
  5
115E
 10
480.029854
 20
256.184615
 30
0.0
 70
    16
  0
VERTEX
  8
F01_OUT
  5
115F
 10
479.935305
 20
255.172115
 30
0.0
 70
    16
  0
VERTEX
  8
F01_OUT
  5
1160
 10
480.029902
 20
254.159615
 30
0.0
 70
    16
  0
VERTEX
  8
F01_OUT
  5
1161
 10
480.261007
 20
253.147115
 30
0.0
 70
    16
  0
VERTEX
  8
F01_OUT
  5
1162
 10
480.492112
 20
252.134615
 30
0.0
 70
    16
  0
VERTEX
  8
F01_OUT
  5
1163
 10
480.586709
 20
251.122115
 30
0.0
 70
    16
  0
VERTEX
  8
F01_OUT
  5
1164
 10
480.492159
 20
250.109615
 30
0.0
 70
    16
  0
VERTEX
  8
F01_OUT
  5
1165
 10
480.336007
 20
249.434615
 30
0.0
 70
    16
  0
VERTEX
  8
F01_OUT
  5
1166
 10
480.261007
 20
249.097115
 30
0.0
 70
    16
  0
VERTEX
  8
F01_OUT
  5
1167
 10
480.261007
 20
257.197115
 30
0.0
 70
     8
  0
VERTEX
  8
F01_OUT
  5
1168
 10
480.238441
 20
257.095865
 30
0.0
 70
     8
  0
VERTEX
  8
F01_OUT
  5
1169
 10
480.215849
 20
256.994615
 30
0.0
 70
     8
  0
VERTEX
  8
F01_OUT
  5
116A
 10
480.193388
 20
256.893365
 30
0.0
 70
     8
  0
VERTEX
  8
F01_OUT
  5
116B
 10
480.171217
 20
256.792115
 30
0.0
 70
     8
  0
VERTEX
  8
F01_OUT
  5
116C
 10
480.149494
 20
256.690865
 30
0.0
 70
     8
  0
VERTEX
  8
F01_OUT
  5
116D
 10
480.128378
 20
256.589615
 30
0.0
 70
     8
  0
VERTEX
  8
F01_OUT
  5
116E
 10
480.108025
 20
256.488365
 30
0.0
 70
     8
  0
VERTEX
  8
F01_OUT
  5
116F
 10
480.088595
 20
256.387115
 30
0.0
 70
     8
  0
VERTEX
  8
F01_OUT
  5
1170
 10
480.070245
 20
256.285865
 30
0.0
 70
     8
  0
VERTEX
  8
F01_OUT
  5
1171
 10
480.053134
 20
256.184615
 30
0.0
 70
     8
  0
VERTEX
  8
F01_OUT
  5
1172
 10
480.037402
 20
256.083365
 30
0.0
 70
     8
  0
VERTEX
  8
F01_OUT
  5
1173
 10
480.023116
 20
255.982115
 30
0.0
 70
     8
  0
VERTEX
  8
F01_OUT
  5
1174
 10
480.010326
 20
255.880865
 30
0.0
 70
     8
  0
VERTEX
  8
F01_OUT
  5
1175
 10
479.999081
 20
255.779615
 30
0.0
 70
     8
  0
VERTEX
  8
F01_OUT
  5
1176
 10
479.98943
 20
255.678365
 30
0.0
 70
     8
  0
VERTEX
  8
F01_OUT
  5
1177
 10
479.981424
 20
255.577115
 30
0.0
 70
     8
  0
VERTEX
  8
F01_OUT
  5
1178
 10
479.975111
 20
255.475865
 30
0.0
 70
     8
  0
VERTEX
  8
F01_OUT
  5
1179
 10
479.970542
 20
255.374615
 30
0.0
 70
     8
  0
VERTEX
  8
F01_OUT
  5
117A
 10
479.967765
 20
255.273365
 30
0.0
 70
     8
  0
VERTEX
  8
F01_OUT
  5
117B
 10
479.96683
 20
255.172115
 30
0.0
 70
     8
  0
VERTEX
  8
F01_OUT
  5
117C
 10
479.967769
 20
255.070865
 30
0.0
 70
     8
  0
VERTEX
  8
F01_OUT
  5
117D
 10
479.970547
 20
254.969615
 30
0.0
 70
     8
  0
VERTEX
  8
F01_OUT
  5
117E
 10
479.975111
 20
254.868365
 30
0.0
 70
     8
  0
VERTEX
  8
F01_OUT
  5
117F
 10
479.981409
 20
254.767115
 30
0.0
 70
     8
  0
VERTEX
  8
F01_OUT
  5
1180
 10
479.989388
 20
254.665865
 30
0.0
 70
     8
  0
VERTEX
  8
F01_OUT
  5
1181
 10
479.998995
 20
254.564615
 30
0.0
 70
     8
  0
VERTEX
  8
F01_OUT
  5
1182
 10
480.010178
 20
254.463365
 30
0.0
 70
     8
  0
VERTEX
  8
F01_OUT
  5
1183
 10
480.022884
 20
254.362115
 30
0.0
 70
     8
  0
VERTEX
  8
F01_OUT
  5
1184
 10
480.03706
 20
254.260865
 30
0.0
 70
     8
  0
VERTEX
  8
F01_OUT
  5
1185
 10
480.052654
 20
254.159615
 30
0.0
 70
     8
  0
VERTEX
  8
F01_OUT
  5
1186
 10
480.069598
 20
254.058365
 30
0.0
 70
     8
  0
VERTEX
  8
F01_OUT
  5
1187
 10
480.087772
 20
253.957115
 30
0.0
 70
     8
  0
VERTEX
  8
F01_OUT
  5
1188
 10
480.107037
 20
253.855865
 30
0.0
 70
     8
  0
VERTEX
  8
F01_OUT
  5
1189
 10
480.127258
 20
253.754615
 30
0.0
 70
     8
  0
VERTEX
  8
F01_OUT
  5
118A
 10
480.148299
 20
253.653365
 30
0.0
 70
     8
  0
VERTEX
  8
F01_OUT
  5
118B
 10
480.170021
 20
253.552115
 30
0.0
 70
     8
  0
VERTEX
  8
F01_OUT
  5
118C
 10
480.19229
 20
253.450865
 30
0.0
 70
     8
  0
VERTEX
  8
F01_OUT
  5
118D
 10
480.214968
 20
253.349615
 30
0.0
 70
     8
  0
VERTEX
  8
F01_OUT
  5
118E
 10
480.237919
 20
253.248365
 30
0.0
 70
     8
  0
VERTEX
  8
F01_OUT
  5
118F
 10
480.261007
 20
253.147115
 30
0.0
 70
     8
  0
VERTEX
  8
F01_OUT
  5
1190
 10
480.284095
 20
253.045865
 30
0.0
 70
     8
  0
VERTEX
  8
F01_OUT
  5
1191
 10
480.307046
 20
252.944615
 30
0.0
 70
     8
  0
VERTEX
  8
F01_OUT
  5
1192
 10
480.329724
 20
252.843365
 30
0.0
 70
     8
  0
VERTEX
  8
F01_OUT
  5
1193
 10
480.351993
 20
252.742115
 30
0.0
 70
     8
  0
VERTEX
  8
F01_OUT
  5
1194
 10
480.373715
 20
252.640865
 30
0.0
 70
     8
  0
VERTEX
  8
F01_OUT
  5
1195
 10
480.394755
 20
252.539615
 30
0.0
 70
     8
  0
VERTEX
  8
F01_OUT
  5
1196
 10
480.414976
 20
252.438365
 30
0.0
 70
     8
  0
VERTEX
  8
F01_OUT
  5
1197
 10
480.434242
 20
252.337115
 30
0.0
 70
     8
  0
VERTEX
  8
F01_OUT
  5
1198
 10
480.452415
 20
252.235865
 30
0.0
 70
     8
  0
VERTEX
  8
F01_OUT
  5
1199
 10
480.46936
 20
252.134615
 30
0.0
 70
     8
  0
VERTEX
  8
F01_OUT
  5
119A
 10
480.484954
 20
252.033365
 30
0.0
 70
     8
  0
VERTEX
  8
F01_OUT
  5
119B
 10
480.49913
 20
251.932115
 30
0.0
 70
     8
  0
VERTEX
  8
F01_OUT
  5
119C
 10
480.511836
 20
251.830865
 30
0.0
 70
     8
  0
VERTEX
  8
F01_OUT
  5
119D
 10
480.523019
 20
251.729615
 30
0.0
 70
     8
  0
VERTEX
  8
F01_OUT
  5
119E
 10
480.532626
 20
251.628365
 30
0.0
 70
     8
  0
VERTEX
  8
F01_OUT
  5
119F
 10
480.540604
 20
251.527115
 30
0.0
 70
     8
  0
VERTEX
  8
F01_OUT
  5
11A0
 10
480.546902
 20
251.425865
 30
0.0
 70
     8
  0
VERTEX
  8
F01_OUT
  5
11A1
 10
480.551467
 20
251.324615
 30
0.0
 70
     8
  0
VERTEX
  8
F01_OUT
  5
11A2
 10
480.554245
 20
251.223365
 30
0.0
 70
     8
  0
VERTEX
  8
F01_OUT
  5
11A3
 10
480.555184
 20
251.122115
 30
0.0
 70
     8
  0
VERTEX
  8
F01_OUT
  5
11A4
 10
480.554249
 20
251.020865
 30
0.0
 70
     8
  0
VERTEX
  8
F01_OUT
  5
11A5
 10
480.551472
 20
250.919615
 30
0.0
 70
     8
  0
VERTEX
  8
F01_OUT
  5
11A6
 10
480.546902
 20
250.818365
 30
0.0
 70
     8
  0
VERTEX
  8
F01_OUT
  5
11A7
 10
480.54059
 20
250.717115
 30
0.0
 70
     8
  0
VERTEX
  8
F01_OUT
  5
11A8
 10
480.532584
 20
250.615865
 30
0.0
 70
     8
  0
VERTEX
  8
F01_OUT
  5
11A9
 10
480.522933
 20
250.514615
 30
0.0
 70
     8
  0
VERTEX
  8
F01_OUT
  5
11AA
 10
480.511688
 20
250.413365
 30
0.0
 70
     8
  0
VERTEX
  8
F01_OUT
  5
11AB
 10
480.498898
 20
250.312115
 30
0.0
 70
     8
  0
VERTEX
  8
F01_OUT
  5
11AC
 10
480.484612
 20
250.210865
 30
0.0
 70
     8
  0
VERTEX
  8
F01_OUT
  5
11AD
 10
480.46888
 20
250.109615
 30
0.0
 70
     8
  0
VERTEX
  8
F01_OUT
  5
11AE
 10
480.451769
 20
250.008365
 30
0.0
 70
     8
  0
VERTEX
  8
F01_OUT
  5
11AF
 10
480.433419
 20
249.907115
 30
0.0
 70
     8
  0
VERTEX
  8
F01_OUT
  5
11B0
 10
480.413989
 20
249.805865
 30
0.0
 70
     8
  0
VERTEX
  8
F01_OUT
  5
11B1
 10
480.393636
 20
249.704615
 30
0.0
 70
     8
  0
VERTEX
  8
F01_OUT
  5
11B2
 10
480.37252
 20
249.603365
 30
0.0
 70
     8
  0
VERTEX
  8
F01_OUT
  5
11B3
 10
480.350797
 20
249.502115
 30
0.0
 70
     8
  0
VERTEX
  8
F01_OUT
  5
11B4
 10
480.328626
 20
249.400865
 30
0.0
 70
     8
  0
VERTEX
  8
F01_OUT
  5
11B5
 10
480.306165
 20
249.299615
 30
0.0
 70
     8
  0
VERTEX
  8
F01_OUT
  5
11B6
 10
480.283573
 20
249.198365
 30
0.0
 70
     8
  0
VERTEX
  8
F01_OUT
  5
11B7
 10
480.261007
 20
249.097115
 30
0.0
 70
     8
  0
VERTEX
  8
F01_OUT
  5
11B8
 10
480.261007
 20
249.097115
 30
0.0
 70
     8
  0
SEQEND
  8
F01_OUT
  5
11B9
  0
POLYLINE
  8
F01_OUT
  5
11BA
 66
     1
 10
0.0
 20
0.0
 30
0.0
 70
     4
 75
     6
  0
VERTEX
  8
F01_OUT
  5
11BB
 10
479.361007
 20
257.197115
 30
0.0
 70
    16
  0
VERTEX
  8
F01_OUT
  5
11BC
 10
479.29434
 20
256.897115
 30
0.0
 70
    16
  0
VERTEX
  8
F01_OUT
  5
11BD
 10
479.159318
 20
256.297115
 30
0.0
 70
    16
  0
VERTEX
  8
F01_OUT
  5
11BE
 10
479.042891
 20
255.397115
 30
0.0
 70
    16
  0
VERTEX
  8
F01_OUT
  5
11BF
 10
479.081249
 20
254.497115
 30
0.0
 70
    16
  0
VERTEX
  8
F01_OUT
  5
11C0
 10
479.257773
 20
253.597115
 30
0.0
 70
    16
  0
VERTEX
  8
F01_OUT
  5
11C1
 10
479.464241
 20
252.697115
 30
0.0
 70
    16
  0
VERTEX
  8
F01_OUT
  5
11C2
 10
479.640765
 20
251.797115
 30
0.0
 70
    16
  0
VERTEX
  8
F01_OUT
  5
11C3
 10
479.679122
 20
250.897115
 30
0.0
 70
    16
  0
VERTEX
  8
F01_OUT
  5
11C4
 10
479.562696
 20
249.997115
 30
0.0
 70
    16
  0
VERTEX
  8
F01_OUT
  5
11C5
 10
479.427674
 20
249.397115
 30
0.0
 70
    16
  0
VERTEX
  8
F01_OUT
  5
11C6
 10
479.361007
 20
249.097115
 30
0.0
 70
    16
  0
VERTEX
  8
F01_OUT
  5
11C7
 10
479.361007
 20
257.197115
 30
0.0
 70
     8
  0
VERTEX
  8
F01_OUT
  5
11C8
 10
479.340997
 20
257.107115
 30
0.0
 70
     8
  0
VERTEX
  8
F01_OUT
  5
11C9
 10
479.321027
 20
257.017115
 30
0.0
 70
     8
  0
VERTEX
  8
F01_OUT
  5
11CA
 10
479.301189
 20
256.927115
 30
0.0
 70
     8
  0
VERTEX
  8
F01_OUT
  5
11CB
 10
479.281574
 20
256.837115
 30
0.0
 70
     8
  0
VERTEX
  8
F01_OUT
  5
11CC
 10
479.262273
 20
256.747115
 30
0.0
 70
     8
  0
VERTEX
  8
F01_OUT
  5
11CD
 10
479.243377
 20
256.657115
 30
0.0
 70
     8
  0
VERTEX
  8
F01_OUT
  5
11CE
 10
479.224977
 20
256.567115
 30
0.0
 70
     8
  0
VERTEX
  8
F01_OUT
  5
11CF
 10
479.207166
 20
256.477115
 30
0.0
 70
     8
  0
VERTEX
  8
F01_OUT
  5
11D0
 10
479.190032
 20
256.387115
 30
0.0
 70
     8
  0
VERTEX
  8
F01_OUT
  5
11D1
 10
479.173669
 20
256.297115
 30
0.0
 70
     8
  0
VERTEX
  8
F01_OUT
  5
11D2
 10
479.158163
 20
256.207115
 30
0.0
 70
     8
  0
VERTEX
  8
F01_OUT
  5
11D3
 10
479.143587
 20
256.117115
 30
0.0
 70
     8
  0
VERTEX
  8
F01_OUT
  5
11D4
 10
479.130009
 20
256.027115
 30
0.0
 70
     8
  0
VERTEX
  8
F01_OUT
  5
11D5
 10
479.117498
 20
255.937115
 30
0.0
 70
     8
  0
VERTEX
  8
F01_OUT
  5
11D6
 10
479.106123
 20
255.847115
 30
0.0
 70
     8
  0
VERTEX
  8
F01_OUT
  5
11D7
 10
479.095953
 20
255.757115
 30
0.0
 70
     8
  0
VERTEX
  8
F01_OUT
  5
11D8
 10
479.087055
 20
255.667115
 30
0.0
 70
     8
  0
VERTEX
  8
F01_OUT
  5
11D9
 10
479.0795
 20
255.577115
 30
0.0
 70
     8
  0
VERTEX
  8
F01_OUT
  5
11DA
 10
479.073355
 20
255.487115
 30
0.0
 70
     8
  0
VERTEX
  8
F01_OUT
  5
11DB
 10
479.068689
 20
255.397115
 30
0.0
 70
     8
  0
VERTEX
  8
F01_OUT
  5
11DC
 10
479.065557
 20
255.307115
 30
0.0
 70
     8
  0
VERTEX
  8
F01_OUT
  5
11DD
 10
479.063955
 20
255.217115
 30
0.0
 70
     8
  0
VERTEX
  8
F01_OUT
  5
11DE
 10
479.063869
 20
255.127115
 30
0.0
 70
     8
  0
VERTEX
  8
F01_OUT
  5
11DF
 10
479.065281
 20
255.037115
 30
0.0
 70
     8
  0
VERTEX
  8
F01_OUT
  5
11E0
 10
479.068174
 20
254.947115
 30
0.0
 70
     8
  0
VERTEX
  8
F01_OUT
  5
11E1
 10
479.072531
 20
254.857115
 30
0.0
 70
     8
  0
VERTEX
  8
F01_OUT
  5
11E2
 10
479.078337
 20
254.767115
 30
0.0
 70
     8
  0
VERTEX
  8
F01_OUT
  5
11E3
 10
479.085574
 20
254.677115
 30
0.0
 70
     8
  0
VERTEX
  8
F01_OUT
  5
11E4
 10
479.094226
 20
254.587115
 30
0.0
 70
     8
  0
VERTEX
  8
F01_OUT
  5
11E5
 10
479.104277
 20
254.497115
 30
0.0
 70
     8
  0
VERTEX
  8
F01_OUT
  5
11E6
 10
479.115694
 20
254.407115
 30
0.0
 70
     8
  0
VERTEX
  8
F01_OUT
  5
11E7
 10
479.128384
 20
254.317115
 30
0.0
 70
     8
  0
VERTEX
  8
F01_OUT
  5
11E8
 10
479.14224
 20
254.227115
 30
0.0
 70
     8
  0
VERTEX
  8
F01_OUT
  5
11E9
 10
479.157152
 20
254.137115
 30
0.0
 70
     8
  0
VERTEX
  8
F01_OUT
  5
11EA
 10
479.173014
 20
254.047115
 30
0.0
 70
     8
  0
VERTEX
  8
F01_OUT
  5
11EB
 10
479.189715
 20
253.957115
 30
0.0
 70
     8
  0
VERTEX
  8
F01_OUT
  5
11EC
 10
479.20715
 20
253.867115
 30
0.0
 70
     8
  0
VERTEX
  8
F01_OUT
  5
11ED
 10
479.225208
 20
253.777115
 30
0.0
 70
     8
  0
VERTEX
  8
F01_OUT
  5
11EE
 10
479.243782
 20
253.687115
 30
0.0
 70
     8
  0
VERTEX
  8
F01_OUT
  5
11EF
 10
479.262764
 20
253.597115
 30
0.0
 70
     8
  0
VERTEX
  8
F01_OUT
  5
11F0
 10
479.282053
 20
253.507115
 30
0.0
 70
     8
  0
VERTEX
  8
F01_OUT
  5
11F1
 10
479.301582
 20
253.417115
 30
0.0
 70
     8
  0
VERTEX
  8
F01_OUT
  5
11F2
 10
479.32129
 20
253.327115
 30
0.0
 70
     8
  0
VERTEX
  8
F01_OUT
  5
11F3
 10
479.341119
 20
253.237115
 30
0.0
 70
     8
  0
VERTEX
  8
F01_OUT
  5
11F4
 10
479.361007
 20
253.147115
 30
0.0
 70
     8
  0
VERTEX
  8
F01_OUT
  5
11F5
 10
479.380895
 20
253.057115
 30
0.0
 70
     8
  0
VERTEX
  8
F01_OUT
  5
11F6
 10
479.400723
 20
252.967115
 30
0.0
 70
     8
  0
VERTEX
  8
F01_OUT
  5
11F7
 10
479.420432
 20
252.877115
 30
0.0
 70
     8
  0
VERTEX
  8
F01_OUT
  5
11F8
 10
479.439961
 20
252.787115
 30
0.0
 70
     8
  0
VERTEX
  8
F01_OUT
  5
11F9
 10
479.45925
 20
252.697115
 30
0.0
 70
     8
  0
VERTEX
  8
F01_OUT
  5
11FA
 10
479.478232
 20
252.607115
 30
0.0
 70
     8
  0
VERTEX
  8
F01_OUT
  5
11FB
 10
479.496806
 20
252.517115
 30
0.0
 70
     8
  0
VERTEX
  8
F01_OUT
  5
11FC
 10
479.514864
 20
252.427115
 30
0.0
 70
     8
  0
VERTEX
  8
F01_OUT
  5
11FD
 10
479.532299
 20
252.337115
 30
0.0
 70
     8
  0
VERTEX
  8
F01_OUT
  5
11FE
 10
479.549
 20
252.247115
 30
0.0
 70
     8
  0
VERTEX
  8
F01_OUT
  5
11FF
 10
479.564862
 20
252.157115
 30
0.0
 70
     8
  0
VERTEX
  8
F01_OUT
  5
1200
 10
479.579774
 20
252.067115
 30
0.0
 70
     8
  0
VERTEX
  8
F01_OUT
  5
1201
 10
479.59363
 20
251.977115
 30
0.0
 70
     8
  0
VERTEX
  8
F01_OUT
  5
1202
 10
479.60632
 20
251.887115
 30
0.0
 70
     8
  0
VERTEX
  8
F01_OUT
  5
1203
 10
479.617737
 20
251.797115
 30
0.0
 70
     8
  0
VERTEX
  8
F01_OUT
  5
1204
 10
479.627787
 20
251.707115
 30
0.0
 70
     8
  0
VERTEX
  8
F01_OUT
  5
1205
 10
479.63644
 20
251.617115
 30
0.0
 70
     8
  0
VERTEX
  8
F01_OUT
  5
1206
 10
479.643677
 20
251.527115
 30
0.0
 70
     8
  0
VERTEX
  8
F01_OUT
  5
1207
 10
479.649483
 20
251.437115
 30
0.0
 70
     8
  0
VERTEX
  8
F01_OUT
  5
1208
 10
479.65384
 20
251.347115
 30
0.0
 70
     8
  0
VERTEX
  8
F01_OUT
  5
1209
 10
479.656733
 20
251.257115
 30
0.0
 70
     8
  0
VERTEX
  8
F01_OUT
  5
120A
 10
479.658145
 20
251.167115
 30
0.0
 70
     8
  0
VERTEX
  8
F01_OUT
  5
120B
 10
479.658058
 20
251.077115
 30
0.0
 70
     8
  0
VERTEX
  8
F01_OUT
  5
120C
 10
479.656457
 20
250.987115
 30
0.0
 70
     8
  0
VERTEX
  8
F01_OUT
  5
120D
 10
479.653325
 20
250.897115
 30
0.0
 70
     8
  0
VERTEX
  8
F01_OUT
  5
120E
 10
479.648659
 20
250.807115
 30
0.0
 70
     8
  0
VERTEX
  8
F01_OUT
  5
120F
 10
479.642514
 20
250.717115
 30
0.0
 70
     8
  0
VERTEX
  8
F01_OUT
  5
1210
 10
479.634959
 20
250.627115
 30
0.0
 70
     8
  0
VERTEX
  8
F01_OUT
  5
1211
 10
479.626061
 20
250.537115
 30
0.0
 70
     8
  0
VERTEX
  8
F01_OUT
  5
1212
 10
479.615891
 20
250.447115
 30
0.0
 70
     8
  0
VERTEX
  8
F01_OUT
  5
1213
 10
479.604516
 20
250.357115
 30
0.0
 70
     8
  0
VERTEX
  8
F01_OUT
  5
1214
 10
479.592005
 20
250.267115
 30
0.0
 70
     8
  0
VERTEX
  8
F01_OUT
  5
1215
 10
479.578427
 20
250.177115
 30
0.0
 70
     8
  0
VERTEX
  8
F01_OUT
  5
1216
 10
479.563851
 20
250.087115
 30
0.0
 70
     8
  0
VERTEX
  8
F01_OUT
  5
1217
 10
479.548345
 20
249.997115
 30
0.0
 70
     8
  0
VERTEX
  8
F01_OUT
  5
1218
 10
479.531982
 20
249.907115
 30
0.0
 70
     8
  0
VERTEX
  8
F01_OUT
  5
1219
 10
479.514848
 20
249.817115
 30
0.0
 70
     8
  0
VERTEX
  8
F01_OUT
  5
121A
 10
479.497036
 20
249.727115
 30
0.0
 70
     8
  0
VERTEX
  8
F01_OUT
  5
121B
 10
479.478637
 20
249.637115
 30
0.0
 70
     8
  0
VERTEX
  8
F01_OUT
  5
121C
 10
479.459741
 20
249.547115
 30
0.0
 70
     8
  0
VERTEX
  8
F01_OUT
  5
121D
 10
479.44044
 20
249.457115
 30
0.0
 70
     8
  0
VERTEX
  8
F01_OUT
  5
121E
 10
479.420825
 20
249.367115
 30
0.0
 70
     8
  0
VERTEX
  8
F01_OUT
  5
121F
 10
479.400987
 20
249.277115
 30
0.0
 70
     8
  0
VERTEX
  8
F01_OUT
  5
1220
 10
479.381017
 20
249.187115
 30
0.0
 70
     8
  0
VERTEX
  8
F01_OUT
  5
1221
 10
479.361007
 20
249.097115
 30
0.0
 70
     8
  0
VERTEX
  8
F01_OUT
  5
1222
 10
479.361007
 20
249.097115
 30
0.0
 70
     8
  0
SEQEND
  8
F01_OUT
  5
1223
  0
POLYLINE
  8
F01_OUT
  5
1224
 66
     1
 10
0.0
 20
0.0
 30
0.0
 70
     4
 75
     6
  0
VERTEX
  8
F01_OUT
  5
1225
 10
479.06683
 20
251.147115
 30
0.0
 70
    16
  0
VERTEX
  8
F01_OUT
  5
1226
 10
479.066362
 20
251.033226
 30
0.0
 70
    16
  0
VERTEX
  8
F01_OUT
  5
1227
 10
479.072415
 20
250.805449
 30
0.0
 70
    16
  0
VERTEX
  8
F01_OUT
  5
1228
 10
479.101416
 20
250.463782
 30
0.0
 70
    16
  0
VERTEX
  8
F01_OUT
  5
1229
 10
479.149005
 20
250.122115
 30
0.0
 70
    16
  0
VERTEX
  8
F01_OUT
  5
122A
 10
479.211276
 20
249.780449
 30
0.0
 70
    16
  0
VERTEX
  8
F01_OUT
  5
122B
 10
479.284263
 20
249.438782
 30
0.0
 70
    16
  0
VERTEX
  8
F01_OUT
  5
122C
 10
479.335698
 20
249.211004
 30
0.0
 70
    16
  0
VERTEX
  8
F01_OUT
  5
122D
 10
479.361007
 20
249.097115
 30
0.0
 70
    16
  0
VERTEX
  8
F01_OUT
  5
122E
 10
479.06683
 20
251.147115
 30
0.0
 70
     8
  0
VERTEX
  8
F01_OUT
  5
122F
 10
479.066794
 20
251.112949
 30
0.0
 70
     8
  0
VERTEX
  8
F01_OUT
  5
1230
 10
479.066967
 20
251.078782
 30
0.0
 70
     8
  0
VERTEX
  8
F01_OUT
  5
1231
 10
479.067347
 20
251.044615
 30
0.0
 70
     8
  0
VERTEX
  8
F01_OUT
  5
1232
 10
479.067934
 20
251.010449
 30
0.0
 70
     8
  0
VERTEX
  8
F01_OUT
  5
1233
 10
479.068727
 20
250.976282
 30
0.0
 70
     8
  0
VERTEX
  8
F01_OUT
  5
1234
 10
479.069724
 20
250.942115
 30
0.0
 70
     8
  0
VERTEX
  8
F01_OUT
  5
1235
 10
479.070924
 20
250.907949
 30
0.0
 70
     8
  0
VERTEX
  8
F01_OUT
  5
1236
 10
479.072327
 20
250.873782
 30
0.0
 70
     8
  0
VERTEX
  8
F01_OUT
  5
1237
 10
479.073931
 20
250.839615
 30
0.0
 70
     8
  0
VERTEX
  8
F01_OUT
  5
1238
 10
479.075735
 20
250.805449
 30
0.0
 70
     8
  0
VERTEX
  8
F01_OUT
  5
1239
 10
479.077739
 20
250.771282
 30
0.0
 70
     8
  0
VERTEX
  8
F01_OUT
  5
123A
 10
479.07994
 20
250.737115
 30
0.0
 70
     8
  0
VERTEX
  8
F01_OUT
  5
123B
 10
479.082338
 20
250.702949
 30
0.0
 70
     8
  0
VERTEX
  8
F01_OUT
  5
123C
 10
479.084931
 20
250.668782
 30
0.0
 70
     8
  0
VERTEX
  8
F01_OUT
  5
123D
 10
479.087718
 20
250.634615
 30
0.0
 70
     8
  0
VERTEX
  8
F01_OUT
  5
123E
 10
479.090697
 20
250.600449
 30
0.0
 70
     8
  0
VERTEX
  8
F01_OUT
  5
123F
 10
479.093868
 20
250.566282
 30
0.0
 70
     8
  0
VERTEX
  8
F01_OUT
  5
1240
 10
479.097229
 20
250.532115
 30
0.0
 70
     8
  0
VERTEX
  8
F01_OUT
  5
1241
 10
479.100778
 20
250.497949
 30
0.0
 70
     8
  0
VERTEX
  8
F01_OUT
  5
1242
 10
479.104514
 20
250.463782
 30
0.0
 70
     8
  0
VERTEX
  8
F01_OUT
  5
1243
 10
479.108436
 20
250.429615
 30
0.0
 70
     8
  0
VERTEX
  8
F01_OUT
  5
1244
 10
479.11254
 20
250.395449
 30
0.0
 70
     8
  0
VERTEX
  8
F01_OUT
  5
1245
 10
479.116821
 20
250.361282
 30
0.0
 70
     8
  0
VERTEX
  8
F01_OUT
  5
1246
 10
479.121277
 20
250.327115
 30
0.0
 70
     8
  0
VERTEX
  8
F01_OUT
  5
1247
 10
479.125904
 20
250.292949
 30
0.0
 70
     8
  0
VERTEX
  8
F01_OUT
  5
1248
 10
479.130696
 20
250.258782
 30
0.0
 70
     8
  0
VERTEX
  8
F01_OUT
  5
1249
 10
479.135651
 20
250.224615
 30
0.0
 70
     8
  0
VERTEX
  8
F01_OUT
  5
124A
 10
479.140765
 20
250.190449
 30
0.0
 70
     8
  0
VERTEX
  8
F01_OUT
  5
124B
 10
479.146033
 20
250.156282
 30
0.0
 70
     8
  0
VERTEX
  8
F01_OUT
  5
124C
 10
479.151452
 20
250.122115
 30
0.0
 70
     8
  0
VERTEX
  8
F01_OUT
  5
124D
 10
479.157018
 20
250.087949
 30
0.0
 70
     8
  0
VERTEX
  8
F01_OUT
  5
124E
 10
479.162726
 20
250.053782
 30
0.0
 70
     8
  0
VERTEX
  8
F01_OUT
  5
124F
 10
479.168574
 20
250.019615
 30
0.0
 70
     8
  0
VERTEX
  8
F01_OUT
  5
1250
 10
479.174556
 20
249.985449
 30
0.0
 70
     8
  0
VERTEX
  8
F01_OUT
  5
1251
 10
479.18067
 20
249.951282
 30
0.0
 70
     8
  0
VERTEX
  8
F01_OUT
  5
1252
 10
479.18691
 20
249.917115
 30
0.0
 70
     8
  0
VERTEX
  8
F01_OUT
  5
1253
 10
479.193273
 20
249.882949
 30
0.0
 70
     8
  0
VERTEX
  8
F01_OUT
  5
1254
 10
479.199756
 20
249.848782
 30
0.0
 70
     8
  0
VERTEX
  8
F01_OUT
  5
1255
 10
479.206353
 20
249.814615
 30
0.0
 70
     8
  0
VERTEX
  8
F01_OUT
  5
1256
 10
479.213062
 20
249.780449
 30
0.0
 70
     8
  0
VERTEX
  8
F01_OUT
  5
1257
 10
479.219878
 20
249.746282
 30
0.0
 70
     8
  0
VERTEX
  8
F01_OUT
  5
1258
 10
479.226794
 20
249.712115
 30
0.0
 70
     8
  0
VERTEX
  8
F01_OUT
  5
1259
 10
479.233804
 20
249.677949
 30
0.0
 70
     8
  0
VERTEX
  8
F01_OUT
  5
125A
 10
479.240901
 20
249.643782
 30
0.0
 70
     8
  0
VERTEX
  8
F01_OUT
  5
125B
 10
479.24808
 20
249.609615
 30
0.0
 70
     8
  0
VERTEX
  8
F01_OUT
  5
125C
 10
479.255333
 20
249.575449
 30
0.0
 70
     8
  0
VERTEX
  8
F01_OUT
  5
125D
 10
479.262654
 20
249.541282
 30
0.0
 70
     8
  0
VERTEX
  8
F01_OUT
  5
125E
 10
479.270036
 20
249.507115
 30
0.0
 70
     8
  0
VERTEX
  8
F01_OUT
  5
125F
 10
479.277473
 20
249.472949
 30
0.0
 70
     8
  0
VERTEX
  8
F01_OUT
  5
1260
 10
479.284958
 20
249.438782
 30
0.0
 70
     8
  0
VERTEX
  8
F01_OUT
  5
1261
 10
479.292484
 20
249.404615
 30
0.0
 70
     8
  0
VERTEX
  8
F01_OUT
  5
1262
 10
479.300046
 20
249.370449
 30
0.0
 70
     8
  0
VERTEX
  8
F01_OUT
  5
1263
 10
479.307636
 20
249.336282
 30
0.0
 70
     8
  0
VERTEX
  8
F01_OUT
  5
1264
 10
479.315248
 20
249.302115
 30
0.0
 70
     8
  0
VERTEX
  8
F01_OUT
  5
1265
 10
479.322875
 20
249.267949
 30
0.0
 70
     8
  0
VERTEX
  8
F01_OUT
  5
1266
 10
479.330511
 20
249.233782
 30
0.0
 70
     8
  0
VERTEX
  8
F01_OUT
  5
1267
 10
479.338149
 20
249.199615
 30
0.0
 70
     8
  0
VERTEX
  8
F01_OUT
  5
1268
 10
479.345782
 20
249.165449
 30
0.0
 70
     8
  0
VERTEX
  8
F01_OUT
  5
1269
 10
479.353403
 20
249.131282
 30
0.0
 70
     8
  0
VERTEX
  8
F01_OUT
  5
126A
 10
479.361007
 20
249.097115
 30
0.0
 70
     8
  0
VERTEX
  8
F01_OUT
  5
126B
 10
479.361007
 20
249.097115
 30
0.0
 70
     8
  0
SEQEND
  8
F01_OUT
  5
126C
  0
POLYLINE
  8
F01_OUT
  5
126D
 66
     1
 10
0.0
 20
0.0
 30
0.0
 70
     4
 75
     6
  0
VERTEX
  8
F01_OUT
  5
126E
 10
480.261007
 20
257.197115
 30
0.0
 70
    16
  0
VERTEX
  8
F01_OUT
  5
126F
 10
480.286316
 20
257.083226
 30
0.0
 70
    16
  0
VERTEX
  8
F01_OUT
  5
1270
 10
480.337214
 20
256.855449
 30
0.0
 70
    16
  0
VERTEX
  8
F01_OUT
  5
1271
 10
480.409188
 20
256.513782
 30
0.0
 70
    16
  0
VERTEX
  8
F01_OUT
  5
1272
 10
480.471869
 20
256.172115
 30
0.0
 70
    16
  0
VERTEX
  8
F01_OUT
  5
1273
 10
480.520863
 20
255.830449
 30
0.0
 70
    16
  0
VERTEX
  8
F01_OUT
  5
1274
 10
480.552168
 20
255.488782
 30
0.0
 70
    16
  0
VERTEX
  8
F01_OUT
  5
1275
 10
480.558641
 20
255.261004
 30
0.0
 70
    16
  0
VERTEX
  8
F01_OUT
  5
1276
 10
480.561007
 20
255.147115
 30
0.0
 70
    16
  0
VERTEX
  8
F01_OUT
  5
1277
 10
480.261007
 20
257.197115
 30
0.0
 70
     8
  0
VERTEX
  8
F01_OUT
  5
1278
 10
480.268603
 20
257.162949
 30
0.0
 70
     8
  0
VERTEX
  8
F01_OUT
  5
1279
 10
480.276202
 20
257.128782
 30
0.0
 70
     8
  0
VERTEX
  8
F01_OUT
  5
127A
 10
480.283799
 20
257.094615
 30
0.0
 70
     8
  0
VERTEX
  8
F01_OUT
  5
127B
 10
480.291389
 20
257.060449
 30
0.0
 70
     8
  0
VERTEX
  8
F01_OUT
  5
127C
 10
480.298967
 20
257.026282
 30
0.0
 70
     8
  0
VERTEX
  8
F01_OUT
  5
127D
 10
480.306527
 20
256.992115
 30
0.0
 70
     8
  0
VERTEX
  8
F01_OUT
  5
127E
 10
480.314064
 20
256.957949
 30
0.0
 70
     8
  0
VERTEX
  8
F01_OUT
  5
127F
 10
480.321573
 20
256.923782
 30
0.0
 70
     8
  0
VERTEX
  8
F01_OUT
  5
1280
 10
480.329048
 20
256.889615
 30
0.0
 70
     8
  0
VERTEX
  8
F01_OUT
  5
1281
 10
480.336485
 20
256.855449
 30
0.0
 70
     8
  0
VERTEX
  8
F01_OUT
  5
1282
 10
480.343879
 20
256.821282
 30
0.0
 70
     8
  0
VERTEX
  8
F01_OUT
  5
1283
 10
480.351223
 20
256.787115
 30
0.0
 70
     8
  0
VERTEX
  8
F01_OUT
  5
1284
 10
480.358515
 20
256.752949
 30
0.0
 70
     8
  0
VERTEX
  8
F01_OUT
  5
1285
 10
480.365747
 20
256.718782
 30
0.0
 70
     8
  0
VERTEX
  8
F01_OUT
  5
1286
 10
480.372916
 20
256.684615
 30
0.0
 70
     8
  0
VERTEX
  8
F01_OUT
  5
1287
 10
480.380017
 20
256.650449
 30
0.0
 70
     8
  0
VERTEX
  8
F01_OUT
  5
1288
 10
480.387045
 20
256.616282
 30
0.0
 70
     8
  0
VERTEX
  8
F01_OUT
  5
1289
 10
480.393994
 20
256.582115
 30
0.0
 70
     8
  0
VERTEX
  8
F01_OUT
  5
128A
 10
480.400861
 20
256.547949
 30
0.0
 70
     8
  0
VERTEX
  8
F01_OUT
  5
128B
 10
480.407639
 20
256.513782
 30
0.0
 70
     8
  0
VERTEX
  8
F01_OUT
  5
128C
 10
480.414325
 20
256.479615
 30
0.0
 70
     8
  0
VERTEX
  8
F01_OUT
  5
128D
 10
480.420913
 20
256.445449
 30
0.0
 70
     8
  0
VERTEX
  8
F01_OUT
  5
128E
 10
480.427399
 20
256.411282
 30
0.0
 70
     8
  0
VERTEX
  8
F01_OUT
  5
128F
 10
480.43378
 20
256.377115
 30
0.0
 70
     8
  0
VERTEX
  8
F01_OUT
  5
1290
 10
480.44005
 20
256.342949
 30
0.0
 70
     8
  0
VERTEX
  8
F01_OUT
  5
1291
 10
480.446205
 20
256.308782
 30
0.0
 70
     8
  0
VERTEX
  8
F01_OUT
  5
1292
 10
480.45224
 20
256.274615
 30
0.0
 70
     8
  0
VERTEX
  8
F01_OUT
  5
1293
 10
480.458152
 20
256.240449
 30
0.0
 70
     8
  0
VERTEX
  8
F01_OUT
  5
1294
 10
480.463936
 20
256.206282
 30
0.0
 70
     8
  0
VERTEX
  8
F01_OUT
  5
1295
 10
480.469588
 20
256.172115
 30
0.0
 70
     8
  0
VERTEX
  8
F01_OUT
  5
1296
 10
480.475102
 20
256.137949
 30
0.0
 70
     8
  0
VERTEX
  8
F01_OUT
  5
1297
 10
480.480476
 20
256.103782
 30
0.0
 70
     8
  0
VERTEX
  8
F01_OUT
  5
1298
 10
480.485705
 20
256.069615
 30
0.0
 70
     8
  0
VERTEX
  8
F01_OUT
  5
1299
 10
480.490785
 20
256.035449
 30
0.0
 70
     8
  0
VERTEX
  8
F01_OUT
  5
129A
 10
480.495712
 20
256.001282
 30
0.0
 70
     8
  0
VERTEX
  8
F01_OUT
  5
129B
 10
480.500483
 20
255.967115
 30
0.0
 70
     8
  0
VERTEX
  8
F01_OUT
  5
129C
 10
480.505092
 20
255.932949
 30
0.0
 70
     8
  0
VERTEX
  8
F01_OUT
  5
129D
 10
480.509537
 20
255.898782
 30
0.0
 70
     8
  0
VERTEX
  8
F01_OUT
  5
129E
 10
480.513812
 20
255.864615
 30
0.0
 70
     8
  0
VERTEX
  8
F01_OUT
  5
129F
 10
480.517915
 20
255.830449
 30
0.0
 70
     8
  0
VERTEX
  8
F01_OUT
  5
12A0
 10
480.521841
 20
255.796282
 30
0.0
 70
     8
  0
VERTEX
  8
F01_OUT
  5
12A1
 10
480.525586
 20
255.762115
 30
0.0
 70
     8
  0
VERTEX
  8
F01_OUT
  5
12A2
 10
480.529146
 20
255.727949
 30
0.0
 70
     8
  0
VERTEX
  8
F01_OUT
  5
12A3
 10
480.532518
 20
255.693782
 30
0.0
 70
     8
  0
VERTEX
  8
F01_OUT
  5
12A4
 10
480.535697
 20
255.659615
 30
0.0
 70
     8
  0
VERTEX
  8
F01_OUT
  5
12A5
 10
480.53868
 20
255.625449
 30
0.0
 70
     8
  0
VERTEX
  8
F01_OUT
  5
12A6
 10
480.541463
 20
255.591282
 30
0.0
 70
     8
  0
VERTEX
  8
F01_OUT
  5
12A7
 10
480.544041
 20
255.557115
 30
0.0
 70
     8
  0
VERTEX
  8
F01_OUT
  5
12A8
 10
480.546411
 20
255.522949
 30
0.0
 70
     8
  0
VERTEX
  8
F01_OUT
  5
12A9
 10
480.548569
 20
255.488782
 30
0.0
 70
     8
  0
VERTEX
  8
F01_OUT
  5
12AA
 10
480.550514
 20
255.454615
 30
0.0
 70
     8
  0
VERTEX
  8
F01_OUT
  5
12AB
 10
480.55226
 20
255.420449
 30
0.0
 70
     8
  0
VERTEX
  8
F01_OUT
  5
12AC
 10
480.553823
 20
255.386282
 30
0.0
 70
     8
  0
VERTEX
  8
F01_OUT
  5
12AD
 10
480.555219
 20
255.352115
 30
0.0
 70
     8
  0
VERTEX
  8
F01_OUT
  5
12AE
 10
480.556464
 20
255.317949
 30
0.0
 70
     8
  0
VERTEX
  8
F01_OUT
  5
12AF
 10
480.557575
 20
255.283782
 30
0.0
 70
     8
  0
VERTEX
  8
F01_OUT
  5
12B0
 10
480.558569
 20
255.249615
 30
0.0
 70
     8
  0
VERTEX
  8
F01_OUT
  5
12B1
 10
480.559461
 20
255.215449
 30
0.0
 70
     8
  0
VERTEX
  8
F01_OUT
  5
12B2
 10
480.560268
 20
255.181282
 30
0.0
 70
     8
  0
VERTEX
  8
F01_OUT
  5
12B3
 10
480.561007
 20
255.147115
 30
0.0
 70
     8
  0
VERTEX
  8
F01_OUT
  5
12B4
 10
480.561007
 20
255.147115
 30
0.0
 70
     8
  0
SEQEND
  8
F01_OUT
  5
12B5
  0
ARC
  8
F01_OUT
  5
12B6
 10
487.26683
 20
253.147115
 30
0.0
 40
11.5
 50
163.199989
 51
196.799985
  0
ARC
  8
F01_OUT
  5
12B7
 10
477.801102
 20
250.247115
 30
0.0
 40
1.6
 50
197.03341
 51
270.0
  0
ARC
  8
F01_OUT
  5
12B8
 10
477.801102
 20
256.047115
 30
0.0
 40
1.6
 50
90.0
 51
162.96659
  0
ARC
  8
F01_OUT
  5
12B9
 10
480.661007
 20
254.447115
 30
0.0
 40
0.3
 50
270.0
 51
0.0
  0
ARC
  8
F01_OUT
  5
12BA
 10
480.661007
 20
255.847115
 30
0.0
 40
0.3
 50
0.0
 51
90.0
  0
ARC
  8
F01_OUT
  5
12BB
 10
480.661007
 20
250.447115
 30
0.0
 40
0.3
 50
270.0
 51
0.0
  0
ARC
  8
F01_OUT
  5
12BC
 10
480.661007
 20
251.847115
 30
0.0
 40
0.3
 50
0.0
 51
90.0
  0
LINE
  8
F01_OUT
  5
12C0
 10
431.690038
 20
259.147115
 30
0.0
 11
416.190038
 21
259.147115
 31
0.0
  0
ARC
  8
F01_OUT
  5
12C6
 10
416.190038
 20
258.647115
 30
0.0
 40
0.5
 50
90.0
 51
180.0
  0
ARC
  8
F01_OUT
  5
12C9
 10
431.690038
 20
258.647115
 30
0.0
 40
0.5
 50
0.0
 51
90.0
  0
LINE
  8
F01_OUT
  5
12D8
 10
483.261007
 20
259.147115
 30
0.0
 11
482.561007
 21
256.347115
 31
0.0
  0
LINE
  8
F01_OUT
  5
12E5
 10
482.961007
 20
255.147115
 30
0.0
 11
492.06683
 21
255.147115
 31
0.0
  0
LINE
  8
F01_OUT
  5
12E6
 10
483.56683
 20
250.647115
 30
0.0
 11
483.56683
 21
255.647115
 31
0.0
  0
LINE
  8
F01_OUT
  5
12E7
 10
482.961007
 20
251.147115
 30
0.0
 11
492.06683
 21
251.147115
 31
0.0
  0
LINE
  8
F01_OUT
  5
12E8
 10
492.06683
 20
255.647115
 30
0.0
 11
493.06683
 21
254.647115
 31
0.0
  0
LINE
  8
F01_OUT
  5
12E9
 10
492.06683
 20
255.647115
 30
0.0
 11
492.06683
 21
250.647115
 31
0.0
  0
LINE
  8
F01_OUT
  5
12EA
 10
483.56683
 20
250.647115
 30
0.0
 11
492.06683
 21
250.647115
 31
0.0
  0
LINE
  8
F01_OUT
  5
12EB
 10
493.06683
 20
251.647115
 30
0.0
 11
493.06683
 21
254.647115
 31
0.0
  0
LINE
  8
F01_OUT
  5
12EC
 10
492.06683
 20
255.647115
 30
0.0
 11
483.56683
 21
255.647115
 31
0.0
  0
LINE
  8
F01_OUT
  5
12ED
 10
482.561007
 20
256.347115
 30
0.0
 11
482.561007
 21
256.147115
 31
0.0
  0
LINE
  8
F01_OUT
  5
12EE
 10
482.81456
 20
256.250669
 30
0.0
 11
482.707398
 21
256.143507
 31
0.0
  0
LINE
  8
F01_OUT
  5
12EF
 10
482.561007
 20
256.147115
 30
0.0
 11
482.661007
 21
256.147115
 31
0.0
  0
LINE
  8
F01_OUT
  5
12F0
 10
482.561007
 20
252.747115
 30
0.0
 11
482.561007
 21
253.547115
 31
0.0
  0
LINE
  8
F01_OUT
  5
12F1
 10
482.961007
 20
256.604222
 30
0.0
 11
482.961007
 21
257.947115
 31
0.0
  0
LINE
  8
F01_OUT
  5
12F2
 10
482.561007
 20
253.547115
 30
0.0
 11
482.661007
 21
253.547115
 31
0.0
  0
LINE
  8
F01_OUT
  5
12F3
 10
482.961007
 20
255.847115
 30
0.0
 11
482.961007
 21
253.847115
 31
0.0
  0
LINE
  8
F01_OUT
  5
12F4
 10
482.961007
 20
250.447115
 30
0.0
 11
482.961007
 21
252.447115
 31
0.0
  0
LINE
  8
F01_OUT
  5
12F5
 10
482.561007
 20
252.747115
 30
0.0
 11
482.661007
 21
252.747115
 31
0.0
  0
LINE
  8
F01_OUT
  5
12F6
 10
482.961007
 20
249.690008
 30
0.0
 11
482.961007
 21
248.347115
 31
0.0
  0
LINE
  8
F01_OUT
  5
12F7
 10
483.261007
 20
247.147115
 30
0.0
 11
482.561007
 21
249.947115
 31
0.0
  0
LINE
  8
F01_OUT
  5
12F8
 10
482.561007
 20
250.147115
 30
0.0
 11
482.661007
 21
250.147115
 31
0.0
  0
LINE
  8
F01_OUT
  5
12F9
 10
482.81456
 20
250.043562
 30
0.0
 11
482.707398
 21
250.150724
 31
0.0
  0
LINE
  8
F01_OUT
  5
12FA
 10
482.561007
 20
249.947115
 30
0.0
 11
482.561007
 21
250.147115
 31
0.0
  0
LINE
  8
F01_OUT
  5
12FB
 10
492.06683
 20
250.647115
 30
0.0
 11
493.06683
 21
251.647115
 31
0.0
  0
ARC
  8
F01_OUT
  5
12FC
 10
482.461007
 20
256.604222
 30
0.0
 40
0.5
 50
315.0
 51
0.0
  0
ARC
  8
F01_OUT
  5
12FD
 10
482.661007
 20
255.847115
 30
0.0
 40
0.3
 50
0.0
 51
90.0
  0
ARC
  8
F01_OUT
  5
12FE
 10
482.661007
 20
253.847115
 30
0.0
 40
0.3
 50
270.0
 51
0.0
  0
ARC
  8
F01_OUT
  5
12FF
 10
482.661007
 20
252.447115
 30
0.0
 40
0.3
 50
0.0
 51
90.0
  0
ARC
  8
F01_OUT
  5
1300
 10
482.661007
 20
250.447115
 30
0.0
 40
0.3
 50
270.0
 51
0.0
  0
ARC
  8
F01_OUT
  5
1301
 10
482.461007
 20
249.690008
 30
0.0
 40
0.5
 50
0.0
 51
45.0
  0
CIRCLE
  8
F01_OUT
  5
13B4
 10
423.940038
 20
253.147115
 30
0.0
 40
4.5
  0
CIRCLE
  8
F01_OUT
  5
16AE
 10
595.500233
 20
253.147115
 30
0.0
 40
2.75
  0
DIMENSION
  8
F02_DIM
  5
16BA
  2
*D29
 10
593.594285
 20
251.164727
 30
0.0
 11
608.884539
 21
267.06821
 31
0.0
 70
   131
 15
597.406181
 25
255.129503
 35
0.0
  3
FSTD2
1001
ACAD
1000
DSTYLE
1002
{
1070
   288
1070
     1
1002
}
  0
INSERT
  8
F02_DIM
  5
16CC
  2
_OPEN30
 10
490.915175
 20
255.647115
 30
0.0
 41
2.5
 42
2.5
 50
288.76559
 43
2.5
  0
POLYLINE
  8
F02_DIM
  5
16CD
 66
     1
 10
0.0
 20
0.0
 30
0.0
  0
VERTEX
  8
F02_DIM
  5
1EAA
 10
490.110932
 20
258.014222
 30
0.0
  0
VERTEX
  8
F02_DIM
  5
1EAB
 10
484.245645
 20
275.277368
 30
0.0
  0
SEQEND
  8
F02_DIM
  5
1EAC
  0
LINE
  8
F08_IMG
  5
1BD6
 10
139.172315
 20
455.140336
 30
0.0
 11
137.372315
 21
455.140336
 31
0.0
  0
LINE
  8
F08_IMG
  5
1BD7
 10
139.172345
 20
453.740336
 30
0.0
 11
137.372345
 21
453.740336
 31
0.0
  0
LINE
  8
F08_IMG
  5
1BD8
 10
175.471888
 20
457.740336
 30
0.0
 11
129.672345
 21
457.740336
 31
0.0
  0
LINE
  8
F08_IMG
  5
1BD9
 10
138.572345
 20
435.940336
 30
0.0
 11
141.572345
 21
435.940336
 31
0.0
  0
CIRCLE
  8
F08_IMG
  5
1BDA
 10
140.072345
 20
438.940336
 30
0.0
 40
2.0
  0
LINE
  8
F08_IMG
  5
1BDB
 10
137.072345
 20
435.440336
 30
0.0
 11
143.072345
 21
435.440336
 31
0.0
  0
LINE
  8
F08_IMG
  5
1BDC
 10
134.072345
 20
436.740336
 30
0.0
 11
146.072345
 21
436.740336
 31
0.0
  0
ARC
  8
F08_IMG
  5
1BDD
 10
140.072345
 20
438.940336
 30
0.0
 40
2.5
 50
336.421822
 51
203.578178
  0
LINE
  8
F08_IMG
  5
1BDE
 10
146.072345
 20
433.440336
 30
0.0
 11
134.072345
 21
433.440336
 31
0.0
  0
LINE
  8
F08_IMG
  5
1BDF
 10
130.272345
 20
451.040354
 30
0.0
 11
130.272345
 21
454.140336
 31
0.0
  0
LINE
  8
F08_IMG
  5
1BE0
 10
127.672345
 20
455.690336
 30
0.0
 11
127.672345
 21
444.540336
 31
0.0
  0
ARC
  8
F08_IMG
  5
1BE1
 10
132.872315
 20
452.640336
 30
0.0
 40
0.9
 50
180.0
 51
270.0
  0
ARC
  8
F08_IMG
  5
1BE2
 10
136.472315
 20
452.640336
 30
0.0
 40
0.9
 50
180.0
 51
0.0
  0
ARC
  8
F08_IMG
  5
1BE3
 10
132.872315
 20
452.640336
 30
0.0
 40
0.9
 50
270.0
 51
0.0
  0
LINE
  8
F08_IMG
  5
1BE4
 10
137.072345
 20
435.440336
 30
0.0
 11
137.072345
 21
433.440336
 31
0.0
  0
ARC
  8
F08_IMG
  5
1BE5
 10
134.072345
 20
434.440336
 30
0.0
 40
1.0
 50
180.0
 51
270.0
  0
LINE
  8
F08_IMG
  5
1BE6
 10
133.072345
 20
442.440336
 30
0.0
 11
132.006826
 21
444.28587
 31
0.0
  0
LINE
  8
F08_IMG
  5
1BE7
 10
138.572345
 20
435.940336
 30
0.0
 11
138.572345
 21
435.440336
 31
0.0
  0
LINE
  8
F08_IMG
  5
1BE8
 10
133.072345
 20
434.440336
 30
0.0
 11
133.072345
 21
442.440336
 31
0.0
  0
LINE
  8
F08_IMG
  5
1BE9
 10
134.072345
 20
437.940336
 30
0.0
 11
138.340295
 21
437.940336
 31
0.0
  0
LINE
  8
F08_IMG
  5
1BEA
 10
134.072345
 20
437.940336
 30
0.0
 11
133.072345
 21
438.940336
 31
0.0
  0
LINE
  8
F08_IMG
  5
1BEB
 10
133.072345
 20
435.740336
 30
0.0
 11
134.072345
 21
436.740336
 31
0.0
  0
LINE
  8
F08_IMG
  5
1BEC
 10
128.772345
 20
445.840336
 30
0.0
 11
133.072345
 21
445.840336
 31
0.0
  0
LINE
  8
F08_IMG
  5
1BED
 10
129.572345
 20
449.340354
 30
0.0
 11
133.072345
 21
449.340354
 31
0.0
  0
LINE
  8
F08_IMG
  5
1BEE
 10
130.272345
 20
451.040354
 30
0.0
 11
129.572345
 21
450.340354
 31
0.0
  0
ARC
  8
F08_IMG
  5
1BEF
 10
131.571265
 20
444.040336
 30
0.0
 40
0.5
 50
29.410892
 51
90.0
  0
LINE
  8
F08_IMG
  5
1BF0
 10
128.772345
 20
448.540354
 30
0.0
 11
128.772345
 21
445.840336
 31
0.0
  0
LINE
  8
F08_IMG
  5
1BF1
 10
129.572345
 20
449.340354
 30
0.0
 11
128.772345
 21
448.540354
 31
0.0
  0
LINE
  8
F08_IMG
  5
1BF2
 10
129.572345
 20
449.340354
 30
0.0
 11
129.572345
 21
450.340354
 31
0.0
  0
LINE
  8
F08_IMG
  5
1BF3
 10
127.672345
 20
444.540336
 30
0.0
 11
131.571265
 21
444.540336
 31
0.0
  0
LINE
  8
F08_IMG
  5
1BF4
 10
137.372315
 20
444.840336
 30
0.0
 11
137.372315
 21
448.540336
 31
0.0
  0
LINE
  8
F08_IMG
  5
1BF5
 10
135.572315
 20
444.840336
 30
0.0
 11
135.572315
 21
448.540336
 31
0.0
  0
ARC
  8
F08_IMG
  5
1BF6
 10
136.472315
 20
444.840336
 30
0.0
 40
0.9
 50
180.0
 51
0.0
  0
ARC
  8
F08_IMG
  5
1BF7
 10
136.472315
 20
448.540336
 30
0.0
 40
0.9
 50
0.0
 51
180.0
  0
LINE
  8
F08_IMG
  5
1BF8
 10
133.072345
 20
445.840336
 30
0.0
 11
133.072345
 21
449.340354
 31
0.0
  0
LINE
  8
F08_IMG
  5
1BF9
 10
133.772315
 20
455.140336
 30
0.0
 11
131.972315
 21
455.140336
 31
0.0
  0
LINE
  8
F08_IMG
  5
1BFA
 10
131.972315
 20
452.640336
 30
0.0
 11
131.972315
 21
457.740336
 31
0.0
  0
LINE
  8
F08_IMG
  5
1BFB
 10
131.972315
 20
455.140336
 30
0.0
 11
131.272345
 21
455.140336
 31
0.0
  0
ARC
  8
F08_IMG
  5
1BFC
 10
131.272345
 20
454.140336
 30
0.0
 40
1.0
 50
90.0
 51
180.0
  0
ARC
  8
F08_IMG
  5
1BFD
 10
129.672345
 20
455.740336
 30
0.0
 40
2.0
 50
90.0
 51
180.0
  0
LINE
  8
F08_IMG
  5
1BFE
 10
131.972345
 20
453.740336
 30
0.0
 11
127.672345
 21
453.740336
 31
0.0
  0
LINE
  8
F08_IMG
  5
1BFF
 10
137.372315
 20
452.640336
 30
0.0
 11
137.372315
 21
457.740336
 31
0.0
  0
LINE
  8
F08_IMG
  5
1C00
 10
135.572315
 20
452.640336
 30
0.0
 11
135.572315
 21
457.740336
 31
0.0
  0
LINE
  8
F08_IMG
  5
1C01
 10
133.772315
 20
452.640336
 30
0.0
 11
133.772315
 21
457.740336
 31
0.0
  0
LINE
  8
F08_IMG
  5
1C02
 10
137.372315
 20
455.140336
 30
0.0
 11
135.572315
 21
455.140336
 31
0.0
  0
LINE
  8
F08_IMG
  5
1C03
 10
135.572315
 20
455.140336
 30
0.0
 11
133.772315
 21
455.140336
 31
0.0
  0
LINE
  8
F08_IMG
  5
1C04
 10
135.572345
 20
453.740336
 30
0.0
 11
133.772345
 21
453.740336
 31
0.0
  0
LINE
  8
F08_IMG
  5
1C05
 10
174.871888
 20
451.040354
 30
0.0
 11
174.871888
 21
454.140336
 31
0.0
  0
LINE
  8
F08_IMG
  5
1C06
 10
177.471888
 20
455.690336
 30
0.0
 11
177.471888
 21
444.540336
 31
0.0
  0
LINE
  8
F08_IMG
  5
1C07
 10
153.072117
 20
447.940336
 30
0.0
 11
153.072117
 21
454.140336
 31
0.0
  0
LINE
  8
F08_IMG
  5
1C08
 10
154.672117
 20
447.940336
 30
0.0
 11
154.672117
 21
454.140336
 31
0.0
  0
ARC
  8
F08_IMG
  5
1C09
 10
143.672315
 20
452.640336
 30
0.0
 40
0.9
 50
180.0
 51
0.0
  0
ARC
  8
F08_IMG
  5
1C0A
 10
140.072315
 20
452.640336
 30
0.0
 40
0.9
 50
180.0
 51
0.0
  0
ARC
  8
F08_IMG
  5
1C0B
 10
147.272315
 20
452.640336
 30
0.0
 40
0.9
 50
180.0
 51
0.0
  0
ARC
  8
F08_IMG
  5
1C0C
 10
157.871888
 20
452.640336
 30
0.0
 40
0.9
 50
180.0
 51
0.0
  0
ARC
  8
F08_IMG
  5
1C0D
 10
161.471888
 20
452.640336
 30
0.0
 40
0.9
 50
180.0
 51
0.0
  0
ARC
  8
F08_IMG
  5
1C0E
 10
165.071888
 20
452.640336
 30
0.0
 40
0.9
 50
180.0
 51
0.0
  0
ARC
  8
F08_IMG
  5
1C0F
 10
168.671888
 20
452.640336
 30
0.0
 40
0.9
 50
180.0
 51
0.0
  0
ARC
  8
F08_IMG
  5
1C10
 10
172.271888
 20
452.640336
 30
0.0
 40
0.9
 50
180.0
 51
0.0
  0
ARC
  8
F08_IMG
  5
1C11
 10
165.071888
 20
448.540336
 30
0.0
 40
0.9
 50
90.0
 51
180.0
  0
CIRCLE
  8
F08_IMG
  5
1C12
 10
165.071888
 20
438.940336
 30
0.0
 40
2.0
  0
LINE
  8
F08_IMG
  5
1C13
 10
159.071888
 20
436.740336
 30
0.0
 11
171.071888
 21
436.740336
 31
0.0
  0
ARC
  8
F08_IMG
  5
1C14
 10
165.071888
 20
438.940336
 30
0.0
 40
2.5
 50
336.421822
 51
203.578178
  0
LINE
  8
F08_IMG
  5
1C15
 10
159.071888
 20
433.440336
 30
0.0
 11
171.071888
 21
433.440336
 31
0.0
  0
ARC
  8
F08_IMG
  5
1C16
 10
159.071888
 20
434.440336
 30
0.0
 40
1.0
 50
180.0
 51
270.0
  0
LINE
  8
F08_IMG
  5
1C17
 10
143.072345
 20
435.440336
 30
0.0
 11
143.072345
 21
433.440336
 31
0.0
  0
ARC
  8
F08_IMG
  5
1C18
 10
146.072345
 20
434.440336
 30
0.0
 40
1.0
 50
270.0
 51
0.0
  0
CIRCLE
  8
F08_IMG
  5
1C19
 10
149.77233
 20
445.440336
 30
0.0
 40
2.0
  0
LINE
  8
F08_IMG
  5
1C1A
 10
151.67233
 20
448.640336
 30
0.0
 11
147.57233
 21
448.640336
 31
0.0
  0
LINE
  8
F08_IMG
  5
1C1B
 10
151.67233
 20
449.140336
 30
0.0
 11
147.57233
 21
449.140336
 31
0.0
  0
LINE
  8
F08_IMG
  5
1C1C
 10
146.57233
 20
447.640336
 30
0.0
 11
146.57233
 21
442.440336
 31
0.0
  0
LINE
  8
F08_IMG
  5
1C1D
 10
146.07233
 20
447.640336
 30
0.0
 11
146.07233
 21
442.440336
 31
0.0
  0
LINE
  8
F08_IMG
  5
1C1E
 10
149.713752
 20
443.381757
 30
0.0
 11
148.57233
 21
442.240336
 31
0.0
  0
LINE
  8
F08_IMG
  5
1C1F
 10
141.804396
 20
437.940336
 30
0.0
 11
146.072345
 21
437.940336
 31
0.0
  0
LINE
  8
F08_IMG
  5
1C20
 10
141.572345
 20
435.940336
 30
0.0
 11
141.572345
 21
435.440336
 31
0.0
  0
LINE
  8
F08_IMG
  5
1C21
 10
147.072345
 20
434.440336
 30
0.0
 11
147.072345
 21
442.240336
 31
0.0
  0
ARC
  8
F08_IMG
  5
1C22
 10
146.77233
 20
442.440336
 30
0.0
 40
0.2
 50
180.0
 51
270.0
  0
ARC
  8
F08_IMG
  5
1C23
 10
146.27233
 20
442.440336
 30
0.0
 40
0.2
 50
180.0
 51
270.0
  0
LINE
  8
F08_IMG
  5
1C24
 10
148.57233
 20
442.240336
 30
0.0
 11
146.27233
 21
442.240336
 31
0.0
  0
LINE
  8
F08_IMG
  5
1C25
 10
146.072345
 20
437.940336
 30
0.0
 11
147.072345
 21
438.940336
 31
0.0
  0
LINE
  8
F08_IMG
  5
1C26
 10
146.072345
 20
436.740336
 30
0.0
 11
147.072345
 21
435.740336
 31
0.0
  0
ARC
  8
F08_IMG
  5
1C27
 10
143.672315
 20
444.840336
 30
0.0
 40
0.9
 50
180.0
 51
0.0
  0
ARC
  8
F08_IMG
  5
1C28
 10
143.672315
 20
448.540336
 30
0.0
 40
0.9
 50
0.0
 51
180.0
  0
LINE
  8
F08_IMG
  5
1C29
 10
142.772315
 20
444.840336
 30
0.0
 11
142.772315
 21
448.540336
 31
0.0
  0
LINE
  8
F08_IMG
  5
1C2A
 10
144.572315
 20
444.840336
 30
0.0
 11
144.572315
 21
448.540336
 31
0.0
  0
LINE
  8
F08_IMG
  5
1C2B
 10
140.972315
 20
444.840336
 30
0.0
 11
140.972315
 21
448.540336
 31
0.0
  0
LINE
  8
F08_IMG
  5
1C2C
 10
139.172315
 20
444.840336
 30
0.0
 11
139.172315
 21
448.540336
 31
0.0
  0
ARC
  8
F08_IMG
  5
1C2D
 10
140.072315
 20
448.540336
 30
0.0
 40
0.9
 50
0.0
 51
180.0
  0
ARC
  8
F08_IMG
  5
1C2E
 10
140.072315
 20
444.840336
 30
0.0
 40
0.9
 50
180.0
 51
0.0
  0
ARC
  8
F08_IMG
  5
1C2F
 10
149.57233
 20
443.523178
 30
0.0
 40
0.2
 50
315.0
 51
335.555487
  0
LINE
  8
F08_IMG
  5
1C30
 10
150.440967
 20
444.771699
 30
0.0
 11
149.004668
 21
446.207998
 31
0.0
  0
LINE
  8
F08_IMG
  5
1C31
 10
149.103694
 20
444.771699
 30
0.0
 11
150.539992
 21
446.207998
 31
0.0
  0
ARC
  8
F08_IMG
  5
1C32
 10
147.57233
 20
447.640336
 30
0.0
 40
1.0
 50
90.0
 51
180.0
  0
ARC
  8
F08_IMG
  5
1C33
 10
147.57233
 20
447.640336
 30
0.0
 40
1.5
 50
90.0
 51
180.0
  0
LINE
  8
F08_IMG
  5
1C34
 10
158.071918
 20
442.440283
 30
0.0
 11
156.871918
 21
444.518744
 31
0.0
  0
LINE
  8
F08_IMG
  5
1C35
 10
158.071888
 20
434.440336
 30
0.0
 11
158.071888
 21
442.440336
 31
0.0
  0
LINE
  8
F08_IMG
  5
1C36
 10
159.071888
 20
437.940336
 30
0.0
 11
158.071888
 21
438.940336
 31
0.0
  0
LINE
  8
F08_IMG
  5
1C37
 10
158.071888
 20
435.740336
 30
0.0
 11
159.071888
 21
436.740336
 31
0.0
  0
LINE
  8
F08_IMG
  5
1C38
 10
159.071888
 20
437.940336
 30
0.0
 11
163.339837
 21
437.940336
 31
0.0
  0
ARC
  8
F08_IMG
  5
1C39
 10
155.072345
 20
444.840336
 30
0.0
 40
0.3
 50
270.0
 51
0.0
  0
ARC
  8
F08_IMG
  5
1C3A
 10
156.371918
 20
447.440336
 30
0.0
 40
0.5
 50
0.0
 51
90.0
  0
ARC
  8
F08_IMG
  5
1C3B
 10
155.072345
 20
445.540336
 30
0.0
 40
0.3
 50
0.0
 51
90.0
  0
LINE
  8
F08_IMG
  5
1C3C
 10
154.672117
 20
445.840336
 30
0.0
 11
154.672117
 21
447.940336
 31
0.0
  0
LINE
  8
F08_IMG
  5
1C3D
 10
156.871918
 20
444.518744
 30
0.0
 11
156.871918
 21
447.440336
 31
0.0
  0
LINE
  8
F08_IMG
  5
1C3E
 10
154.672117
 20
445.840336
 30
0.0
 11
155.072345
 21
445.840336
 31
0.0
  0
LINE
  8
F08_IMG
  5
1C3F
 10
155.372345
 20
444.840336
 30
0.0
 11
155.372345
 21
445.540336
 31
0.0
  0
ARC
  8
F08_IMG
  5
1C40
 10
151.47233
 20
446.340336
 30
0.0
 40
0.2
 50
317.647404
 51
0.0
  0
ARC
  8
F08_IMG
  5
1C41
 10
152.671888
 20
444.840336
 30
0.0
 40
0.3
 50
180.0
 51
270.0
  0
ARC
  8
F08_IMG
  5
1C42
 10
152.671888
 20
445.540336
 30
0.0
 40
0.3
 50
90.0
 51
180.0
  0
LINE
  8
F08_IMG
  5
1C43
 10
151.67233
 20
446.340336
 30
0.0
 11
151.67233
 21
449.140336
 31
0.0
  0
LINE
  8
F08_IMG
  5
1C44
 10
153.072117
 20
445.840336
 30
0.0
 11
153.072117
 21
447.940336
 31
0.0
  0
LINE
  8
F08_IMG
  5
1C45
 10
153.072117
 20
445.840336
 30
0.0
 11
152.671888
 21
445.840336
 31
0.0
  0
LINE
  8
F08_IMG
  5
1C46
 10
152.671888
 20
444.540336
 30
0.0
 11
155.072345
 21
444.540336
 31
0.0
  0
LINE
  8
F08_IMG
  5
1C47
 10
152.371888
 20
444.840336
 30
0.0
 11
152.371888
 21
445.540336
 31
0.0
  0
LINE
  8
F08_IMG
  5
1C48
 10
151.67233
 20
447.940336
 30
0.0
 11
156.371918
 21
447.940336
 31
0.0
  0
ARC
  8
F08_IMG
  5
1C49
 10
161.471888
 20
444.840336
 30
0.0
 40
0.9
 50
180.0
 51
0.0
  0
ARC
  8
F08_IMG
  5
1C4A
 10
161.471888
 20
448.540336
 30
0.0
 40
0.9
 50
0.0
 51
180.0
  0
LINE
  8
F08_IMG
  5
1C4B
 10
160.571888
 20
444.840336
 30
0.0
 11
160.571888
 21
448.540336
 31
0.0
  0
LINE
  8
F08_IMG
  5
1C4C
 10
162.371888
 20
444.840336
 30
0.0
 11
162.371888
 21
448.540336
 31
0.0
  0
ARC
  8
F08_IMG
  5
1C4D
 10
171.071888
 20
434.440336
 30
0.0
 40
1.0
 50
270.0
 51
0.0
  0
LINE
  8
F08_IMG
  5
1C4E
 10
177.471888
 20
444.540336
 30
0.0
 11
173.573029
 21
444.540336
 31
0.0
  0
LINE
  8
F08_IMG
  5
1C4F
 10
173.140016
 20
444.290336
 30
0.0
 11
172.071888
 21
442.440283
 31
0.0
  0
LINE
  8
F08_IMG
  5
1C50
 10
166.803939
 20
437.940336
 30
0.0
 11
171.071888
 21
437.940336
 31
0.0
  0
LINE
  8
F08_IMG
  5
1C51
 10
172.071888
 20
434.440336
 30
0.0
 11
172.071888
 21
442.440283
 31
0.0
  0
LINE
  8
F08_IMG
  5
1C52
 10
171.071888
 20
437.940336
 30
0.0
 11
172.071888
 21
438.940336
 31
0.0
  0
LINE
  8
F08_IMG
  5
1C53
 10
171.071888
 20
436.740336
 30
0.0
 11
172.071888
 21
435.740336
 31
0.0
  0
ARC
  8
F08_IMG
  5
1C54
 10
168.671888
 20
444.840336
 30
0.0
 40
0.9
 50
180.0
 51
270.0
  0
ARC
  8
F08_IMG
  5
1C55
 10
168.671888
 20
444.840336
 30
0.0
 40
0.9
 50
270.0
 51
0.0
  0
LINE
  8
F08_IMG
  5
1C56
 10
169.571888
 20
444.840336
 30
0.0
 11
169.571888
 21
448.540336
 31
0.0
  0
ARC
  8
F08_IMG
  5
1C57
 10
168.671888
 20
448.540336
 30
0.0
 40
0.9
 50
90.0
 51
180.0
  0
LINE
  8
F08_IMG
  5
1C58
 10
167.771888
 20
444.840336
 30
0.0
 11
167.771888
 21
448.540336
 31
0.0
  0
LINE
  8
F08_IMG
  5
1C59
 10
165.971888
 20
444.840336
 30
0.0
 11
165.971888
 21
448.540336
 31
0.0
  0
LINE
  8
F08_IMG
  5
1C5A
 10
164.171888
 20
444.840336
 30
0.0
 11
164.171888
 21
448.540336
 31
0.0
  0
ARC
  8
F08_IMG
  5
1C5B
 10
165.071888
 20
444.840336
 30
0.0
 40
0.9
 50
180.0
 51
0.0
  0
ARC
  8
F08_IMG
  5
1C5C
 10
165.071888
 20
448.540336
 30
0.0
 40
0.9
 50
0.0
 51
90.0
  0
ARC
  8
F08_IMG
  5
1C5D
 10
168.671888
 20
448.540336
 30
0.0
 40
0.9
 50
0.0
 51
90.0
  0
LINE
  8
F08_IMG
  5
1C5E
 10
176.371888
 20
448.540354
 30
0.0
 11
176.371888
 21
445.840336
 31
0.0
  0
LINE
  8
F08_IMG
  5
1C5F
 10
174.871888
 20
451.040354
 30
0.0
 11
175.571888
 21
450.340354
 31
0.0
  0
LINE
  8
F08_IMG
  5
1C60
 10
175.571888
 20
449.340354
 30
0.0
 11
175.571888
 21
450.340354
 31
0.0
  0
ARC
  8
F08_IMG
  5
1C61
 10
173.573029
 20
444.040336
 30
0.0
 40
0.5
 50
90.0
 51
150.0
  0
LINE
  8
F08_IMG
  5
1C62
 10
172.071888
 20
445.840336
 30
0.0
 11
172.071888
 21
449.340354
 31
0.0
  0
LINE
  8
F08_IMG
  5
1C63
 10
175.571888
 20
449.340354
 30
0.0
 11
172.071888
 21
449.340354
 31
0.0
  0
LINE
  8
F08_IMG
  5
1C64
 10
175.571888
 20
449.340354
 30
0.0
 11
176.371888
 21
448.540354
 31
0.0
  0
LINE
  8
F08_IMG
  5
1C65
 10
176.371888
 20
445.840336
 30
0.0
 11
172.071888
 21
445.840336
 31
0.0
  0
LINE
  8
F08_IMG
  5
1C66
 10
164.171888
 20
455.140336
 30
0.0
 11
162.371888
 21
455.140336
 31
0.0
  0
LINE
  8
F08_IMG
  5
1C67
 10
162.371888
 20
453.740336
 30
0.0
 11
164.171888
 21
453.740336
 31
0.0
  0
LINE
  8
F08_IMG
  5
1C68
 10
152.072117
 20
455.140336
 30
0.0
 11
148.172315
 21
455.140336
 31
0.0
  0
LINE
  8
F08_IMG
  5
1C69
 10
153.872117
 20
453.740336
 30
0.0
 11
148.172345
 21
453.740336
 31
0.0
  0
LINE
  8
F08_IMG
  5
1C6A
 10
146.372315
 20
455.140336
 30
0.0
 11
144.572315
 21
455.140336
 31
0.0
  0
LINE
  8
F08_IMG
  5
1C6B
 10
146.372345
 20
453.740336
 30
0.0
 11
144.572345
 21
453.740336
 31
0.0
  0
LINE
  8
F08_IMG
  5
1C6C
 10
144.572315
 20
452.640336
 30
0.0
 11
144.572315
 21
457.740336
 31
0.0
  0
LINE
  8
F08_IMG
  5
1C6D
 10
142.772315
 20
452.640336
 30
0.0
 11
142.772315
 21
457.740336
 31
0.0
  0
LINE
  8
F08_IMG
  5
1C6E
 10
140.972315
 20
452.640336
 30
0.0
 11
140.972315
 21
457.740336
 31
0.0
  0
LINE
  8
F08_IMG
  5
1C6F
 10
139.172315
 20
452.640336
 30
0.0
 11
139.172315
 21
457.740336
 31
0.0
  0
LINE
  8
F08_IMG
  5
1C70
 10
144.572315
 20
455.140336
 30
0.0
 11
142.772315
 21
455.140336
 31
0.0
  0
LINE
  8
F08_IMG
  5
1C71
 10
142.772315
 20
455.140336
 30
0.0
 11
140.972315
 21
455.140336
 31
0.0
  0
LINE
  8
F08_IMG
  5
1C72
 10
142.772345
 20
453.740336
 30
0.0
 11
140.972345
 21
453.740336
 31
0.0
  0
LINE
  8
F08_IMG
  5
1C73
 10
140.972315
 20
455.140336
 30
0.0
 11
139.172315
 21
455.140336
 31
0.0
  0
LINE
  8
F08_IMG
  5
1C74
 10
146.372315
 20
452.640336
 30
0.0
 11
146.372315
 21
457.740336
 31
0.0
  0
LINE
  8
F08_IMG
  5
1C75
 10
148.172315
 20
452.640336
 30
0.0
 11
148.172315
 21
457.740336
 31
0.0
  0
LINE
  8
F08_IMG
  5
1C76
 10
148.172315
 20
455.140336
 30
0.0
 11
146.372315
 21
455.140336
 31
0.0
  0
LINE
  8
F08_IMG
  5
1C77
 10
158.771888
 20
455.140336
 30
0.0
 11
156.971888
 21
455.140336
 31
0.0
  0
LINE
  8
F08_IMG
  5
1C78
 10
156.971888
 20
452.640336
 30
0.0
 11
156.971888
 21
457.740336
 31
0.0
  0
ARC
  8
F08_IMG
  5
1C79
 10
155.672117
 20
454.140336
 30
0.0
 40
1.0
 50
90.0
 51
180.0
  0
LINE
  8
F08_IMG
  5
1C7A
 10
156.971888
 20
455.140336
 30
0.0
 11
155.672117
 21
455.140336
 31
0.0
  0
ARC
  8
F08_IMG
  5
1C7B
 10
152.072117
 20
454.140336
 30
0.0
 40
1.0
 50
0.0
 51
90.0
  0
LINE
  8
F08_IMG
  5
1C7C
 10
153.872117
 20
453.740336
 30
0.0
 11
156.971888
 21
453.740336
 31
0.0
  0
LINE
  8
F08_IMG
  5
1C7D
 10
160.571888
 20
452.640336
 30
0.0
 11
160.571888
 21
457.740336
 31
0.0
  0
LINE
  8
F08_IMG
  5
1C7E
 10
162.371888
 20
452.640336
 30
0.0
 11
162.371888
 21
457.740336
 31
0.0
  0
LINE
  8
F08_IMG
  5
1C7F
 10
158.771888
 20
452.640336
 30
0.0
 11
158.771888
 21
457.740336
 31
0.0
  0
LINE
  8
F08_IMG
  5
1C80
 10
162.371888
 20
455.140336
 30
0.0
 11
160.571888
 21
455.140336
 31
0.0
  0
LINE
  8
F08_IMG
  5
1C81
 10
160.571888
 20
455.140336
 30
0.0
 11
158.771888
 21
455.140336
 31
0.0
  0
LINE
  8
F08_IMG
  5
1C82
 10
158.771888
 20
453.740336
 30
0.0
 11
160.571888
 21
453.740336
 31
0.0
  0
ARC
  8
F08_IMG
  5
1C83
 10
175.471888
 20
455.740336
 30
0.0
 40
2.0
 50
0.0
 51
90.0
  0
LINE
  8
F08_IMG
  5
1C84
 10
173.171888
 20
453.740336
 30
0.0
 11
177.471888
 21
453.740336
 31
0.0
  0
LINE
  8
F08_IMG
  5
1C85
 10
171.371888
 20
455.140336
 30
0.0
 11
169.571888
 21
455.140336
 31
0.0
  0
LINE
  8
F08_IMG
  5
1C86
 10
169.571888
 20
453.740336
 30
0.0
 11
171.371888
 21
453.740336
 31
0.0
  0
LINE
  8
F08_IMG
  5
1C87
 10
169.571888
 20
452.640336
 30
0.0
 11
169.571888
 21
457.740336
 31
0.0
  0
LINE
  8
F08_IMG
  5
1C88
 10
167.771888
 20
452.640336
 30
0.0
 11
167.771888
 21
457.740336
 31
0.0
  0
LINE
  8
F08_IMG
  5
1C89
 10
165.971888
 20
452.640336
 30
0.0
 11
165.971888
 21
457.740336
 31
0.0
  0
LINE
  8
F08_IMG
  5
1C8A
 10
164.171888
 20
452.640336
 30
0.0
 11
164.171888
 21
457.740336
 31
0.0
  0
LINE
  8
F08_IMG
  5
1C8B
 10
167.771888
 20
455.140336
 30
0.0
 11
165.971888
 21
455.140336
 31
0.0
  0
LINE
  8
F08_IMG
  5
1C8C
 10
165.971888
 20
453.740336
 30
0.0
 11
167.771888
 21
453.740336
 31
0.0
  0
LINE
  8
F08_IMG
  5
1C8D
 10
165.971888
 20
455.140336
 30
0.0
 11
164.171888
 21
455.140336
 31
0.0
  0
LINE
  8
F08_IMG
  5
1C8E
 10
169.571888
 20
455.140336
 30
0.0
 11
167.771888
 21
455.140336
 31
0.0
  0
LINE
  8
F08_IMG
  5
1C8F
 10
173.171888
 20
452.640336
 30
0.0
 11
173.171888
 21
457.740336
 31
0.0
  0
LINE
  8
F08_IMG
  5
1C90
 10
171.371888
 20
452.640336
 30
0.0
 11
171.371888
 21
457.740336
 31
0.0
  0
LINE
  8
F08_IMG
  5
1C91
 10
173.871888
 20
455.140336
 30
0.0
 11
173.171888
 21
455.140336
 31
0.0
  0
LINE
  8
F08_IMG
  5
1C92
 10
173.171888
 20
455.140336
 30
0.0
 11
171.371888
 21
455.140336
 31
0.0
  0
ARC
  8
F08_IMG
  5
1C93
 10
173.871888
 20
454.140336
 30
0.0
 40
1.0
 50
0.0
 51
90.0
  0
LINE
  8
F08_IMG
  5
1C94
 10
146.072773
 20
362.440334
 30
0.0
 11
134.072773
 21
362.440334
 31
0.0
  0
CIRCLE
  8
F08_IMG
  5
1C95
 10
140.072773
 20
356.940334
 30
0.0
 40
2.0
  0
ARC
  8
F08_IMG
  5
1C96
 10
140.072773
 20
356.940334
 30
0.0
 40
2.5
 50
156.421822
 51
23.578178
  0
LINE
  8
F08_IMG
  5
1C97
 10
146.072773
 20
359.140334
 30
0.0
 11
134.072773
 21
359.140334
 31
0.0
  0
LINE
  8
F08_IMG
  5
1C98
 10
139.172773
 20
342.140334
 30
0.0
 11
137.372773
 21
342.140334
 31
0.0
  0
LINE
  8
F08_IMG
  5
1C99
 10
137.372773
 20
340.740334
 30
0.0
 11
139.172773
 21
340.740334
 31
0.0
  0
LINE
  8
F08_IMG
  5
1C9A
 10
129.672773
 20
338.140334
 30
0.0
 11
175.472315
 21
338.140334
 31
0.0
  0
LINE
  8
F08_IMG
  5
1C9B
 10
130.272773
 20
344.840315
 30
0.0
 11
130.272773
 21
341.740334
 31
0.0
  0
LINE
  8
F08_IMG
  5
1C9C
 10
127.672773
 20
340.190334
 30
0.0
 11
127.672773
 21
351.340334
 31
0.0
  0
LINE
  8
F08_IMG
  5
1C9D
 10
131.972773
 20
343.240334
 30
0.0
 11
131.972773
 21
338.140334
 31
0.0
  0
LINE
  8
F08_IMG
  5
1C9E
 10
137.372773
 20
343.240334
 30
0.0
 11
137.372773
 21
338.140334
 31
0.0
  0
LINE
  8
F08_IMG
  5
1C9F
 10
135.572773
 20
343.240334
 30
0.0
 11
135.572773
 21
338.140334
 31
0.0
  0
LINE
  8
F08_IMG
  5
1CA0
 10
133.772773
 20
343.240334
 30
0.0
 11
133.772773
 21
338.140334
 31
0.0
  0
LINE
  8
F08_IMG
  5
1CA1
 10
131.972773
 20
340.740334
 30
0.0
 11
133.772773
 21
340.740334
 31
0.0
  0
LINE
  8
F08_IMG
  5
1CA2
 10
131.272773
 20
340.740334
 30
0.0
 11
131.972773
 21
340.740334
 31
0.0
  0
ARC
  8
F08_IMG
  5
1CA3
 10
131.272773
 20
341.740334
 30
0.0
 40
1.0
 50
180.0
 51
270.0
  0
LINE
  8
F08_IMG
  5
1CA4
 10
131.972773
 20
342.140334
 30
0.0
 11
127.672773
 21
342.140334
 31
0.0
  0
ARC
  8
F08_IMG
  5
1CA5
 10
129.672773
 20
340.140334
 30
0.0
 40
2.0
 50
180.0
 51
270.0
  0
LINE
  8
F08_IMG
  5
1CA6
 10
135.572773
 20
340.740334
 30
0.0
 11
137.372773
 21
340.740334
 31
0.0
  0
LINE
  8
F08_IMG
  5
1CA7
 10
135.572773
 20
342.140334
 30
0.0
 11
133.772773
 21
342.140334
 31
0.0
  0
LINE
  8
F08_IMG
  5
1CA8
 10
133.772773
 20
340.740334
 30
0.0
 11
135.572773
 21
340.740334
 31
0.0
  0
LINE
  8
F08_IMG
  5
1CA9
 10
133.072773
 20
361.440334
 30
0.0
 11
133.072773
 21
353.440386
 31
0.0
  0
LINE
  8
F08_IMG
  5
1CAA
 10
132.004644
 20
351.590334
 30
0.0
 11
133.072773
 21
353.440386
 31
0.0
  0
ARC
  8
F08_IMG
  5
1CAB
 10
136.472773
 20
351.040334
 30
0.0
 40
0.9
 50
90.0
 51
180.0
  0
ARC
  8
F08_IMG
  5
1CAC
 10
136.472773
 20
351.040334
 30
0.0
 40
0.9
 50
0.0
 51
90.0
  0
ARC
  8
F08_IMG
  5
1CAD
 10
132.872773
 20
343.240334
 30
0.0
 40
0.9
 50
0.0
 51
180.0
  0
LINE
  8
F08_IMG
  5
1CAE
 10
128.772773
 20
350.040334
 30
0.0
 11
133.072773
 21
350.040334
 31
0.0
  0
LINE
  8
F08_IMG
  5
1CAF
 10
129.572773
 20
346.540315
 30
0.0
 11
133.072773
 21
346.540315
 31
0.0
  0
ARC
  8
F08_IMG
  5
1CB0
 10
131.571632
 20
351.840334
 30
0.0
 40
0.5
 50
270.0
 51
330.0
  0
LINE
  8
F08_IMG
  5
1CB1
 10
128.772773
 20
347.340315
 30
0.0
 11
128.772773
 21
350.040334
 31
0.0
  0
LINE
  8
F08_IMG
  5
1CB2
 10
129.572773
 20
346.540315
 30
0.0
 11
129.572773
 21
345.540315
 31
0.0
  0
LINE
  8
F08_IMG
  5
1CB3
 10
130.272773
 20
344.840315
 30
0.0
 11
129.572773
 21
345.540315
 31
0.0
  0
LINE
  8
F08_IMG
  5
1CB4
 10
129.572773
 20
346.540315
 30
0.0
 11
128.772773
 21
347.340315
 31
0.0
  0
LINE
  8
F08_IMG
  5
1CB5
 10
127.672773
 20
351.340334
 30
0.0
 11
131.571632
 21
351.340334
 31
0.0
  0
ARC
  8
F08_IMG
  5
1CB6
 10
136.472773
 20
343.240334
 30
0.0
 40
0.9
 50
0.0
 51
180.0
  0
LINE
  8
F08_IMG
  5
1CB7
 10
137.372773
 20
351.040334
 30
0.0
 11
137.372773
 21
347.340334
 31
0.0
  0
LINE
  8
F08_IMG
  5
1CB8
 10
135.572773
 20
351.040334
 30
0.0
 11
135.572773
 21
347.340334
 31
0.0
  0
ARC
  8
F08_IMG
  5
1CB9
 10
136.472773
 20
347.340334
 30
0.0
 40
0.9
 50
180.0
 51
270.0
  0
ARC
  8
F08_IMG
  5
1CBA
 10
136.472773
 20
347.340334
 30
0.0
 40
0.9
 50
270.0
 51
0.0
  0
LINE
  8
F08_IMG
  5
1CBB
 10
133.072773
 20
350.040334
 30
0.0
 11
133.072773
 21
346.540315
 31
0.0
  0
LINE
  8
F08_IMG
  5
1CBC
 10
138.340722
 20
357.940334
 30
0.0
 11
134.072773
 21
357.940334
 31
0.0
  0
LINE
  8
F08_IMG
  5
1CBD
 10
134.072773
 20
359.140334
 30
0.0
 11
133.072773
 21
360.140334
 31
0.0
  0
LINE
  8
F08_IMG
  5
1CBE
 10
134.072773
 20
357.940334
 30
0.0
 11
133.072773
 21
356.940334
 31
0.0
  0
ARC
  8
F08_IMG
  5
1CBF
 10
134.072773
 20
361.440334
 30
0.0
 40
1.0
 50
90.0
 51
180.0
  0
LINE
  8
F08_IMG
  5
1CC0
 10
174.872315
 20
344.840315
 30
0.0
 11
174.872315
 21
341.740334
 31
0.0
  0
LINE
  8
F08_IMG
  5
1CC1
 10
177.472315
 20
340.190334
 30
0.0
 11
177.472315
 21
351.340334
 31
0.0
  0
LINE
  8
F08_IMG
  5
1CC2
 10
152.072544
 20
347.940334
 30
0.0
 11
152.072544
 21
341.740334
 31
0.0
  0
LINE
  8
F08_IMG
  5
1CC3
 10
156.972345
 20
343.240334
 30
0.0
 11
156.972345
 21
338.140334
 31
0.0
  0
LINE
  8
F08_IMG
  5
1CC4
 10
162.372345
 20
343.240334
 30
0.0
 11
162.372345
 21
338.140334
 31
0.0
  0
LINE
  8
F08_IMG
  5
1CC5
 10
160.572345
 20
343.240334
 30
0.0
 11
160.572345
 21
338.140334
 31
0.0
  0
LINE
  8
F08_IMG
  5
1CC6
 10
158.772345
 20
343.240334
 30
0.0
 11
158.772345
 21
338.140334
 31
0.0
  0
LINE
  8
F08_IMG
  5
1CC7
 10
169.572345
 20
343.240334
 30
0.0
 11
169.572345
 21
338.140334
 31
0.0
  0
LINE
  8
F08_IMG
  5
1CC8
 10
165.972345
 20
343.240334
 30
0.0
 11
165.972345
 21
338.140334
 31
0.0
  0
LINE
  8
F08_IMG
  5
1CC9
 10
167.772345
 20
343.240334
 30
0.0
 11
167.772345
 21
338.140334
 31
0.0
  0
LINE
  8
F08_IMG
  5
1CCA
 10
164.172345
 20
343.240334
 30
0.0
 11
164.172345
 21
338.140334
 31
0.0
  0
LINE
  8
F08_IMG
  5
1CCB
 10
173.172345
 20
343.240334
 30
0.0
 11
173.172345
 21
338.140334
 31
0.0
  0
LINE
  8
F08_IMG
  5
1CCC
 10
171.372345
 20
343.240334
 30
0.0
 11
171.372345
 21
338.140334
 31
0.0
  0
LINE
  8
F08_IMG
  5
1CCD
 10
150.472544
 20
347.940334
 30
0.0
 11
150.472544
 21
341.740334
 31
0.0
  0
LINE
  8
F08_IMG
  5
1CCE
 10
142.772773
 20
343.240334
 30
0.0
 11
142.772773
 21
338.140334
 31
0.0
  0
LINE
  8
F08_IMG
  5
1CCF
 10
144.572773
 20
343.240334
 30
0.0
 11
144.572773
 21
338.140334
 31
0.0
  0
LINE
  8
F08_IMG
  5
1CD0
 10
140.972773
 20
343.240334
 30
0.0
 11
140.972773
 21
338.140334
 31
0.0
  0
LINE
  8
F08_IMG
  5
1CD1
 10
139.172773
 20
343.240334
 30
0.0
 11
139.172773
 21
338.140334
 31
0.0
  0
LINE
  8
F08_IMG
  5
1CD2
 10
146.372773
 20
343.240334
 30
0.0
 11
146.372773
 21
338.140334
 31
0.0
  0
LINE
  8
F08_IMG
  5
1CD3
 10
148.172773
 20
343.240334
 30
0.0
 11
148.172773
 21
338.140334
 31
0.0
  0
LINE
  8
F08_IMG
  5
1CD4
 10
162.372315
 20
342.140334
 30
0.0
 11
164.172315
 21
342.140334
 31
0.0
  0
LINE
  8
F08_IMG
  5
1CD5
 10
162.372345
 20
340.740334
 30
0.0
 11
164.172345
 21
340.740334
 31
0.0
  0
LINE
  8
F08_IMG
  5
1CD6
 10
151.272544
 20
342.140334
 30
0.0
 11
156.972315
 21
342.140334
 31
0.0
  0
LINE
  8
F08_IMG
  5
1CD7
 10
146.372773
 20
342.140334
 30
0.0
 11
144.572773
 21
342.140334
 31
0.0
  0
LINE
  8
F08_IMG
  5
1CD8
 10
144.572773
 20
340.740334
 30
0.0
 11
146.372773
 21
340.740334
 31
0.0
  0
LINE
  8
F08_IMG
  5
1CD9
 10
142.772773
 20
340.740334
 30
0.0
 11
144.572773
 21
340.740334
 31
0.0
  0
LINE
  8
F08_IMG
  5
1CDA
 10
142.772773
 20
342.140334
 30
0.0
 11
140.972773
 21
342.140334
 31
0.0
  0
LINE
  8
F08_IMG
  5
1CDB
 10
140.972773
 20
340.740334
 30
0.0
 11
142.772773
 21
340.740334
 31
0.0
  0
LINE
  8
F08_IMG
  5
1CDC
 10
139.172773
 20
340.740334
 30
0.0
 11
140.972773
 21
340.740334
 31
0.0
  0
ARC
  8
F08_IMG
  5
1CDD
 10
149.472544
 20
341.740334
 30
0.0
 40
1.0
 50
270.0
 51
0.0
  0
LINE
  8
F08_IMG
  5
1CDE
 10
146.372773
 20
340.740334
 30
0.0
 11
148.172773
 21
340.740334
 31
0.0
  0
LINE
  8
F08_IMG
  5
1CDF
 10
148.172773
 20
340.740334
 30
0.0
 11
149.472544
 21
340.740334
 31
0.0
  0
LINE
  8
F08_IMG
  5
1CE0
 10
151.272544
 20
342.140334
 30
0.0
 11
148.172773
 21
342.140334
 31
0.0
  0
LINE
  8
F08_IMG
  5
1CE1
 10
156.972345
 20
340.740334
 30
0.0
 11
158.772345
 21
340.740334
 31
0.0
  0
ARC
  8
F08_IMG
  5
1CE2
 10
153.072544
 20
341.740334
 30
0.0
 40
1.0
 50
180.0
 51
270.0
  0
LINE
  8
F08_IMG
  5
1CE3
 10
153.072544
 20
340.740334
 30
0.0
 11
156.972345
 21
340.740334
 31
0.0
  0
LINE
  8
F08_IMG
  5
1CE4
 10
160.572345
 20
340.740334
 30
0.0
 11
162.372345
 21
340.740334
 31
0.0
  0
LINE
  8
F08_IMG
  5
1CE5
 10
158.772315
 20
342.140334
 30
0.0
 11
160.572315
 21
342.140334
 31
0.0
  0
LINE
  8
F08_IMG
  5
1CE6
 10
158.772345
 20
340.740334
 30
0.0
 11
160.572345
 21
340.740334
 31
0.0
  0
LINE
  8
F08_IMG
  5
1CE7
 10
173.172315
 20
342.140334
 30
0.0
 11
177.472315
 21
342.140334
 31
0.0
  0
ARC
  8
F08_IMG
  5
1CE8
 10
175.472315
 20
340.140334
 30
0.0
 40
2.0
 50
270.0
 51
0.0
  0
LINE
  8
F08_IMG
  5
1CE9
 10
169.572315
 20
342.140334
 30
0.0
 11
171.372315
 21
342.140334
 31
0.0
  0
LINE
  8
F08_IMG
  5
1CEA
 10
169.572345
 20
340.740334
 30
0.0
 11
171.372345
 21
340.740334
 31
0.0
  0
LINE
  8
F08_IMG
  5
1CEB
 10
165.972315
 20
342.140334
 30
0.0
 11
167.772315
 21
342.140334
 31
0.0
  0
LINE
  8
F08_IMG
  5
1CEC
 10
165.972345
 20
340.740334
 30
0.0
 11
167.772345
 21
340.740334
 31
0.0
  0
LINE
  8
F08_IMG
  5
1CED
 10
164.172345
 20
340.740334
 30
0.0
 11
165.972345
 21
340.740334
 31
0.0
  0
LINE
  8
F08_IMG
  5
1CEE
 10
167.772345
 20
340.740334
 30
0.0
 11
169.572345
 21
340.740334
 31
0.0
  0
LINE
  8
F08_IMG
  5
1CEF
 10
173.172345
 20
340.740334
 30
0.0
 11
173.872315
 21
340.740334
 31
0.0
  0
LINE
  8
F08_IMG
  5
1CF0
 10
171.372345
 20
340.740334
 30
0.0
 11
173.172345
 21
340.740334
 31
0.0
  0
ARC
  8
F08_IMG
  5
1CF1
 10
173.872315
 20
341.740334
 30
0.0
 40
1.0
 50
270.0
 51
0.0
  0
LINE
  8
F08_IMG
  5
1CF2
 10
159.072315
 20
362.440334
 30
0.0
 11
171.072315
 21
362.440334
 31
0.0
  0
LINE
  8
F08_IMG
  5
1CF3
 10
166.572315
 20
359.940334
 30
0.0
 11
163.572315
 21
359.940334
 31
0.0
  0
LINE
  8
F08_IMG
  5
1CF4
 10
168.072315
 20
360.440334
 30
0.0
 11
162.072315
 21
360.440334
 31
0.0
  0
CIRCLE
  8
F08_IMG
  5
1CF5
 10
165.072315
 20
356.940334
 30
0.0
 40
2.0
  0
ARC
  8
F08_IMG
  5
1CF6
 10
165.072315
 20
356.940334
 30
0.0
 40
2.5
 50
156.421822
 51
23.578178
  0
LINE
  8
F08_IMG
  5
1CF7
 10
171.072315
 20
359.140334
 30
0.0
 11
159.072315
 21
359.140334
 31
0.0
  0
LINE
  8
F08_IMG
  5
1CF8
 10
162.072315
 20
360.440334
 30
0.0
 11
162.072315
 21
362.440334
 31
0.0
  0
LINE
  8
F08_IMG
  5
1CF9
 10
158.072315
 20
361.440334
 30
0.0
 11
158.072315
 21
353.640334
 31
0.0
  0
LINE
  8
F08_IMG
  5
1CFA
 10
147.072773
 20
361.440334
 30
0.0
 11
147.072773
 21
353.440334
 31
0.0
  0
LINE
  8
F08_IMG
  5
1CFB
 10
152.472773
 20
351.340334
 30
0.0
 11
150.072315
 21
351.340334
 31
0.0
  0
LINE
  8
F08_IMG
  5
1CFC
 10
153.47233
 20
347.940334
 30
0.0
 11
148.772742
 21
347.940334
 31
0.0
  0
LINE
  8
F08_IMG
  5
1CFD
 10
147.072742
 20
353.440386
 30
0.0
 11
148.272742
 21
351.361925
 31
0.0
  0
ARC
  8
F08_IMG
  5
1CFE
 10
143.672773
 20
351.040334
 30
0.0
 40
0.9
 50
0.0
 51
180.0
  0
ARC
  8
F08_IMG
  5
1CFF
 10
140.072773
 20
351.040334
 30
0.0
 40
0.9
 50
0.0
 51
180.0
  0
ARC
  8
F08_IMG
  5
1D00
 10
143.672773
 20
343.240334
 30
0.0
 40
0.9
 50
0.0
 51
180.0
  0
ARC
  8
F08_IMG
  5
1D01
 10
140.072773
 20
343.240334
 30
0.0
 40
0.9
 50
0.0
 51
180.0
  0
LINE
  8
F08_IMG
  5
1D02
 10
142.772773
 20
351.040334
 30
0.0
 11
142.772773
 21
347.340334
 31
0.0
  0
LINE
  8
F08_IMG
  5
1D03
 10
144.572773
 20
351.040334
 30
0.0
 11
144.572773
 21
347.340334
 31
0.0
  0
LINE
  8
F08_IMG
  5
1D04
 10
140.972773
 20
351.040334
 30
0.0
 11
140.972773
 21
347.340334
 31
0.0
  0
ARC
  8
F08_IMG
  5
1D05
 10
143.672773
 20
347.340334
 30
0.0
 40
0.9
 50
180.0
 51
0.0
  0
ARC
  8
F08_IMG
  5
1D06
 10
140.072773
 20
347.340334
 30
0.0
 40
0.9
 50
270.0
 51
0.0
  0
LINE
  8
F08_IMG
  5
1D07
 10
139.172773
 20
351.040334
 30
0.0
 11
139.172773
 21
347.340334
 31
0.0
  0
ARC
  8
F08_IMG
  5
1D08
 10
140.072773
 20
347.340334
 30
0.0
 40
0.9
 50
180.0
 51
270.0
  0
ARC
  8
F08_IMG
  5
1D09
 10
147.272773
 20
343.240334
 30
0.0
 40
0.9
 50
0.0
 51
180.0
  0
ARC
  8
F08_IMG
  5
1D0A
 10
150.072315
 20
350.340334
 30
0.0
 40
0.3
 50
180.0
 51
270.0
  0
ARC
  8
F08_IMG
  5
1D0B
 10
150.072315
 20
351.040334
 30
0.0
 40
0.3
 50
90.0
 51
180.0
  0
LINE
  8
F08_IMG
  5
1D0C
 10
149.772315
 20
351.040334
 30
0.0
 11
149.772315
 21
350.340334
 31
0.0
  0
LINE
  8
F08_IMG
  5
1D0D
 10
150.472544
 20
350.040334
 30
0.0
 11
150.072315
 21
350.040334
 31
0.0
  0
LINE
  8
F08_IMG
  5
1D0E
 10
150.472544
 20
350.040334
 30
0.0
 11
150.472544
 21
347.940334
 31
0.0
  0
LINE
  8
F08_IMG
  5
1D0F
 10
148.272742
 20
351.361925
 30
0.0
 11
148.272742
 21
348.440334
 31
0.0
  0
ARC
  8
F08_IMG
  5
1D10
 10
148.772742
 20
348.440334
 30
0.0
 40
0.5
 50
180.0
 51
270.0
  0
LINE
  8
F08_IMG
  5
1D11
 10
146.072773
 20
357.940334
 30
0.0
 11
141.804824
 21
357.940334
 31
0.0
  0
LINE
  8
F08_IMG
  5
1D12
 10
147.072773
 20
360.140334
 30
0.0
 11
146.072773
 21
359.140334
 31
0.0
  0
LINE
  8
F08_IMG
  5
1D13
 10
146.072773
 20
357.940334
 30
0.0
 11
147.072773
 21
356.940334
 31
0.0
  0
LINE
  8
F08_IMG
  5
1D14
 10
159.07233
 20
348.240334
 30
0.0
 11
159.07233
 21
353.440334
 31
0.0
  0
LINE
  8
F08_IMG
  5
1D15
 10
158.57233
 20
348.240334
 30
0.0
 11
158.57233
 21
353.440334
 31
0.0
  0
CIRCLE
  8
F08_IMG
  5
1D16
 10
155.37233
 20
350.440334
 30
0.0
 40
2.0
  0
ARC
  8
F08_IMG
  5
1D17
 10
161.472345
 20
351.040334
 30
0.0
 40
0.9
 50
0.0
 51
180.0
  0
ARC
  8
F08_IMG
  5
1D18
 10
157.57233
 20
348.240334
 30
0.0
 40
1.0
 50
270.0
 51
0.0
  0
ARC
  8
F08_IMG
  5
1D19
 10
157.57233
 20
348.240334
 30
0.0
 40
1.5
 50
270.0
 51
0.0
  0
ARC
  8
F08_IMG
  5
1D1A
 10
157.872345
 20
343.240334
 30
0.0
 40
0.9
 50
0.0
 51
180.0
  0
LINE
  8
F08_IMG
  5
1D1B
 10
156.040967
 20
351.10897
 30
0.0
 11
154.604668
 21
349.672672
 31
0.0
  0
LINE
  8
F08_IMG
  5
1D1C
 10
154.703694
 20
351.10897
 30
0.0
 11
156.139992
 21
349.672672
 31
0.0
  0
ARC
  8
F08_IMG
  5
1D1D
 10
152.472773
 20
350.340334
 30
0.0
 40
0.3
 50
270.0
 51
0.0
  0
ARC
  8
F08_IMG
  5
1D1E
 10
152.472773
 20
351.040334
 30
0.0
 40
0.3
 50
0.0
 51
90.0
  0
ARC
  8
F08_IMG
  5
1D1F
 10
153.67233
 20
349.540334
 30
0.0
 40
0.2
 50
137.647404
 51
180.0
  0
LINE
  8
F08_IMG
  5
1D20
 10
152.772773
 20
351.040334
 30
0.0
 11
152.772773
 21
350.340334
 31
0.0
  0
LINE
  8
F08_IMG
  5
1D21
 10
152.072544
 20
350.040334
 30
0.0
 11
152.472773
 21
350.040334
 31
0.0
  0
LINE
  8
F08_IMG
  5
1D22
 10
152.072544
 20
350.040334
 30
0.0
 11
152.072544
 21
347.940334
 31
0.0
  0
LINE
  8
F08_IMG
  5
1D23
 10
153.47233
 20
349.540334
 30
0.0
 11
153.47233
 21
346.740334
 31
0.0
  0
LINE
  8
F08_IMG
  5
1D24
 10
153.47233
 20
346.740334
 30
0.0
 11
157.57233
 21
346.740334
 31
0.0
  0
LINE
  8
F08_IMG
  5
1D25
 10
153.47233
 20
347.240334
 30
0.0
 11
157.57233
 21
347.240334
 31
0.0
  0
ARC
  8
F08_IMG
  5
1D26
 10
161.472345
 20
343.240334
 30
0.0
 40
0.9
 50
0.0
 51
180.0
  0
LINE
  8
F08_IMG
  5
1D27
 10
160.572345
 20
351.040334
 30
0.0
 11
160.572345
 21
347.340334
 31
0.0
  0
LINE
  8
F08_IMG
  5
1D28
 10
162.372345
 20
351.040334
 30
0.0
 11
162.372345
 21
347.340334
 31
0.0
  0
ARC
  8
F08_IMG
  5
1D29
 10
161.472345
 20
347.340334
 30
0.0
 40
0.9
 50
180.0
 51
0.0
  0
LINE
  8
F08_IMG
  5
1D2A
 10
156.57233
 20
353.640334
 30
0.0
 11
158.87233
 21
353.640334
 31
0.0
  0
LINE
  8
F08_IMG
  5
1D2B
 10
155.430909
 20
352.498912
 30
0.0
 11
156.57233
 21
353.640334
 31
0.0
  0
ARC
  8
F08_IMG
  5
1D2C
 10
155.57233
 20
352.357491
 30
0.0
 40
0.2
 50
135.0
 51
155.555487
  0
LINE
  8
F08_IMG
  5
1D2D
 10
163.572315
 20
359.940334
 30
0.0
 11
163.572315
 21
360.440334
 31
0.0
  0
LINE
  8
F08_IMG
  5
1D2E
 10
159.072315
 20
359.140334
 30
0.0
 11
158.072315
 21
360.140334
 31
0.0
  0
LINE
  8
F08_IMG
  5
1D2F
 10
159.072315
 20
357.940334
 30
0.0
 11
158.072315
 21
356.940334
 31
0.0
  0
LINE
  8
F08_IMG
  5
1D30
 10
163.340264
 20
357.940334
 30
0.0
 11
159.072315
 21
357.940334
 31
0.0
  0
ARC
  8
F08_IMG
  5
1D31
 10
158.87233
 20
353.440334
 30
0.0
 40
0.2
 50
0.0
 51
90.0
  0
ARC
  8
F08_IMG
  5
1D32
 10
158.37233
 20
353.440334
 30
0.0
 40
0.2
 50
0.0
 51
90.0
  0
ARC
  8
F08_IMG
  5
1D33
 10
146.072773
 20
361.440334
 30
0.0
 40
1.0
 50
0.0
 51
90.0
  0
ARC
  8
F08_IMG
  5
1D34
 10
159.072315
 20
361.440334
 30
0.0
 40
1.0
 50
90.0
 51
180.0
  0
LINE
  8
F08_IMG
  5
1D35
 10
168.072315
 20
360.440334
 30
0.0
 11
168.072315
 21
362.440334
 31
0.0
  0
LINE
  8
F08_IMG
  5
1D36
 10
172.072315
 20
361.440334
 30
0.0
 11
172.072315
 21
353.440334
 31
0.0
  0
LINE
  8
F08_IMG
  5
1D37
 10
177.472315
 20
351.340334
 30
0.0
 11
173.573395
 21
351.340334
 31
0.0
  0
LINE
  8
F08_IMG
  5
1D38
 10
172.072315
 20
353.440334
 30
0.0
 11
173.137835
 21
351.594799
 31
0.0
  0
ARC
  8
F08_IMG
  5
1D39
 10
165.072345
 20
351.040334
 30
0.0
 40
0.9
 50
0.0
 51
180.0
  0
ARC
  8
F08_IMG
  5
1D3A
 10
168.672345
 20
351.040334
 30
0.0
 40
0.9
 50
0.0
 51
180.0
  0
ARC
  8
F08_IMG
  5
1D3B
 10
165.072345
 20
343.240334
 30
0.0
 40
0.9
 50
0.0
 51
180.0
  0
ARC
  8
F08_IMG
  5
1D3C
 10
168.672345
 20
343.240334
 30
0.0
 40
0.9
 50
0.0
 51
180.0
  0
LINE
  8
F08_IMG
  5
1D3D
 10
169.572345
 20
351.040334
 30
0.0
 11
169.572345
 21
347.340334
 31
0.0
  0
LINE
  8
F08_IMG
  5
1D3E
 10
167.772345
 20
351.040334
 30
0.0
 11
167.772345
 21
347.340334
 31
0.0
  0
LINE
  8
F08_IMG
  5
1D3F
 10
165.972345
 20
351.040334
 30
0.0
 11
165.972345
 21
347.340334
 31
0.0
  0
LINE
  8
F08_IMG
  5
1D40
 10
164.172345
 20
351.040334
 30
0.0
 11
164.172345
 21
347.340334
 31
0.0
  0
ARC
  8
F08_IMG
  5
1D41
 10
165.072345
 20
347.340334
 30
0.0
 40
0.9
 50
180.0
 51
0.0
  0
ARC
  8
F08_IMG
  5
1D42
 10
168.672345
 20
347.340334
 30
0.0
 40
0.9
 50
180.0
 51
0.0
  0
LINE
  8
F08_IMG
  5
1D43
 10
176.372315
 20
347.340315
 30
0.0
 11
176.372315
 21
350.040334
 31
0.0
  0
ARC
  8
F08_IMG
  5
1D44
 10
172.272345
 20
343.240334
 30
0.0
 40
0.9
 50
0.0
 51
90.0
  0
ARC
  8
F08_IMG
  5
1D45
 10
172.272345
 20
343.240334
 30
0.0
 40
0.9
 50
90.0
 51
180.0
  0
LINE
  8
F08_IMG
  5
1D46
 10
175.572315
 20
346.540315
 30
0.0
 11
175.572315
 21
345.540315
 31
0.0
  0
LINE
  8
F08_IMG
  5
1D47
 10
174.872315
 20
344.840315
 30
0.0
 11
175.572315
 21
345.540315
 31
0.0
  0
ARC
  8
F08_IMG
  5
1D48
 10
173.573395
 20
351.840334
 30
0.0
 40
0.5
 50
209.410892
 51
270.0
  0
LINE
  8
F08_IMG
  5
1D49
 10
172.072315
 20
350.040334
 30
0.0
 11
172.072315
 21
346.540315
 31
0.0
  0
LINE
  8
F08_IMG
  5
1D4A
 10
175.572315
 20
346.540315
 30
0.0
 11
172.072315
 21
346.540315
 31
0.0
  0
LINE
  8
F08_IMG
  5
1D4B
 10
175.572315
 20
346.540315
 30
0.0
 11
176.372315
 21
347.340315
 31
0.0
  0
LINE
  8
F08_IMG
  5
1D4C
 10
176.372315
 20
350.040334
 30
0.0
 11
172.072315
 21
350.040334
 31
0.0
  0
LINE
  8
F08_IMG
  5
1D4D
 10
171.072315
 20
357.940334
 30
0.0
 11
166.804366
 21
357.940334
 31
0.0
  0
LINE
  8
F08_IMG
  5
1D4E
 10
166.572315
 20
359.940334
 30
0.0
 11
166.572315
 21
360.440334
 31
0.0
  0
LINE
  8
F08_IMG
  5
1D4F
 10
172.072315
 20
360.140334
 30
0.0
 11
171.072315
 21
359.140334
 31
0.0
  0
LINE
  8
F08_IMG
  5
1D50
 10
171.072315
 20
357.940334
 30
0.0
 11
172.072315
 21
356.940334
 31
0.0
  0
ARC
  8
F08_IMG
  5
1D51
 10
171.072315
 20
361.440334
 30
0.0
 40
1.0
 50
0.0
 51
90.0
  0
LINE
  8
F08_IMG
  5
1D53
 10
343.829599
 20
444.540336
 30
0.0
 11
300.329119
 21
444.540336
 31
0.0
  0
LINE
  8
F08_IMG
  5
1D54
 10
351.329119
 20
457.740336
 30
0.0
 11
304.329119
 21
457.740336
 31
0.0
  0
LINE
  8
F08_IMG
  5
1D55
 10
351.329119
 20
455.140336
 30
0.0
 11
305.406074
 21
455.140336
 31
0.0
  0
LINE
  8
F08_IMG
  5
1D56
 10
302.829119
 20
447.690397
 30
0.0
 11
302.829119
 21
452.56338
 31
0.0
  0
LINE
  8
F08_IMG
  5
1D57
 10
300.329119
 20
437.940336
 30
0.0
 11
300.329119
 21
453.740336
 31
0.0
  0
LINE
  8
F08_IMG
  5
1D58
 10
298.829119
 20
443.381757
 30
0.0
 11
300.329119
 21
443.381757
 31
0.0
  0
LINE
  8
F08_IMG
  5
1D59
 10
298.829119
 20
442.240336
 30
0.0
 11
300.329119
 21
442.240336
 31
0.0
  0
LINE
  8
F08_IMG
  5
1D5A
 10
298.829119
 20
448.640336
 30
0.0
 11
300.329119
 21
449.140336
 31
0.0
  0
LINE
  8
F08_IMG
  5
1D5B
 10
298.829119
 20
442.240336
 30
0.0
 11
298.829119
 21
448.640336
 31
0.0
  0
LINE
  8
F08_IMG
  5
1D5C
 10
298.829119
 20
447.440336
 30
0.0
 11
297.729119
 21
447.440336
 31
0.0
  0
LINE
  8
F08_IMG
  5
1D5D
 10
296.729119
 20
446.440336
 30
0.0
 11
296.729119
 21
444.440336
 31
0.0
  0
ARC
  8
F08_IMG
  5
1D5E
 10
297.729119
 20
446.440336
 30
0.0
 40
1.0
 50
90.0
 51
180.0
  0
LINE
  8
F08_IMG
  5
1D5F
 10
298.829119
 20
443.440336
 30
0.0
 11
297.729119
 21
443.440336
 31
0.0
  0
ARC
  8
F08_IMG
  5
1D60
 10
297.729119
 20
444.440336
 30
0.0
 40
1.0
 50
180.0
 51
270.0
  0
LINE
  8
F08_IMG
  5
1D61
 10
302.829119
 20
444.540336
 30
0.0
 11
302.829119
 21
437.940336
 31
0.0
  0
LINE
  8
F08_IMG
  5
1D63
 10
300.329119
 20
437.940336
 30
0.0
 11
300.829119
 21
437.940336
 31
0.0
  0
LINE
  8
F08_IMG
  5
1D64
 10
300.329119
 20
433.440336
 30
0.0
 11
300.329119
 21
436.740336
 31
0.0
  0
LINE
  8
F08_IMG
  5
1D65
 10
300.329119
 20
436.740336
 30
0.0
 11
300.829119
 21
436.740336
 31
0.0
  0
LINE
  8
F08_IMG
  5
1D66
 10
300.829119
 20
437.940336
 30
0.0
 11
300.829119
 21
436.740336
 31
0.0
  0
LINE
  8
F08_IMG
  5
1D67
 10
302.029119
 20
437.940336
 30
0.0
 11
302.829119
 21
437.940336
 31
0.0
  0
LINE
  8
F08_IMG
  5
1D68
 10
302.029119
 20
436.740336
 30
0.0
 11
302.029119
 21
437.940336
 31
0.0
  0
LINE
  8
F08_IMG
  5
1D69
 10
302.029119
 20
436.740336
 30
0.0
 11
302.829119
 21
436.740336
 31
0.0
  0
LINE
  8
F08_IMG
  5
1D6A
 10
302.829119
 20
436.740336
 30
0.0
 11
302.829119
 21
433.440336
 31
0.0
  0
LINE
  8
F08_IMG
  5
1D6B
 10
302.829119
 20
444.540336
 30
0.0
 11
302.829119
 21
447.690397
 31
0.0
  0
LINE
  8
F08_IMG
  5
1D6C
 10
300.329119
 20
453.740336
 30
0.0
 11
304.329119
 21
457.740336
 31
0.0
  0
LINE
  8
F08_IMG
  5
1D6D
 10
302.829119
 20
452.56338
 30
0.0
 11
305.406074
 21
455.140336
 31
0.0
  0
LINE
  8
F08_IMG
  5
1D6E
 10
351.329119
 20
457.740336
 30
0.0
 11
351.329119
 21
447.540336
 31
0.0
  0
ARC
  8
F08_IMG
  5
1D6F
 10
349.329119
 20
447.540336
 30
0.0
 40
2.0
 50
270.0
 51
0.0
  0
LINE
  8
F08_IMG
  5
1D70
 10
349.329119
 20
445.540336
 30
0.0
 11
344.829599
 21
445.540336
 31
0.0
  0
LINE
  8
F08_IMG
  5
1D71
 10
343.829599
 20
444.540336
 30
0.0
 11
344.829599
 21
445.540336
 31
0.0
  0
LINE
  8
F08_IMG
  5
1D72
 10
351.329119
 20
340.740334
 30
0.0
 11
305.406074
 21
340.740334
 31
0.0
  0
LINE
  8
F08_IMG
  5
1D73
 10
351.329119
 20
338.140334
 30
0.0
 11
304.329119
 21
338.140334
 31
0.0
  0
LINE
  8
F08_IMG
  5
1D74
 10
343.829599
 20
351.340334
 30
0.0
 11
300.329119
 21
351.340334
 31
0.0
  0
LINE
  8
F08_IMG
  5
1D75
 10
302.829119
 20
343.317289
 30
0.0
 11
305.406074
 21
340.740334
 31
0.0
  0
LINE
  8
F08_IMG
  5
1D76
 10
300.329119
 20
357.940334
 30
0.0
 11
300.329119
 21
342.140334
 31
0.0
  0
LINE
  8
F08_IMG
  5
1D77
 10
300.329119
 20
342.140334
 30
0.0
 11
304.329119
 21
338.140334
 31
0.0
  0
LINE
  8
F08_IMG
  5
1D78
 10
298.829119
 20
347.240334
 30
0.0
 11
300.329119
 21
346.740334
 31
0.0
  0
LINE
  8
F08_IMG
  5
1D79
 10
298.829119
 20
353.640334
 30
0.0
 11
300.329119
 21
353.640334
 31
0.0
  0
LINE
  8
F08_IMG
  5
1D7A
 10
298.829119
 20
352.498912
 30
0.0
 11
300.329119
 21
352.498912
 31
0.0
  0
ARC
  8
F08_IMG
  5
1D7B
 10
297.729119
 20
351.440334
 30
0.0
 40
1.0
 50
90.0
 51
180.0
  0
LINE
  8
F08_IMG
  5
1D7C
 10
298.829119
 20
353.640334
 30
0.0
 11
298.829119
 21
347.240334
 31
0.0
  0
LINE
  8
F08_IMG
  5
1D7D
 10
298.829119
 20
348.440334
 30
0.0
 11
297.729119
 21
348.440334
 31
0.0
  0
LINE
  8
F08_IMG
  5
1D7E
 10
296.729119
 20
349.440334
 30
0.0
 11
296.729119
 21
351.440334
 31
0.0
  0
ARC
  8
F08_IMG
  5
1D7F
 10
297.729119
 20
349.440334
 30
0.0
 40
1.0
 50
180.0
 51
270.0
  0
LINE
  8
F08_IMG
  5
1D80
 10
298.829119
 20
352.440334
 30
0.0
 11
297.729119
 21
352.440334
 31
0.0
  0
LINE
  8
F08_IMG
  5
1D81
 10
302.829119
 20
351.340334
 30
0.0
 11
302.829119
 21
357.940334
 31
0.0
  0
LINE
  8
F08_IMG
  5
1D82
 10
302.829119
 20
348.190394
 30
0.0
 11
302.829119
 21
351.340334
 31
0.0
  0
LINE
  8
F08_IMG
  5
1D83
 10
302.829119
 20
348.190394
 30
0.0
 11
302.829119
 21
343.317289
 31
0.0
  0
LINE
  8
F08_IMG
  5
1D85
 10
300.829119
 20
357.940334
 30
0.0
 11
300.829119
 21
359.140334
 31
0.0
  0
LINE
  8
F08_IMG
  5
1D86
 10
300.329119
 20
359.140334
 30
0.0
 11
300.829119
 21
359.140334
 31
0.0
  0
LINE
  8
F08_IMG
  5
1D87
 10
300.329119
 20
362.440334
 30
0.0
 11
300.329119
 21
359.140334
 31
0.0
  0
LINE
  8
F08_IMG
  5
1D88
 10
300.329119
 20
357.940334
 30
0.0
 11
300.829119
 21
357.940334
 31
0.0
  0
LINE
  8
F08_IMG
  5
1D89
 10
302.029119
 20
359.140334
 30
0.0
 11
302.829119
 21
359.140334
 31
0.0
  0
LINE
  8
F08_IMG
  5
1D8A
 10
302.029119
 20
359.140334
 30
0.0
 11
302.029119
 21
357.940334
 31
0.0
  0
LINE
  8
F08_IMG
  5
1D8B
 10
302.029119
 20
357.940334
 30
0.0
 11
302.829119
 21
357.940334
 31
0.0
  0
LINE
  8
F08_IMG
  5
1D8C
 10
302.829119
 20
359.140334
 30
0.0
 11
302.829119
 21
362.440334
 31
0.0
  0
LINE
  8
F08_IMG
  5
1D8D
 10
351.329119
 20
338.140334
 30
0.0
 11
351.329119
 21
348.340334
 31
0.0
  0
ARC
  8
F08_IMG
  5
1D8E
 10
349.329119
 20
348.340334
 30
0.0
 40
2.0
 50
0.0
 51
90.0
  0
LINE
  8
F08_IMG
  5
1D8F
 10
349.329119
 20
350.340334
 30
0.0
 11
344.829599
 21
350.340334
 31
0.0
  0
LINE
  8
F08_IMG
  5
1D90
 10
343.829599
 20
351.340334
 30
0.0
 11
344.829599
 21
350.340334
 31
0.0
  0
LINE
  8
F08_IMG
  5
1D92
 10
300.329119
 20
433.440336
 30
0.0
 11
302.829119
 21
433.440336
 31
0.0
  0
LINE
  8
F08_IMG
  5
1D93
 10
300.329119
 20
362.440334
 30
0.0
 11
302.829119
 21
362.440334
 31
0.0
  0
DIMENSION
  8
F02_DIM
  5
1E1A
  2
*D30
 10
91.349683
 20
347.940333
 30
0.0
 11
88.349683
 21
397.940334
 31
0.0
 13
129.372391
 23
447.940335
 33
0.0
 14
129.372391
 24
347.940333
 34
0.0
 50
90.0
  3
FSTD2
  0
DIMENSION
  8
F02_DIM
  5
1E28
  2
*D31
 10
91.349683
 20
457.740336
 30
0.0
 11
88.349683
 21
465.240336
 31
0.0
 13
129.372391
 23
447.940335
 33
0.0
 14
129.672345
 24
457.740336
 34
0.0
 50
90.0
  3
FSTD1
  0
DIMENSION
  8
F02_DIM
  5
1E36
  2
*D32
 10
91.349683
 20
338.140334
 30
0.0
 11
88.349683
 21
330.640334
 31
0.0
 13
129.372391
 23
347.940333
 33
0.0
 14
129.672773
 24
338.140334
 34
0.0
 50
90.0
  3
FSTD1
  0
ENDSEC
  0
EOF
