  0
SECTION
  2
HEADER
  9
$ACADVER
  1
AC1009
  9
$INSBASE
 10
0.0
 20
0.0
 30
0.0
  9
$EXTMIN
 10
-14.962176
 20
48.571864
 30
0.0
  9
$EXTMAX
 10
848.562607
 20
635.617453
 30
0.0
  9
$LIMMIN
 10
-14.373552
 20
-15.537702
  9
$LIMMAX
 10
865.928514
 20
653.749293
  9
$ORTHOMODE
 70
     1
  9
$REGENMODE
 70
     1
  9
$FILLMODE
 70
     1
  9
$QTEXTMODE
 70
     0
  9
$MIRRTEXT
 70
     1
  9
$DRAGMODE
 70
     2
  9
$LTSCALE
 40
10.0
  9
$OSMODE
 70
    33
  9
$ATTMODE
 70
     1
  9
$TEXTSIZE
 40
8.0
  9
$TRACEWID
 40
1.0
  9
$TEXTSTYLE
  7
STANDARD
  9
$CLAYER
  8
FF
  9
$CELTYPE
  6
BYLAYER
  9
$CECOLOR
 62
   256
  9
$DIMSCALE
 40
0.0
  9
$DIMASZ
 40
8.0
  9
$DIMEXO
 40
2.6667
  9
$DIMDLI
 40
0.38
  9
$DIMRND
 40
0.0
  9
$DIMDLE
 40
0.0
  9
$DIMEXE
 40
2.6667
  9
$DIMTP
 40
0.0
  9
$DIMTM
 40
0.0
  9
$DIMTXT
 40
8.0
  9
$DIMCEN
 40
0.09
  9
$DIMTSZ
 40
0.0
  9
$DIMTOL
 70
     0
  9
$DIMLIM
 70
     0
  9
$DIMTIH
 70
     0
  9
$DIMTOH
 70
     0
  9
$DIMSE1
 70
     0
  9
$DIMSE2
 70
     0
  9
$DIMTAD
 70
     1
  9
$DIMZIN
 70
     8
  9
$DIMBLK
  1

  9
$DIMASO
 70
     1
  9
$DIMSHO
 70
     1
  9
$DIMPOST
  1

  9
$DIMAPOST
  1

  9
$DIMALT
 70
     0
  9
$DIMALTD
 70
     4
  9
$DIMALTF
 40
0.0394
  9
$DIMLFAC
 40
1.0
  9
$DIMTOFL
 70
     1
  9
$DIMTVP
 40
0.0
  9
$DIMTIX
 70
     0
  9
$DIMSOXD
 70
     0
  9
$DIMSAH
 70
     1
  9
$DIMBLK1
  1
_OPEN
  9
$DIMBLK2
  1
_OPEN
  9
$DIMSTYLE
  2
FSTD3
  9
$DIMCLRD
 70
     0
  9
$DIMCLRE
 70
     0
  9
$DIMCLRT
 70
     0
  9
$DIMTFAC
 40
1.0
  9
$DIMGAP
 40
-2.6667
  9
$LUNITS
 70
     2
  9
$LUPREC
 70
     4
  9
$SKETCHINC
 40
1.0
  9
$FILLETRAD
 40
10.0
  9
$AUNITS
 70
     0
  9
$AUPREC
 70
     0
  9
$MENU
  1
acad
  9
$ELEVATION
 40
0.0
  9
$PELEVATION
 40
0.0
  9
$THICKNESS
 40
0.0
  9
$LIMCHECK
 70
     0
  9
$BLIPMODE
 70
     0
  9
$CHAMFERA
 40
10.0
  9
$CHAMFERB
 40
10.0
  9
$SKPOLY
 70
     0
  9
$TDCREATE
 40
2452132.387131829
  9
$TDUPDATE
 40
2453742.495904085
  9
$TDINDWG
 40
0.0147086458
  9
$TDUSRTIMER
 40
0.0147086458
  9
$USRTIMER
 70
     1
  9
$ANGBASE
 50
0.0
  9
$ANGDIR
 70
     0
  9
$PDMODE
 70
     0
  9
$PDSIZE
 40
0.0
  9
$PLINEWID
 40
0.0
  9
$COORDS
 70
     1
  9
$SPLFRAME
 70
     0
  9
$SPLINETYPE
 70
     6
  9
$SPLINESEGS
 70
     8
  9
$ATTDIA
 70
     0
  9
$ATTREQ
 70
     1
  9
$HANDLING
 70
     1
  9
$HANDSEED
  5
E5A
  9
$SURFTAB1
 70
     6
  9
$SURFTAB2
 70
     6
  9
$SURFTYPE
 70
     6
  9
$SURFU
 70
     6
  9
$SURFV
 70
     6
  9
$UCSNAME
  2

  9
$UCSORG
 10
0.0
 20
0.0
 30
0.0
  9
$UCSXDIR
 10
1.0
 20
0.0
 30
0.0
  9
$UCSYDIR
 10
0.0
 20
1.0
 30
0.0
  9
$PUCSNAME
  2

  9
$PUCSORG
 10
0.0
 20
0.0
 30
0.0
  9
$PUCSXDIR
 10
1.0
 20
0.0
 30
0.0
  9
$PUCSYDIR
 10
0.0
 20
1.0
 30
0.0
  9
$USERI1
 70
     0
  9
$USERI2
 70
     0
  9
$USERI3
 70
     0
  9
$USERI4
 70
     0
  9
$USERI5
 70
     0
  9
$USERR1
 40
0.0
  9
$USERR2
 40
0.0
  9
$USERR3
 40
0.0
  9
$USERR4
 40
0.0
  9
$USERR5
 40
0.0
  9
$WORLDVIEW
 70
     1
  9
$SHADEDGE
 70
     3
  9
$SHADEDIF
 70
    70
  9
$TILEMODE
 70
     1
  9
$MAXACTVP
 70
    16
  9
$PINSBASE
 10
0.0
 20
0.0
 30
0.0
  9
$PLIMCHECK
 70
     0
  9
$PEXTMIN
 10
1.000000E+20
 20
1.000000E+20
 30
1.000000E+20
  9
$PEXTMAX
 10
-1.000000E+20
 20
-1.000000E+20
 30
-1.000000E+20
  9
$PLIMMIN
 10
0.0
 20
0.0
  9
$PLIMMAX
 10
420.0
 20
297.0
  9
$UNITMODE
 70
     0
  9
$VISRETAIN
 70
     1
  9
$PLINEGEN
 70
     0
  9
$PSLTSCALE
 70
     1
  9
$TREEDEPTH
 70
  3020
  9
$DWGCODEPAGE
  3
dos932
  0
ENDSEC
  0
SECTION
  2
TABLES
  0
TABLE
  2
VPORT
 70
     2
  0
VPORT
  2
*ACTIVE
 70
     0
 10
0.0
 20
0.0
 11
1.0
 21
1.0
 12
425.461822
 22
375.274316
 13
0.0
 23
0.0
 14
10.0
 24
10.0
 15
10.0
 25
10.0
 16
0.0
 26
0.0
 36
1.0
 17
0.0
 27
0.0
 37
0.0
 40
787.279981
 41
1.475202
 42
50.0
 43
0.0
 44
0.0
 50
0.0
 51
0.0
 71
     0
 72
   100
 73
     1
 74
     1
 75
     0
 76
     0
 77
     0
 78
     0
  0
ENDTAB
  0
TABLE
  2
LTYPE
 70
     4
  0
LTYPE
  2
CONTINUOUS
 70
    64
  3
Solid line
 72
    65
 73
     0
 40
0.0
  0
LTYPE
  2
DASHED
 70
    64
  3
DASHED
 72
    65
 73
     2
 40
0.75
 49
0.5
 49
-0.25
  0
LTYPE
  2
CENTER
 70
    64
  3
CENTER
 72
    65
 73
     4
 40
2.0
 49
1.25
 49
-0.25
 49
0.25
 49
-0.25
  0
LTYPE
  2
PHANTOM
 70
    64
  3
PHANTOM
 72
    65
 73
     6
 40
2.5
 49
1.25
 49
-0.25
 49
0.25
 49
-0.25
 49
0.25
 49
-0.25
  0
ENDTAB
  0
TABLE
  2
LAYER
 70
    14
  0
LAYER
  2
0
 70
    64
 62
     7
  6
CONTINUOUS
  0
LAYER
  2
FF
 70
    64
 62
     4
  6
CONTINUOUS
  0
LAYER
  2
DEFPOINTS
 70
    64
 62
     7
  6
CONTINUOUS
  0
LAYER
  2
0B
 70
    64
 62
     6
  6
CONTINUOUS
  0
LAYER
  2
0C
 70
    64
 62
     3
  6
CONTINUOUS
  0
LAYER
  2
0D
 70
    64
 62
     2
  6
CONTINUOUS
  0
LAYER
  2
10
 70
    64
 62
     6
  6
CENTER
  0
LAYER
  2
15
 70
    64
 62
     6
  6
CONTINUOUS
  0
LAYER
  2
16
 70
    64
 62
     3
  6
CONTINUOUS
  0
LAYER
  2
17
 70
    64
 62
     2
  6
CONTINUOUS
  0
LAYER
  2
1A
 70
    64
 62
     6
  6
CENTER
  0
LAYER
  2
33
 70
    64
 62
     6
  6
CONTINUOUS
  0
LAYER
  2
34
 70
    64
 62
     3
  6
CONTINUOUS
  0
LAYER
  2
38
 70
    64
 62
     6
  6
CENTER
  0
ENDTAB
  0
TABLE
  2
STYLE
 70
     1
  0
STYLE
  2
STANDARD
 70
    64
 40
0.0
 41
1.0
 50
0.0
 71
     0
 42
8.0
  3
txt.shx
  4
bigfont.shx
  0
ENDTAB
  0
TABLE
  2
VIEW
 70
     0
  0
ENDTAB
  0
TABLE
  2
UCS
 70
     0
  0
ENDTAB
  0
TABLE
  2
APPID
 70
     1
  0
APPID
  2
ACAD
 70
    64
  0
ENDTAB
  0
TABLE
  2
DIMSTYLE
 70
     3
  0
DIMSTYLE
  2
FSTD1
 70
    64
  3

  4

  5

  6
_OPEN
  7
_OPEN
 40
0.0
 41
8.0
 42
2.6667
 43
0.38
 44
2.6667
 45
0.0
 46
0.0
 47
0.0
 48
0.0
140
8.0
141
0.09
142
0.0
143
0.0394
144
1.0
145
0.0
146
1.0
147
2.6667
 71
     0
 72
     0
 73
     0
 74
     0
 75
     0
 76
     0
 77
     1
 78
     8
170
     0
171
     4
172
     1
173
     1
174
     0
175
     0
176
     0
177
     0
178
     0
  0
DIMSTYLE
  2
FSTD2
 70
    64
  3

  4

  5

  6
_OPEN
  7
_OPEN
 40
1.0
 41
8.0
 42
2.6667
 43
0.38
 44
2.6667
 45
0.0
 46
0.0
 47
0.0
 48
0.0
140
8.0
141
0.09
142
0.0
143
25.4
144
1.0
145
0.0
146
1.0
147
2.6667
 71
     0
 72
     0
 73
     0
 74
     0
 75
     0
 76
     0
 77
     1
 78
     0
170
     0
171
     2
172
     1
173
     1
174
     0
175
     0
176
     0
177
     0
178
     0
  0
DIMSTYLE
  2
FSTD3
 70
    64
  3

  4

  5

  6
_OPEN
  7
_OPEN
 40
0.0
 41
8.0
 42
2.6667
 43
0.38
 44
2.6667
 45
0.0
 46
0.0
 47
0.0
 48
0.0
140
8.0
141
0.09
142
0.0
143
0.0394
144
1.0
145
0.0
146
1.0
147
-2.6667
 71
     0
 72
     0
 73
     0
 74
     0
 75
     0
 76
     0
 77
     1
 78
     8
170
     0
171
     4
172
     1
173
     1
174
     0
175
     0
176
     0
177
     0
178
     0
  0
ENDTAB
  0
ENDSEC
  0
SECTION
  2
BLOCKS
  0
BLOCK
  8
0
  5
D0
  2
_OPEN
 70
    64
 10
0.0
 20
0.0
 30
0.0
  3
_OPEN
  0
LINE
  8
0
  6
BYBLOCK
 62
     0
  5
CD
 10
-1.0
 20
0.166667
 30
0.0
 11
0.0
 21
0.0
 31
0.0
  0
LINE
  8
0
  6
BYBLOCK
 62
     0
  5
CE
 10
0.0
 20
0.0
 30
0.0
 11
-1.0
 21
-0.166667
 31
0.0
  0
LINE
  8
0
  6
BYBLOCK
 62
     0
  5
CF
 10
0.0
 20
0.0
 30
0.0
 11
-1.0
 21
0.0
 31
0.0
  0
ENDBLK
  8
0
  5
D1
  0
BLOCK
  8
0
  5
D69
  2
*D1
 70
    65
 10
0.0
 20
0.0
 30
0.0
  3
*D1
  0
LINE
  8
0
  6
BYBLOCK
 62
     0
  5
D6A
 10
451.412313
 20
294.128951
 30
0.0
 11
451.412313
 21
234.653472
 31
0.0
  0
LINE
  8
0
  6
BYBLOCK
 62
     0
  5
D6B
 10
421.34382
 20
294.128951
 30
0.0
 11
421.34382
 21
234.653472
 31
0.0
  0
LINE
  8
0
  6
BYBLOCK
 62
     0
  5
D6C
 10
443.412313
 20
237.320172
 30
0.0
 11
429.34382
 21
237.320172
 31
0.0
  0
INSERT
  8
0
  6
BYBLOCK
 62
     0
  5
D6D
  2
_OPEN
 10
451.412313
 20
237.320172
 30
0.0
 41
8.0
 42
8.0
 43
8.0
  0
INSERT
  8
0
  6
BYBLOCK
 62
     0
  5
D6E
  2
_OPEN
 10
421.34382
 20
237.320172
 30
0.0
 41
8.0
 42
8.0
 50
180.0
 43
8.0
  0
TEXT
  8
0
  6
BYBLOCK
 62
     0
  5
D6F
 10
430.378066
 20
239.986872
 30
0.0
 40
8.0
  1
30
  0
POINT
  8
DEFPOINTS
  6
BYBLOCK
 62
     0
  5
D70
 10
451.412313
 20
296.795651
 30
0.0
  0
POINT
  8
DEFPOINTS
  6
BYBLOCK
 62
     0
  5
D71
 10
421.34382
 20
296.795651
 30
0.0
  0
POINT
  8
DEFPOINTS
  6
BYBLOCK
 62
     0
  5
D72
 10
421.34382
 20
237.320172
 30
0.0
  0
ENDBLK
  8
0
  5
D73
  0
BLOCK
  8
0
  5
D31
  2
*D2
 70
    65
 10
0.0
 20
0.0
 30
0.0
  3
*D2
  0
LINE
  8
0
  6
BYBLOCK
 62
     0
  5
D32
 10
510.547016
 20
525.978332
 30
0.0
 11
510.547016
 21
574.764462
 31
0.0
  0
LINE
  8
0
  6
BYBLOCK
 62
     0
  5
D33
 10
362.211122
 20
525.978332
 30
0.0
 11
362.211122
 21
574.764462
 31
0.0
  0
LINE
  8
0
  6
BYBLOCK
 62
     0
  5
D34
 10
502.547016
 20
572.097762
 30
0.0
 11
370.211122
 21
572.097762
 31
0.0
  0
INSERT
  8
0
  6
BYBLOCK
 62
     0
  5
D35
  2
_OPEN
 10
510.547016
 20
572.097762
 30
0.0
 41
8.0
 42
8.0
 43
8.0
  0
INSERT
  8
0
  6
BYBLOCK
 62
     0
  5
D36
  2
_OPEN
 10
362.211122
 20
572.097762
 30
0.0
 41
8.0
 42
8.0
 50
180.0
 43
8.0
  0
TEXT
  8
0
  6
BYBLOCK
 62
     0
  5
D37
 10
427.045735
 20
574.764462
 30
0.0
 40
8.0
  1
148
  0
POINT
  8
DEFPOINTS
  6
BYBLOCK
 62
     0
  5
D38
 10
510.547016
 20
523.311632
 30
0.0
  0
POINT
  8
DEFPOINTS
  6
BYBLOCK
 62
     0
  5
D39
 10
362.211122
 20
523.311632
 30
0.0
  0
POINT
  8
DEFPOINTS
  6
BYBLOCK
 62
     0
  5
D3A
 10
362.211122
 20
572.097762
 30
0.0
  0
ENDBLK
  8
0
  5
D3B
  0
BLOCK
  8
0
  5
D03
  2
*D3
 70
    65
 10
0.0
 20
0.0
 30
0.0
  3
*D3
  0
LINE
  8
0
  6
BYBLOCK
 62
     0
  5
D04
 10
238.111936
 20
470.35162
 30
0.0
 11
238.111936
 21
597.701711
 31
0.0
  0
LINE
  8
0
  6
BYBLOCK
 62
     0
  5
D05
 10
42.666732
 20
529.486323
 30
0.0
 11
42.666732
 21
597.701711
 31
0.0
  0
LINE
  8
0
  6
BYBLOCK
 62
     0
  5
D06
 10
230.111936
 20
595.035011
 30
0.0
 11
50.666732
 21
595.035011
 31
0.0
  0
INSERT
  8
0
  6
BYBLOCK
 62
     0
  5
D07
  2
_OPEN
 10
238.111936
 20
595.035011
 30
0.0
 41
8.0
 42
8.0
 43
8.0
  0
INSERT
  8
0
  6
BYBLOCK
 62
     0
  5
D08
  2
_OPEN
 10
42.666732
 20
595.035011
 30
0.0
 41
8.0
 42
8.0
 50
180.0
 43
8.0
  0
TEXT
  8
0
  6
BYBLOCK
 62
     0
  5
D09
 10
131.056001
 20
597.701711
 30
0.0
 40
8.0
  1
195
  0
POINT
  8
DEFPOINTS
  6
BYBLOCK
 62
     0
  5
D0A
 10
238.111936
 20
467.68492
 30
0.0
  0
POINT
  8
DEFPOINTS
  6
BYBLOCK
 62
     0
  5
D0B
 10
42.666732
 20
526.819623
 30
0.0
  0
POINT
  8
DEFPOINTS
  6
BYBLOCK
 62
     0
  5
D0C
 10
42.666732
 20
595.035011
 30
0.0
  0
ENDBLK
  8
0
  5
D0D
  0
BLOCK
  8
0
  5
D0E
  2
*D4
 70
    65
 10
0.0
 20
0.0
 30
0.0
  3
*D4
  0
LINE
  8
0
  6
BYBLOCK
 62
     0
  5
D0F
 10
174.366731
 20
519.964633
 30
0.0
 11
174.366731
 21
574.764462
 31
0.0
  0
LINE
  8
0
  6
BYBLOCK
 62
     0
  5
D10
 10
42.666732
 20
529.486323
 30
0.0
 11
42.666732
 21
574.764462
 31
0.0
  0
LINE
  8
0
  6
BYBLOCK
 62
     0
  5
D11
 10
166.366731
 20
572.097762
 30
0.0
 11
50.666732
 21
572.097762
 31
0.0
  0
INSERT
  8
0
  6
BYBLOCK
 62
     0
  5
D12
  2
_OPEN
 10
174.366731
 20
572.097762
 30
0.0
 41
8.0
 42
8.0
 43
8.0
  0
INSERT
  8
0
  6
BYBLOCK
 62
     0
  5
D13
  2
_OPEN
 10
42.666732
 20
572.097762
 30
0.0
 41
8.0
 42
8.0
 50
180.0
 43
8.0
  0
TEXT
  8
0
  6
BYBLOCK
 62
     0
  5
D14
 10
99.183398
 20
574.764462
 30
0.0
 40
8.0
  1
132
  0
POINT
  8
DEFPOINTS
  6
BYBLOCK
 62
     0
  5
D15
 10
174.366731
 20
517.297933
 30
0.0
  0
POINT
  8
DEFPOINTS
  6
BYBLOCK
 62
     0
  5
D16
 10
42.666732
 20
526.819623
 30
0.0
  0
POINT
  8
DEFPOINTS
  6
BYBLOCK
 62
     0
  5
D17
 10
42.666732
 20
572.097762
 30
0.0
  0
ENDBLK
  8
0
  5
D18
  0
BLOCK
  8
0
  5
D53
  2
*D5
 70
    65
 10
0.0
 20
0.0
 30
0.0
  3
*D5
  0
LINE
  8
0
  6
BYBLOCK
 62
     0
  5
D54
 10
495.17262
 20
502.263687
 30
0.0
 11
555.239446
 21
502.263687
 31
0.0
  0
LINE
  8
0
  6
BYBLOCK
 62
     0
  5
D55
 10
495.17262
 20
311.829898
 30
0.0
 11
555.239446
 21
311.829898
 31
0.0
  0
LINE
  8
0
  6
BYBLOCK
 62
     0
  5
D56
 10
552.572746
 20
494.263687
 30
0.0
 11
552.572746
 21
319.829898
 31
0.0
  0
INSERT
  8
0
  6
BYBLOCK
 62
     0
  5
D57
  2
_OPEN
 10
552.572746
 20
502.263687
 30
0.0
 41
8.0
 42
8.0
 50
90.0
 43
8.0
  0
INSERT
  8
0
  6
BYBLOCK
 62
     0
  5
D58
  2
_OPEN
 10
552.572746
 20
311.829898
 30
0.0
 41
8.0
 42
8.0
 50
270.0
 43
8.0
  0
TEXT
  8
0
  6
BYBLOCK
 62
     0
  5
D59
 10
549.906046
 20
398.380126
 30
0.0
 40
8.0
  1
190
 50
90.0
  0
POINT
  8
DEFPOINTS
  6
BYBLOCK
 62
     0
  5
D5A
 10
492.50592
 20
502.263687
 30
0.0
  0
POINT
  8
DEFPOINTS
  6
BYBLOCK
 62
     0
  5
D5B
 10
492.50592
 20
311.829898
 30
0.0
  0
POINT
  8
DEFPOINTS
  6
BYBLOCK
 62
     0
  5
D5C
 10
552.572746
 20
311.829898
 30
0.0
  0
ENDBLK
  8
0
  5
D5D
  0
BLOCK
  8
0
  5
D5E
  2
*D6
 70
    65
 10
0.0
 20
0.0
 30
0.0
  3
*D6
  0
LINE
  8
0
  6
BYBLOCK
 62
     0
  5
D5F
 10
509.204583
 20
286.77282
 30
0.0
 11
578.076467
 21
286.77282
 31
0.0
  0
LINE
  8
0
  6
BYBLOCK
 62
     0
  5
D60
 10
509.204583
 20
527.320764
 30
0.0
 11
578.076467
 21
527.320764
 31
0.0
  0
LINE
  8
0
  6
BYBLOCK
 62
     0
  5
D61
 10
575.409767
 20
294.77282
 30
0.0
 11
575.409767
 21
519.320764
 31
0.0
  0
INSERT
  8
0
  6
BYBLOCK
 62
     0
  5
D62
  2
_OPEN
 10
575.409767
 20
286.77282
 30
0.0
 41
8.0
 42
8.0
 50
270.0
 43
8.0
  0
INSERT
  8
0
  6
BYBLOCK
 62
     0
  5
D63
  2
_OPEN
 10
575.409767
 20
527.320764
 30
0.0
 41
8.0
 42
8.0
 50
90.0
 43
8.0
  0
TEXT
  8
0
  6
BYBLOCK
 62
     0
  5
D64
 10
572.743067
 20
397.046792
 30
0.0
 40
8.0
  1
240
 50
90.0
  0
POINT
  8
DEFPOINTS
  6
BYBLOCK
 62
     0
  5
D65
 10
506.537883
 20
286.77282
 30
0.0
  0
POINT
  8
DEFPOINTS
  6
BYBLOCK
 62
     0
  5
D66
 10
506.537883
 20
527.320764
 30
0.0
  0
POINT
  8
DEFPOINTS
  6
BYBLOCK
 62
     0
  5
D67
 10
575.409767
 20
527.320764
 30
0.0
  0
ENDBLK
  8
0
  5
D68
  0
BLOCK
  8
0
  5
D46
  2
*D7
 70
    65
 10
0.0
 20
0.0
 30
0.0
  3
*D7
  0
LINE
  8
0
  6
BYBLOCK
 62
     0
  5
D47
 10
495.17262
 20
502.263687
 30
0.0
 11
555.244458
 21
502.263687
 31
0.0
  0
LINE
  8
0
  6
BYBLOCK
 62
     0
  5
D48
 10
510.206866
 20
517.297933
 30
0.0
 11
555.244458
 21
517.297933
 31
0.0
  0
LINE
  8
0
  6
BYBLOCK
 62
     0
  5
D49
 10
552.577758
 20
494.263687
 30
0.0
 11
552.577758
 21
486.263687
 31
0.0
  0
LINE
  8
0
  6
BYBLOCK
 62
     0
  5
D4A
 10
552.577758
 20
525.297933
 30
0.0
 11
552.577758
 21
549.298
 31
0.0
  0
LINE
  8
0
  6
BYBLOCK
 62
     0
  5
D4B
 10
552.577758
 20
502.263687
 30
0.0
 11
552.577758
 21
517.297933
 31
0.0
  0
INSERT
  8
0
  6
BYBLOCK
 62
     0
  5
D4C
  2
_OPEN
 10
552.577758
 20
502.263687
 30
0.0
 41
8.0
 42
8.0
 50
90.0
 43
8.0
  0
INSERT
  8
0
  6
BYBLOCK
 62
     0
  5
D4D
  2
_OPEN
 10
552.577758
 20
517.297933
 30
0.0
 41
8.0
 42
8.0
 50
270.0
 43
8.0
  0
TEXT
  8
0
  6
BYBLOCK
 62
     0
  5
D4E
 10
549.911058
 20
535.964633
 30
0.0
 40
8.0
  1
15
 50
90.0
  0
POINT
  8
DEFPOINTS
  6
BYBLOCK
 62
     0
  5
D4F
 10
492.50592
 20
502.263687
 30
0.0
  0
POINT
  8
DEFPOINTS
  6
BYBLOCK
 62
     0
  5
D50
 10
507.540166
 20
517.297933
 30
0.0
  0
POINT
  8
DEFPOINTS
  6
BYBLOCK
 62
     0
  5
D51
 10
552.577758
 20
517.297933
 30
0.0
  0
ENDBLK
  8
0
  5
D52
  0
BLOCK
  8
0
  5
D83
  2
*D8
 70
    65
 10
0.0
 20
0.0
 30
0.0
  3
*D8
  0
LINE
  8
0
  6
BYBLOCK
 62
     0
  5
D84
 10
765.012288
 20
517.297933
 30
0.0
 11
848.562607
 21
517.297933
 31
0.0
  0
LINE
  8
0
  6
BYBLOCK
 62
     0
  5
D85
 10
797.335918
 20
527.320764
 30
0.0
 11
848.562607
 21
527.320764
 31
0.0
  0
LINE
  8
0
  6
BYBLOCK
 62
     0
  5
D86
 10
845.895907
 20
509.297933
 30
0.0
 11
845.895907
 21
501.297933
 31
0.0
  0
LINE
  8
0
  6
BYBLOCK
 62
     0
  5
D87
 10
845.895907
 20
535.320764
 30
0.0
 11
845.895907
 21
557.987498
 31
0.0
  0
LINE
  8
0
  6
BYBLOCK
 62
     0
  5
D88
 10
845.895907
 20
517.297933
 30
0.0
 11
845.895907
 21
527.320764
 31
0.0
  0
INSERT
  8
0
  6
BYBLOCK
 62
     0
  5
D89
  2
_OPEN
 10
845.895907
 20
517.297933
 30
0.0
 41
8.0
 42
8.0
 50
90.0
 43
8.0
  0
INSERT
  8
0
  6
BYBLOCK
 62
     0
  5
D8A
  2
_OPEN
 10
845.895907
 20
527.320764
 30
0.0
 41
8.0
 42
8.0
 50
270.0
 43
8.0
  0
TEXT
  8
0
  6
BYBLOCK
 62
     0
  5
D8B
 10
843.229207
 20
545.987464
 30
0.0
 40
8.0
  1
10
 50
90.0
  0
POINT
  8
DEFPOINTS
  6
BYBLOCK
 62
     0
  5
D8C
 10
762.345588
 20
517.297933
 30
0.0
  0
POINT
  8
DEFPOINTS
  6
BYBLOCK
 62
     0
  5
D8D
 10
794.669218
 20
527.320764
 30
0.0
  0
POINT
  8
DEFPOINTS
  6
BYBLOCK
 62
     0
  5
D8E
 10
845.895907
 20
527.320764
 30
0.0
  0
ENDBLK
  8
0
  5
D8F
  0
BLOCK
  8
0
  5
D3C
  2
*D9
 70
    65
 10
0.0
 20
0.0
 30
0.0
  3
*D9
  0
LINE
  8
0
  6
BYBLOCK
 62
     0
  5
D3D
 10
492.50592
 20
504.930387
 30
0.0
 11
492.50592
 21
551.361152
 31
0.0
  0
LINE
  8
0
  6
BYBLOCK
 62
     0
  5
D3E
 10
444.378066
 20
548.694452
 30
0.0
 11
484.50592
 21
548.694452
 31
0.0
  0
INSERT
  8
0
  6
BYBLOCK
 62
     0
  5
D3F
  2
_OPEN
 10
436.378066
 20
548.694452
 30
0.0
 41
8.0
 42
8.0
 50
180.0
 43
8.0
  0
INSERT
  8
0
  6
BYBLOCK
 62
     0
  5
D40
  2
_OPEN
 10
492.50592
 20
548.694452
 30
0.0
 41
8.0
 42
8.0
 43
8.0
  0
TEXT
  8
0
  6
BYBLOCK
 62
     0
  5
D41
 10
457.775327
 20
551.361152
 30
0.0
 40
8.0
  1
56
  0
POINT
  8
DEFPOINTS
  6
BYBLOCK
 62
     0
  5
D42
 10
436.378066
 20
548.694452
 30
0.0
  0
POINT
  8
DEFPOINTS
  6
BYBLOCK
 62
     0
  5
D43
 10
492.50592
 20
502.263687
 30
0.0
  0
POINT
  8
DEFPOINTS
  6
BYBLOCK
 62
     0
  5
D44
 10
492.50592
 20
548.694452
 30
0.0
  0
ENDBLK
  8
0
  5
D45
  0
BLOCK
  8
0
  5
E38
  2
*D10
 70
    65
 10
0.0
 20
0.0
 30
0.0
  3
*D10
  0
LINE
  8
0
  6
BYBLOCK
 62
     0
  5
E39
 10
351.683724
 20
441.987008
 30
0.0
 11
351.683724
 21
597.701711
 31
0.0
  0
LINE
  8
0
  6
BYBLOCK
 62
     0
  5
E3A
 10
521.074413
 20
441.987008
 30
0.0
 11
521.074413
 21
597.701711
 31
0.0
  0
LINE
  8
0
  6
BYBLOCK
 62
     0
  5
E3B
 10
359.683724
 20
595.035011
 30
0.0
 11
513.074413
 21
595.035011
 31
0.0
  0
INSERT
  8
0
  6
BYBLOCK
 62
     0
  5
E3C
  2
_OPEN
 10
351.683724
 20
595.035011
 30
0.0
 41
8.0
 42
8.0
 50
180.0
 43
8.0
  0
INSERT
  8
0
  6
BYBLOCK
 62
     0
  5
E3D
  2
_OPEN
 10
521.074413
 20
595.035011
 30
0.0
 41
8.0
 42
8.0
 43
8.0
  0
TEXT
  8
0
  6
BYBLOCK
 62
     0
  5
E3E
 10
422.379069
 20
597.701711
 30
0.0
 40
8.0
  1
(170)
  0
POINT
  8
DEFPOINTS
  6
BYBLOCK
 62
     0
  5
E3F
 10
351.683724
 20
439.320308
 30
0.0
  0
POINT
  8
DEFPOINTS
  6
BYBLOCK
 62
     0
  5
E40
 10
521.074413
 20
439.320308
 30
0.0
  0
POINT
  8
DEFPOINTS
  6
BYBLOCK
 62
     0
  5
E41
 10
521.074413
 20
595.035011
 30
0.0
  0
ENDBLK
  8
0
  5
E42
  0
BLOCK
  8
0
  5
D19
  2
*D11
 70
    65
 10
0.0
 20
0.0
 30
0.0
  3
*D11
  0
LINE
  8
0
  6
BYBLOCK
 62
     0
  5
D1A
 10
57.199837
 20
527.982898
 30
0.0
 11
57.199837
 21
550.915136
 31
0.0
  0
LINE
  8
0
  6
BYBLOCK
 62
     0
  5
D1B
 10
42.666732
 20
529.486323
 30
0.0
 11
42.666732
 21
550.915136
 31
0.0
  0
LINE
  8
0
  6
BYBLOCK
 62
     0
  5
D1C
 10
65.199837
 20
548.248436
 30
0.0
 11
73.199837
 21
548.248436
 31
0.0
  0
LINE
  8
0
  6
BYBLOCK
 62
     0
  5
D1D
 10
34.666732
 20
548.248436
 30
0.0
 11
-0.000002
 21
548.248436
 31
0.0
  0
LINE
  8
0
  6
BYBLOCK
 62
     0
  5
D1E
 10
57.199837
 20
548.248436
 30
0.0
 11
42.666732
 21
548.248436
 31
0.0
  0
INSERT
  8
0
  6
BYBLOCK
 62
     0
  5
D1F
  2
_OPEN
 10
57.199837
 20
548.248436
 30
0.0
 41
8.0
 42
8.0
 50
180.0
 43
8.0
  0
INSERT
  8
0
  6
BYBLOCK
 62
     0
  5
D20
  2
_OPEN
 10
42.666732
 20
548.248436
 30
0.0
 41
8.0
 42
8.0
 43
8.0
  0
TEXT
  8
0
  6
BYBLOCK
 62
     0
  5
D21
 10
2.666698
 20
550.915136
 30
0.0
 40
8.0
  1
14.5
  0
POINT
  8
DEFPOINTS
  6
BYBLOCK
 62
     0
  5
D22
 10
57.199837
 20
525.316198
 30
0.0
  0
POINT
  8
DEFPOINTS
  6
BYBLOCK
 62
     0
  5
D23
 10
42.666732
 20
526.819623
 30
0.0
  0
POINT
  8
DEFPOINTS
  6
BYBLOCK
 62
     0
  5
D24
 10
42.666732
 20
548.248436
 30
0.0
  0
ENDBLK
  8
0
  5
D25
  0
BLOCK
  8
0
  5
D90
  2
*D12
 70
    65
 10
0.0
 20
0.0
 30
0.0
  3
*D12
  0
LINE
  8
0
  6
BYBLOCK
 62
     0
  5
D91
 10
765.012288
 20
517.297933
 30
0.0
 11
848.562607
 21
517.297933
 31
0.0
  0
LINE
  8
0
  6
BYBLOCK
 62
     0
  5
D92
 10
765.012288
 20
296.795651
 30
0.0
 11
848.562607
 21
296.795651
 31
0.0
  0
LINE
  8
0
  6
BYBLOCK
 62
     0
  5
D93
 10
845.895907
 20
509.297933
 30
0.0
 11
845.895907
 21
304.795651
 31
0.0
  0
INSERT
  8
0
  6
BYBLOCK
 62
     0
  5
D94
  2
_OPEN
 10
845.895907
 20
517.297933
 30
0.0
 41
8.0
 42
8.0
 50
90.0
 43
8.0
  0
INSERT
  8
0
  6
BYBLOCK
 62
     0
  5
D95
  2
_OPEN
 10
845.895907
 20
296.795651
 30
0.0
 41
8.0
 42
8.0
 50
270.0
 43
8.0
  0
TEXT
  8
0
  6
BYBLOCK
 62
     0
  5
D96
 10
840.562507
 20
397.046792
 30
0.0
 40
8.0
  1
220
 50
90.0
  0
LINE
  8
0
  6
BYBLOCK
 62
     0
  5
D97
 10
843.229207
 20
394.380092
 30
0.0
 11
843.229207
 21
419.713492
 31
0.0
  0
LINE
  8
0
  6
BYBLOCK
 62
     0
  5
D98
 10
843.229207
 20
419.713492
 30
0.0
 11
829.895807
 21
419.713492
 31
0.0
  0
LINE
  8
0
  6
BYBLOCK
 62
     0
  5
D99
 10
829.895807
 20
419.713492
 30
0.0
 11
829.895807
 21
394.380092
 31
0.0
  0
LINE
  8
0
  6
BYBLOCK
 62
     0
  5
D9A
 10
829.895807
 20
394.380092
 30
0.0
 11
843.229207
 21
394.380092
 31
0.0
  0
POINT
  8
DEFPOINTS
  6
BYBLOCK
 62
     0
  5
D9B
 10
762.345588
 20
517.297933
 30
0.0
  0
POINT
  8
DEFPOINTS
  6
BYBLOCK
 62
     0
  5
D9C
 10
762.345588
 20
296.795651
 30
0.0
  0
POINT
  8
DEFPOINTS
  6
BYBLOCK
 62
     0
  5
D9D
 10
845.895907
 20
296.795651
 30
0.0
  0
ENDBLK
  8
0
  5
D9E
  0
BLOCK
  8
0
  5
D74
  2
*D13
 70
    65
 10
0.0
 20
0.0
 30
0.0
  3
*D13
  0
LINE
  8
0
  6
BYBLOCK
 62
     0
  5
D75
 10
754.577894
 20
527.732327
 30
0.0
 11
754.577894
 21
590.826049
 31
0.0
  0
LINE
  8
0
  6
BYBLOCK
 62
     0
  5
D76
 10
694.440908
 20
527.732327
 30
0.0
 11
694.440908
 21
590.826049
 31
0.0
  0
LINE
  8
0
  6
BYBLOCK
 62
     0
  5
D77
 10
746.577894
 20
588.159349
 30
0.0
 11
702.440908
 21
588.159349
 31
0.0
  0
INSERT
  8
0
  6
BYBLOCK
 62
     0
  5
D78
  2
_OPEN
 10
754.577894
 20
588.159349
 30
0.0
 41
8.0
 42
8.0
 43
8.0
  0
INSERT
  8
0
  6
BYBLOCK
 62
     0
  5
D79
  2
_OPEN
 10
694.440908
 20
588.159349
 30
0.0
 41
8.0
 42
8.0
 50
180.0
 43
8.0
  0
TEXT
  8
0
  6
BYBLOCK
 62
     0
  5
D7A
 10
718.509401
 20
593.492749
 30
0.0
 40
8.0
  1
60
  0
LINE
  8
0
  6
BYBLOCK
 62
     0
  5
D7B
 10
715.842701
 20
590.826049
 30
0.0
 11
733.176101
 21
590.826049
 31
0.0
  0
LINE
  8
0
  6
BYBLOCK
 62
     0
  5
D7C
 10
733.176101
 20
590.826049
 30
0.0
 11
733.176101
 21
604.159449
 31
0.0
  0
LINE
  8
0
  6
BYBLOCK
 62
     0
  5
D7D
 10
733.176101
 20
604.159449
 30
0.0
 11
715.842701
 21
604.159449
 31
0.0
  0
LINE
  8
0
  6
BYBLOCK
 62
     0
  5
D7E
 10
715.842701
 20
604.159449
 30
0.0
 11
715.842701
 21
590.826049
 31
0.0
  0
POINT
  8
DEFPOINTS
  6
BYBLOCK
 62
     0
  5
D7F
 10
754.577894
 20
525.065627
 30
0.0
  0
POINT
  8
DEFPOINTS
  6
BYBLOCK
 62
     0
  5
D80
 10
694.440908
 20
525.065627
 30
0.0
  0
POINT
  8
DEFPOINTS
  6
BYBLOCK
 62
     0
  5
D81
 10
694.440908
 20
588.159349
 30
0.0
  0
ENDBLK
  8
0
  5
D82
  0
ENDSEC
  0
SECTION
  2
ENTITIES
  0
LINE
  8
10
  6
CENTER
  5
515
 10
344.222144
 20
407.046792
 30
0.0
 11
528.868751
 21
407.046792
 31
0.0
  0
DIMENSION
  8
FF
  5
517
  2
*D1
 10
421.34382
 20
237.320172
 30
0.0
 11
436.378066
 21
243.986872
 31
0.0
  1
30
 13
451.412313
 23
296.795651
 33
0.0
 14
421.34382
 24
296.795651
 34
0.0
 50
180.0
  3
FSTD1
  0
DIMENSION
  8
FF
  5
518
  2
*D2
 10
362.211122
 20
572.097762
 30
0.0
 11
436.379069
 21
578.764462
 31
0.0
  1
148
 13
510.547016
 23
523.311632
 33
0.0
 14
362.211122
 24
523.311632
 34
0.0
 50
180.0
  3
FSTD1
  0
LINE
  8
0C
  5
51A
 10
436.378066
 20
339.392683
 30
0.0
 11
495.011628
 21
339.392683
 31
0.0
  0
LINE
  8
0C
  5
51B
 10
436.378066
 20
351.921222
 30
0.0
 11
493.909116
 21
351.921222
 31
0.0
  0
LINE
  8
0C
  5
51C
 10
436.378066
 20
398.527386
 30
0.0
 11
447.904322
 21
398.527386
 31
0.0
  0
LINE
  8
0C
  5
51D
 10
436.378066
 20
415.566199
 30
0.0
 11
447.904322
 21
415.566199
 31
0.0
  0
LINE
  8
0C
  5
51E
 10
436.378066
 20
467.68492
 30
0.0
 11
499.02076
 21
467.68492
 31
0.0
  0
LINE
  8
0C
  5
51F
 10
436.378066
 20
346.408665
 30
0.0
 11
499.02076
 21
346.408665
 31
0.0
  0
LINE
  8
0C
  5
520
 10
436.378066
 20
462.172363
 30
0.0
 11
493.909116
 21
462.172363
 31
0.0
  0
LINE
  8
0C
  5
521
 10
436.378066
 20
474.700902
 30
0.0
 11
495.011628
 21
474.700902
 31
0.0
  0
LINE
  8
0C
  5
522
 10
436.378066
 20
338.891542
 30
0.0
 11
495.512769
 21
338.891542
 31
0.0
  0
LINE
  8
0C
  5
523
 10
436.378066
 20
475.202043
 30
0.0
 11
495.512769
 21
475.202043
 31
0.0
  0
LINE
  8
0C
  5
524
 10
447.40318
 20
294.4904
 30
0.0
 11
425.352952
 21
294.4904
 31
0.0
  0
LINE
  8
0C
  5
525
 10
447.40318
 20
519.603185
 30
0.0
 11
425.352952
 21
519.603185
 31
0.0
  0
LINE
  8
0D
  5
526
 10
445.398614
 20
317.036759
 30
0.0
 11
436.378066
 21
321.852729
 31
0.0
  0
LINE
  8
0D
  5
527
 10
436.378066
 20
301.807067
 30
0.0
 11
445.398614
 21
306.623037
 31
0.0
  0
LINE
  8
0D
  5
528
 10
436.378066
 20
512.286518
 30
0.0
 11
445.398614
 21
507.470548
 31
0.0
  0
LINE
  8
0D
  5
529
 10
445.398614
 20
497.056826
 30
0.0
 11
436.378066
 21
492.240856
 31
0.0
  0
CIRCLE
  8
0D
  5
52A
 10
436.378066
 20
502.263687
 30
0.0
 40
10.523973
  0
CIRCLE
  8
0D
  5
52B
 10
436.378066
 20
311.829898
 30
0.0
 40
10.523973
  0
CIRCLE
  8
0D
  5
52C
 10
436.378066
 20
311.829898
 30
0.0
 40
13.02968
  0
CIRCLE
  8
0D
  5
52D
 10
436.378066
 20
502.263687
 30
0.0
 40
13.02968
  0
LINE
  8
0C
  5
52E
 10
451.412313
 20
517.297933
 30
0.0
 11
421.34382
 21
517.297933
 31
0.0
  0
LINE
  8
0C
  5
52F
 10
451.412313
 20
296.795651
 30
0.0
 11
421.34382
 21
296.795651
 31
0.0
  0
LINE
  8
0B
  5
530
 10
459.681148
 20
286.77282
 30
0.0
 11
436.378066
 21
286.77282
 31
0.0
  0
LINE
  8
0B
  5
531
 10
459.681148
 20
286.77282
 30
0.0
 11
436.378066
 21
286.77282
 31
0.0
  0
LINE
  8
0B
  5
532
 10
506.537883
 20
527.320764
 30
0.0
 11
436.378066
 21
527.320764
 31
0.0
  0
LINE
  8
16
  5
533
 10
174.366731
 20
333.880126
 30
0.0
 11
174.366731
 21
328.868711
 31
0.0
  0
LINE
  8
10
  6
CENTER
  5
534
 10
436.378066
 20
548.694452
 30
0.0
 11
436.378066
 21
276.970492
 31
0.0
  0
LINE
  8
15
  5
535
 10
190.990598
 20
329.455046
 30
0.0
 11
200.066272
 21
338.53072
 31
0.0
  0
LINE
  8
0C
  5
536
 10
409.817564
 20
330.873277
 30
0.0
 11
409.817564
 21
336.886975
 31
0.0
  0
LINE
  8
0C
  5
537
 10
417.835829
 20
336.886975
 30
0.0
 11
417.835829
 21
330.873277
 31
0.0
  0
LINE
  8
0C
  5
538
 10
374.742667
 20
339.768539
 30
0.0
 11
365.687039
 21
328.978962
 31
0.0
  0
LINE
  8
0C
  5
539
 10
395.755532
 20
330.517466
 30
0.0
 11
402.781537
 21
338.891542
 31
0.0
  0
LINE
  8
0C
  5
53A
 10
421.34382
 20
296.795651
 30
0.0
 11
421.34382
 21
335.553939
 31
0.0
  0
LINE
  8
16
  5
53B
 10
65.819471
 20
326.864144
 30
0.0
 11
65.819471
 21
345.155811
 31
0.0
  0
LINE
  8
16
  5
53C
 10
94.985909
 20
329.870994
 30
0.0
 11
94.985909
 21
407.046792
 31
0.0
  0
LINE
  8
16
  5
53D
 10
63.814905
 20
345.155811
 30
0.0
 11
63.814905
 21
326.864144
 31
0.0
  0
LINE
  8
16
  5
53E
 10
66.821754
 20
329.339784
 30
0.0
 11
66.821754
 21
345.155811
 31
0.0
  0
LINE
  8
16
  5
53F
 10
155.330368
 20
338.60088
 30
0.0
 11
145.894875
 21
329.164384
 31
0.0
  0
LINE
  8
16
  5
540
 10
168.854174
 20
330.873277
 30
0.0
 11
168.854174
 21
333.880126
 31
0.0
  0
LINE
  8
15
  5
541
 10
43.167873
 20
407.046792
 30
0.0
 11
43.167873
 21
309.825332
 31
0.0
  0
LINE
  8
16
  5
542
 10
63.313763
 20
288.777387
 30
0.0
 11
63.313763
 21
345.155811
 31
0.0
  0
LINE
  8
0B
  5
543
 10
362.211122
 20
523.311632
 30
0.0
 11
362.211122
 21
290.781953
 31
0.0
  0
LINE
  8
0C
  5
544
 10
366.821624
 20
344.404099
 30
0.0
 11
366.821624
 21
330.332044
 31
0.0
  0
TEXT
  8
FF
  5
545
 10
43.426963
 20
181.713506
 30
0.0
 40
15.034247
  1
※１　サイドオン補助接点ユニット２個取付けた場合
 41
0.833333
  0
ARC
  8
16
  5
546
 10
145.186261
 20
329.870994
 30
0.0
 40
1.002283
 50
270.0
 51
315.0
  0
LINE
  8
15
  5
547
 10
67.441165
 20
328.868711
 30
0.0
 11
166.849608
 21
328.868711
 31
0.0
  0
LINE
  8
15
  5
54A
 10
63.300734
 20
288.546861
 30
0.0
 11
67.316381
 21
323.361165
 31
0.0
  0
LINE
  8
15
  5
54B
 10
42.666732
 20
287.273962
 30
0.0
 11
42.666732
 21
309.32419
 31
0.0
  0
LINE
  8
15
  5
54C
 10
61.298172
 20
286.77282
 30
0.0
 11
43.167873
 21
286.77282
 31
0.0
  0
ARC
  8
15
  5
54D
 10
43.167873
 20
287.273962
 30
0.0
 40
0.501142
 50
180.0
 51
270.0
  0
LINE
  8
16
  5
54E
 10
43.167873
 20
286.77282
 30
0.0
 11
43.167873
 21
290.781953
 31
0.0
  0
ARC
  8
15
  5
54F
 10
61.309197
 20
288.777387
 30
0.0
 40
2.004566
 50
269.683
 51
0.0
  0
ARC
  8
15
  5
551
 10
43.167873
 20
309.32419
 30
0.0
 40
0.501142
 50
90.0
 51
180.0
  0
ARC
  8
16
  5
552
 10
43.167873
 20
307.520081
 30
0.0
 40
0.501142
 50
90.0
 51
180.0
  0
LINE
  8
16
  5
553
 10
43.167873
 20
304.01209
 30
0.0
 11
43.167873
 21
309.825332
 31
0.0
  0
ARC
  8
15
  5
554
 10
67.441165
 20
327.866427
 30
0.0
 40
1.002283
 50
90.0
 51
96.776691
  0
ARC
  8
16
  5
555
 10
67.441165
 20
327.866427
 30
0.0
 40
1.002283
 50
96.776691
 51
153.435
  0
LINE
  8
16
  5
556
 10
66.544623
 20
328.317455
 30
0.0
 11
65.819471
 21
326.864144
 31
0.0
  0
LINE
  8
16
  5
557
 10
65.819471
 20
326.864144
 30
0.0
 11
63.814905
 21
326.864144
 31
0.0
  0
ARC
  8
16
  5
558
 10
66.320613
 20
323.476428
 30
0.0
 40
1.002283
 50
296.565
 51
0.0
  0
ARC
  8
16
  5
559
 10
64.316047
 20
320.22903
 30
0.0
 40
1.002283
 50
116.565
 51
180.0
  0
LINE
  8
15
  5
55A
 10
67.322896
 20
328.861708
 30
0.0
 11
67.322896
 21
323.476428
 31
0.0
  0
LINE
  8
16
  5
55B
 10
66.769134
 20
322.579384
 30
0.0
 11
63.868026
 21
321.126074
 31
0.0
  0
ARC
  8
16
  5
55C
 10
93.983626
 20
329.870994
 30
0.0
 40
1.002283
 50
270.0
 51
0.0
  0
LINE
  8
15
  5
578
 10
189.572869
 20
328.868711
 30
0.0
 11
174.366731
 21
328.868711
 31
0.0
  0
LINE
  8
17
  5
579
 10
179.979516
 20
301.807067
 30
0.0
 11
188.899836
 21
301.807067
 31
0.0
  0
LINE
  8
17
  5
57A
 10
179.979516
 20
306.623037
 30
0.0
 11
188.899836
 21
306.623037
 31
0.0
  0
LINE
  8
17
  5
57B
 10
179.979516
 20
317.04177
 30
0.0
 11
188.899836
 21
317.04177
 31
0.0
  0
LINE
  8
17
  5
57C
 10
179.979516
 20
321.852729
 30
0.0
 11
188.899836
 21
321.852729
 31
0.0
  0
LINE
  8
16
  5
57D
 10
168.353032
 20
297.797934
 30
0.0
 11
168.353032
 21
326.864144
 31
0.0
  0
LINE
  8
15
  5
57E
 10
157.027233
 20
300.804784
 30
0.0
 11
157.027233
 21
326.864144
 31
0.0
  0
LINE
  8
17
  5
57F
 10
176.872439
 20
298.800218
 30
0.0
 11
176.872439
 21
309.825332
 31
0.0
  0
LINE
  8
17
  5
580
 10
174.366731
 20
298.800218
 30
0.0
 11
174.366731
 21
324.859578
 31
0.0
  0
LINE
  8
16
  5
581
 10
168.353032
 20
326.864144
 30
0.0
 11
168.353032
 21
296.795651
 31
0.0
  0
LINE
  8
15
  5
582
 10
174.366731
 20
328.868711
 30
0.0
 11
174.366731
 21
296.795651
 31
0.0
  0
LINE
  8
15
  5
583
 10
157.027233
 20
300.804784
 30
0.0
 11
168.353032
 21
300.804784
 31
0.0
  0
LINE
  8
15
  5
584
 10
172.362165
 20
296.795651
 30
0.0
 11
174.366731
 21
296.795651
 31
0.0
  0
ARC
  8
15
  5
585
 10
169.054631
 20
297.49725
 30
0.0
 40
3.006849
 50
180.0
 51
270.0
  0
ARC
  8
16
  5
586
 10
169.355315
 20
297.797934
 30
0.0
 40
1.002283
 50
180.0
 51
270.0
  0
LINE
  8
16
  5
587
 10
169.355315
 20
296.795651
 30
0.0
 11
172.362165
 21
296.795651
 31
0.0
  0
LINE
  8
15
  5
588
 10
172.362165
 20
296.795651
 30
0.0
 11
172.362165
 21
294.4904
 31
0.0
  0
LINE
  8
15
  5
589
 10
172.362165
 20
294.4904
 30
0.0
 11
169.054631
 21
294.4904
 31
0.0
  0
LINE
  8
15
  5
58A
 10
166.047781
 20
297.49725
 30
0.0
 11
166.047781
 21
300.804784
 31
0.0
  0
LINE
  8
16
  5
58B
 10
172.362165
 20
296.795651
 30
0.0
 11
168.353032
 21
296.795651
 31
0.0
  0
LINE
  8
17
  5
58C
 10
176.872439
 20
298.800218
 30
0.0
 11
174.366731
 21
298.800218
 31
0.0
  0
LINE
  8
15
  5
58D
 10
157.027233
 20
326.864144
 30
0.0
 11
168.353032
 21
326.864144
 31
0.0
  0
LINE
  8
17
  5
58E
 10
179.879288
 20
312.832181
 30
0.0
 11
179.879288
 21
322.35387
 31
0.0
  0
LINE
  8
17
  5
58F
 10
176.872439
 20
309.825332
 30
0.0
 11
176.872439
 21
324.859578
 31
0.0
  0
LINE
  8
17
  5
590
 10
179.879288
 20
314.250412
 30
0.0
 11
176.872439
 21
311.243562
 31
0.0
  0
LINE
  8
17
  5
591
 10
176.872439
 20
309.825332
 30
0.0
 11
179.879288
 21
312.832181
 31
0.0
  0
LINE
  8
17
  5
592
 10
179.879288
 20
301.305925
 30
0.0
 11
176.872439
 21
301.305925
 31
0.0
  0
LINE
  8
17
  5
593
 10
179.879288
 20
301.305925
 30
0.0
 11
179.879288
 21
312.832181
 31
0.0
  0
ARC
  8
15
  5
594
 10
166.849608
 20
330.873277
 30
0.0
 40
2.004566
 50
270.0
 51
318.590378
  0
LINE
  8
15
  5
595
 10
168.353032
 20
326.864144
 30
0.0
 11
168.353032
 21
329.550263
 31
0.0
  0
ARC
  8
16
  5
596
 10
166.849608
 20
330.873277
 30
0.0
 40
2.004566
 50
318.590378
 51
0.0
  0
LINE
  8
17
  5
597
 10
179.879288
 20
322.35387
 30
0.0
 11
176.872439
 21
322.35387
 31
0.0
  0
LINE
  8
17
  5
598
 10
176.872439
 20
324.859578
 30
0.0
 11
174.366731
 21
324.859578
 31
0.0
  0
LINE
  8
17
  5
599
 10
206.139105
 20
305.816199
 30
0.0
 11
188.899836
 21
305.816199
 31
0.0
  0
LINE
  8
17
  5
59A
 10
206.139105
 20
317.843596
 30
0.0
 11
188.899836
 21
317.843596
 31
0.0
  0
LINE
  8
17
  5
59B
 10
188.899836
 20
301.807067
 30
0.0
 11
188.899836
 21
321.852729
 31
0.0
  0
ARC
  8
15
  5
59C
 10
189.572869
 20
330.873277
 30
0.0
 40
2.004566
 50
270.0
 51
315.0
  0
LINE
  8
17
  5
59D
 10
206.139105
 20
305.816199
 30
0.0
 11
206.139105
 21
317.843596
 31
0.0
  0
LINE
  8
0C
  5
59E
 10
391.275327
 20
294.4904
 30
0.0
 11
369.225099
 21
294.4904
 31
0.0
  0
CIRCLE
  8
0D
  5
59F
 10
380.250213
 20
311.829898
 30
0.0
 40
10.523973
  0
CIRCLE
  8
0D
  5
5A0
 10
380.250213
 20
311.829898
 30
0.0
 40
13.02968
  0
LINE
  8
0C
  5
5A1
 10
395.284459
 20
296.795651
 30
0.0
 11
365.217971
 21
296.795651
 31
0.0
  0
LINE
  8
0B
  5
5A2
 10
366.235789
 20
286.77282
 30
0.0
 11
399.544162
 21
286.77282
 31
0.0
  0
LINE
  8
0B
  5
5A3
 10
366.235789
 20
286.77282
 30
0.0
 11
399.544162
 21
286.77282
 31
0.0
  0
LINE
  8
0C
  5
5A4
 10
365.217971
 20
296.795651
 30
0.0
 11
365.217971
 21
327.691028
 31
0.0
  0
LINE
  8
0C
  5
5A5
 10
369.225099
 20
296.795651
 30
0.0
 11
369.225099
 21
294.4904
 31
0.0
  0
ARC
  8
0B
  5
5A6
 10
366.220254
 20
290.781953
 30
0.0
 40
4.009132
 50
180.0
 51
270.0
  0
ARC
  8
0B
  5
5A7
 10
366.220254
 20
290.781953
 30
0.0
 40
4.009132
 50
180.0
 51
270.0
  0
ARC
  8
0C
  5
5A8
 10
367.222537
 20
327.691028
 30
0.0
 40
2.004566
 50
140.0
 51
180.0
  0
LINE
  8
0C
  5
5A9
 10
421.34382
 20
326.864144
 30
0.0
 11
395.284459
 21
326.864144
 31
0.0
  0
LINE
  8
0C
  5
5AA
 10
421.34382
 20
328.868711
 30
0.0
 11
395.284459
 21
328.868711
 31
0.0
  0
ARC
  8
0B
  5
5AB
 10
406.309573
 20
296.795651
 30
0.0
 40
4.760845
 50
0.0
 51
90.0
  0
ARC
  8
0B
  5
5AC
 10
406.309573
 20
296.795651
 30
0.0
 40
4.760845
 50
0.0
 51
90.0
  0
LINE
  8
0C
  5
5AD
 10
395.284459
 20
314.736519
 30
0.0
 11
419.339254
 21
314.736519
 31
0.0
  0
LINE
  8
10
  6
CENTER
  5
5AE
 10
406.309573
 20
304.563345
 30
0.0
 11
406.309573
 21
299.9779
 31
0.0
  0
LINE
  8
0C
  5
5AF
 10
395.284459
 20
296.795651
 30
0.0
 11
395.284459
 21
329.229533
 31
0.0
  0
ARC
  8
0B
  5
5B0
 10
406.309573
 20
296.795651
 30
0.0
 40
4.760845
 50
90.0
 51
180.0
  0
ARC
  8
0B
  5
5B1
 10
406.309573
 20
296.795651
 30
0.0
 40
4.760845
 50
90.0
 51
180.0
  0
LINE
  8
0C
  5
5B2
 10
385.261628
 20
294.4904
 30
0.0
 11
385.261628
 21
286.77282
 31
0.0
  0
LINE
  8
10
  6
CENTER
  5
5B3
 10
406.309573
 20
293.613403
 30
0.0
 11
406.309573
 21
282.362775
 31
0.0
  0
LINE
  8
10
  6
CENTER
  5
5B4
 10
403.127325
 20
296.795651
 30
0.0
 11
398.541879
 21
296.795651
 31
0.0
  0
LINE
  8
0C
  5
5B5
 10
391.275327
 20
294.4904
 30
0.0
 11
391.275327
 21
296.795651
 31
0.0
  0
LINE
  8
0C
  5
5B6
 10
389.270761
 20
286.77282
 30
0.0
 11
389.270761
 21
294.4904
 31
0.0
  0
LINE
  8
10
  6
CENTER
  5
5B7
 10
407.903204
 20
296.795651
 30
0.0
 11
404.720955
 21
296.795651
 31
0.0
  0
LINE
  8
10
  6
CENTER
  5
5B8
 10
406.309573
 20
298.389282
 30
0.0
 11
406.309573
 21
295.207033
 31
0.0
  0
ARC
  8
0B
  5
5B9
 10
399.544162
 20
288.777387
 30
0.0
 40
2.004566
 50
270.0
 51
0.0
  0
ARC
  8
0B
  5
5BA
 10
399.544162
 20
288.777387
 30
0.0
 40
2.004566
 50
270.0
 51
0.0
  0
LINE
  8
0B
  5
5BB
 10
401.548729
 20
296.795651
 30
0.0
 11
401.548729
 21
288.777387
 31
0.0
  0
LINE
  8
0B
  5
5BC
 10
401.548729
 20
296.795651
 30
0.0
 11
401.548729
 21
288.777387
 31
0.0
  0
LINE
  8
0D
  5
5BD
 10
389.270761
 20
317.036759
 30
0.0
 11
380.250213
 21
321.852729
 31
0.0
  0
LINE
  8
0D
  5
5BE
 10
380.250213
 20
301.807067
 30
0.0
 11
389.270761
 21
306.623037
 31
0.0
  0
LINE
  8
0D
  5
5BF
 10
371.229665
 20
306.623037
 30
0.0
 11
371.229665
 21
317.036759
 31
0.0
  0
CIRCLE
  8
0D
  5
5C0
 10
380.250213
 20
311.829898
 30
0.0
 40
6.013699
  0
LINE
  8
0D
  5
5C1
 10
380.250213
 20
301.807067
 30
0.0
 11
371.229665
 21
306.623037
 31
0.0
  0
LINE
  8
0D
  5
5C2
 10
379.202827
 20
321.296462
 30
0.0
 11
380.250213
 21
321.852729
 31
0.0
  0
LINE
  8
0D
  5
5C3
 10
371.229665
 20
317.036759
 30
0.0
 11
372.973637
 21
317.968882
 31
0.0
  0
LINE
  8
0D
  5
5C4
 10
372.973637
 20
317.968882
 30
0.0
 11
379.202827
 21
321.296462
 31
0.0
  0
LINE
  8
0D
  5
5C5
 10
389.270761
 20
306.623037
 30
0.0
 11
389.270761
 21
317.036759
 31
0.0
  0
ARC
  8
0C
  5
5C6
 10
397.289025
 20
329.229533
 30
0.0
 40
2.004566
 50
140.0
 51
180.0
  0
LINE
  8
0B
  5
5C7
 10
413.074984
 20
286.77282
 30
0.0
 11
436.378066
 21
286.77282
 31
0.0
  0
LINE
  8
0B
  5
5C8
 10
413.074984
 20
286.77282
 30
0.0
 11
436.378066
 21
286.77282
 31
0.0
  0
LINE
  8
10
  6
CENTER
  5
5C9
 10
414.077267
 20
296.795651
 30
0.0
 11
409.491822
 21
296.795651
 31
0.0
  0
ARC
  8
0B
  5
5CA
 10
413.074984
 20
288.777387
 30
0.0
 40
2.004566
 50
180.0
 51
270.0
  0
ARC
  8
0B
  5
5CB
 10
413.074984
 20
288.777387
 30
0.0
 40
2.004566
 50
180.0
 51
270.0
  0
LINE
  8
0B
  5
5CC
 10
411.070418
 20
296.795651
 30
0.0
 11
411.070418
 21
288.777387
 31
0.0
  0
LINE
  8
0B
  5
5CD
 10
411.070418
 20
296.795651
 30
0.0
 11
411.070418
 21
288.777387
 31
0.0
  0
LINE
  8
0C
  5
5CE
 10
425.352952
 20
296.795651
 30
0.0
 11
425.352952
 21
294.4904
 31
0.0
  0
ARC
  8
0C
  5
5CF
 10
425.352952
 20
288.777387
 30
0.0
 40
2.004566
 50
180.0
 51
270.0
  0
ARC
  8
0C
  5
5D0
 10
425.352952
 20
288.777387
 30
0.0
 40
2.004566
 50
180.0
 51
270.0
  0
LINE
  8
0C
  5
5D1
 10
423.348386
 20
296.795651
 30
0.0
 11
423.348386
 21
288.777387
 31
0.0
  0
LINE
  8
0C
  5
5D2
 10
423.348386
 20
296.795651
 30
0.0
 11
423.348386
 21
288.777387
 31
0.0
  0
ARC
  8
0C
  5
5D3
 10
436.378066
 20
296.795651
 30
0.0
 40
2.756279
 50
236.758
 51
303.242
  0
ARC
  8
0C
  5
5D4
 10
419.339254
 20
310.727386
 30
0.0
 40
4.009132
 50
59.9999
 51
90.0
  0
ARC
  8
0C
  5
5D5
 10
419.339254
 20
310.727386
 30
0.0
 40
4.009132
 50
59.9999
 51
90.0
  0
ARC
  8
0C
  5
5D6
 10
415.831263
 20
330.873277
 30
0.0
 40
2.004566
 50
270.0
 51
0.0
  0
ARC
  8
0C
  5
5D7
 10
415.731035
 20
329.670537
 30
0.0
 40
0.801826
 50
210.0
 51
270.0
  0
ARC
  8
0C
  5
5D8
 10
411.82213
 20
330.873277
 30
0.0
 40
2.004566
 50
180.0
 51
271.755
  0
ARC
  8
0C
  5
5D9
 10
411.922359
 20
329.670537
 30
0.0
 40
0.801826
 50
267.224
 51
330.0
  0
ARC
  8
0C
  5
5DA
 10
413.826697
 20
329.359829
 30
0.0
 40
1.002283
 50
30.0
 51
150.0
  0
LINE
  8
0C
  5
5DB
 10
411.922359
 20
328.868711
 30
0.0
 11
411.82213
 21
328.868711
 31
0.0
  0
LINE
  8
0C
  5
5DC
 10
415.831263
 20
328.868711
 30
0.0
 11
415.731035
 21
328.868711
 31
0.0
  0
LINE
  8
0C
  5
5DD
 10
415.039459
 20
329.269624
 30
0.0
 11
414.698683
 21
329.860971
 31
0.0
  0
LINE
  8
0C
  5
5DE
 10
412.618945
 20
329.269624
 30
0.0
 11
412.959722
 21
329.860971
 31
0.0
  0
LINE
  8
0D
  5
5DF
 10
427.357518
 20
306.623037
 30
0.0
 11
427.357518
 21
317.036759
 31
0.0
  0
CIRCLE
  8
0D
  5
5E0
 10
436.378066
 20
311.829898
 30
0.0
 40
6.013699
  0
LINE
  8
0D
  5
5E1
 10
436.378066
 20
301.807067
 30
0.0
 11
427.357518
 21
306.623037
 31
0.0
  0
LINE
  8
0D
  5
5E2
 10
435.330681
 20
321.296462
 30
0.0
 11
436.378066
 21
321.852729
 31
0.0
  0
LINE
  8
0D
  5
5E3
 10
427.357518
 20
317.036759
 30
0.0
 11
429.101491
 21
317.968882
 31
0.0
  0
LINE
  8
0D
  5
5E4
 10
429.101491
 20
317.968882
 30
0.0
 11
435.330681
 21
321.296462
 31
0.0
  0
LINE
  8
1A
  6
CENTER
  5
5E5
 10
256.573991
 20
407.046792
 30
0.0
 11
27.259135
 21
407.046792
 31
0.0
  0
DIMENSION
  8
FF
  5
5E6
  2
*D3
 10
42.666732
 20
595.035011
 30
0.0
 11
140.389334
 21
601.701711
 31
0.0
  1
195
 13
238.111936
 23
467.68492
 33
0.0
 14
42.666732
 24
526.819623
 34
0.0
 50
180.0
  3
FSTD1
  0
DIMENSION
  8
FF
  5
5E7
  2
*D4
 10
42.666732
 20
572.097762
 30
0.0
 11
108.516731
 21
578.764462
 31
0.0
  1
132
 13
174.366731
 23
517.297933
 33
0.0
 14
42.666732
 24
526.819623
 34
0.0
 50
180.0
  3
FSTD1
  0
ARC
  8
16
  5
5E8
 10
145.186261
 20
484.222591
 30
0.0
 40
1.002283
 50
45.0
 51
90.0
  0
LINE
  8
15
  5
5E9
 10
95.988193
 20
485.224874
 30
0.0
 11
166.849608
 21
485.224874
 31
0.0
  0
LINE
  8
16
  5
5EA
 10
155.330368
 20
475.497717
 30
0.0
 11
145.894875
 21
484.934212
 31
0.0
  0
ARC
  8
17
  5
5EB
 10
58.853604
 20
455.156381
 30
0.0
 40
11.526256
 50
343.2
 51
16.8
  0
LINE
  8
17
  5
5EC
 10
66.921983
 20
459.666655
 30
0.0
 11
66.921983
 21
450.646107
 31
0.0
  0
LINE
  8
17
  5
5ED
 10
65.619015
 20
456.309007
 30
0.0
 11
66.921983
 21
455.006039
 31
0.0
  0
LINE
  8
17
  5
5EE
 10
66.921983
 20
450.896678
 30
0.0
 11
66.921983
 21
459.416084
 31
0.0
  0
LINE
  8
17
  5
5EF
 10
65.619015
 20
459.416084
 30
0.0
 11
65.619015
 21
450.896678
 31
0.0
  0
LINE
  8
17
  5
5F0
 10
65.619015
 20
450.144966
 30
0.0
 11
65.619015
 21
460.167797
 31
0.0
  0
LINE
  8
17
  5
5F1
 10
64.817188
 20
460.167797
 30
0.0
 11
64.817188
 21
450.144966
 31
0.0
  0
LINE
  8
16
  5
5F2
 10
59.805773
 20
467.935491
 30
0.0
 11
59.805773
 21
442.377272
 31
0.0
  0
LINE
  8
16
  5
5F3
 10
64.817188
 20
468.937774
 30
0.0
 11
64.817188
 21
441.374989
 31
0.0
  0
LINE
  8
16
  5
5F4
 10
94.985909
 20
484.222591
 30
0.0
 11
94.985909
 21
407.046792
 31
0.0
  0
LINE
  8
15
  5
5F5
 10
43.167873
 20
407.046792
 30
0.0
 11
43.167873
 21
504.268253
 31
0.0
  0
LINE
  8
16
  5
5F6
 10
94.985909
 20
451.372762
 30
0.0
 11
69.683774
 21
451.372762
 31
0.0
  0
LINE
  8
16
  5
5F7
 10
93.983626
 20
444.381838
 30
0.0
 11
68.826321
 21
444.381838
 31
0.0
  0
LINE
  8
16
  5
5F8
 10
60.808056
 20
345.155811
 30
0.0
 11
83.219106
 21
345.155811
 31
0.0
  0
LINE
  8
16
  5
5F9
 10
93.983626
 20
369.711747
 30
0.0
 11
68.826321
 21
369.711747
 31
0.0
  0
LINE
  8
16
  5
5FA
 10
94.985909
 20
362.720822
 30
0.0
 11
69.683774
 21
362.720822
 31
0.0
  0
LINE
  8
16
  5
5FB
 10
94.985909
 20
355.153585
 30
0.0
 11
69.683774
 21
355.153585
 31
0.0
  0
LINE
  8
16
  5
5FC
 10
83.219106
 20
348.16266
 30
0.0
 11
68.826321
 21
348.16266
 31
0.0
  0
LINE
  8
16
  5
5FD
 10
63.814905
 20
407.046792
 30
0.0
 11
63.814905
 21
372.718596
 31
0.0
  0
LINE
  8
16
  5
5FE
 10
63.313763
 20
372.718596
 30
0.0
 11
63.313763
 21
407.046792
 31
0.0
  0
ARC
  8
17
  5
5FF
 10
68.341215
 20
361.843825
 30
0.0
 40
1.603653
 50
17.0334
 51
90.0
  0
LINE
  8
17
  5
600
 10
64.817188
 20
353.925788
 30
0.0
 11
64.817188
 21
363.948619
 31
0.0
  0
LINE
  8
17
  5
601
 10
65.619015
 20
363.948619
 30
0.0
 11
65.619015
 21
353.925788
 31
0.0
  0
LINE
  8
17
  5
602
 10
65.619015
 20
354.6775
 30
0.0
 11
65.619015
 21
363.196907
 31
0.0
  0
LINE
  8
17
  5
603
 10
66.921983
 20
363.196907
 30
0.0
 11
66.921983
 21
354.6775
 31
0.0
  0
LINE
  8
17
  5
604
 10
66.921983
 20
354.42693
 30
0.0
 11
66.921983
 21
363.447478
 31
0.0
  0
LINE
  8
16
  5
605
 10
59.805773
 20
346.158094
 30
0.0
 11
59.805773
 21
371.716313
 31
0.0
  0
LINE
  8
16
  5
606
 10
64.817188
 20
345.155811
 30
0.0
 11
64.817188
 21
372.718596
 31
0.0
  0
ARC
  8
16
  5
607
 10
68.826321
 20
352.171793
 30
0.0
 40
4.009132
 50
180.0
 51
270.0
  0
ARC
  8
16
  5
608
 10
60.808056
 20
346.158094
 30
0.0
 40
1.002283
 50
180.0
 51
270.0
  0
ARC
  8
17
  5
609
 10
58.853604
 20
358.937204
 30
0.0
 40
11.526256
 50
343.2
 51
16.8
  0
ARC
  8
17
  5
60A
 10
68.341215
 20
356.030583
 30
0.0
 40
1.603653
 50
270.0
 51
342.967
  0
LINE
  8
17
  5
60B
 10
65.619015
 20
353.925788
 30
0.0
 11
64.817188
 21
353.925788
 31
0.0
  0
LINE
  8
17
  5
60C
 10
65.619015
 20
357.784578
 30
0.0
 11
66.921983
 21
359.087546
 31
0.0
  0
LINE
  8
17
  5
60D
 10
66.921983
 20
354.6775
 30
0.0
 11
65.619015
 21
354.6775
 31
0.0
  0
LINE
  8
17
  5
60E
 10
65.619015
 20
358.786861
 30
0.0
 11
66.921983
 21
360.089829
 31
0.0
  0
LINE
  8
17
  5
60F
 10
68.341215
 20
354.42693
 30
0.0
 11
66.921983
 21
354.42693
 31
0.0
  0
LINE
  8
16
  5
610
 10
60.808056
 20
372.718596
 30
0.0
 11
67.958343
 21
372.718596
 31
0.0
  0
ARC
  8
16
  5
611
 10
60.808056
 20
371.716313
 30
0.0
 40
1.002283
 50
90.0
 51
180.0
  0
LINE
  8
17
  5
612
 10
66.921983
 20
363.447478
 30
0.0
 11
68.341215
 21
363.447478
 31
0.0
  0
LINE
  8
17
  5
613
 10
64.817188
 20
363.948619
 30
0.0
 11
65.619015
 21
363.948619
 31
0.0
  0
LINE
  8
17
  5
614
 10
65.619015
 20
363.196907
 30
0.0
 11
66.921983
 21
363.196907
 31
0.0
  0
ARC
  8
16
  5
615
 10
68.826321
 20
365.702615
 30
0.0
 40
4.009132
 50
90.0
 51
180.0
  0
LINE
  8
16
  5
616
 10
67.958343
 20
370.157763
 30
0.0
 11
67.958343
 21
372.027021
 31
0.0
  0
LINE
  8
16
  5
617
 10
63.814905
 20
407.046792
 30
0.0
 11
63.814905
 21
441.374989
 31
0.0
  0
LINE
  8
16
  5
618
 10
63.313763
 20
407.046792
 30
0.0
 11
63.313763
 21
441.374989
 31
0.0
  0
LINE
  8
16
  5
619
 10
60.808056
 20
441.374989
 30
0.0
 11
67.958343
 21
441.374989
 31
0.0
  0
ARC
  8
16
  5
61A
 10
60.808056
 20
442.377272
 30
0.0
 40
1.002283
 50
180.0
 51
270.0
  0
ARC
  8
17
  5
61B
 10
68.341215
 20
452.24976
 30
0.0
 40
1.603653
 50
270.0
 51
342.967
  0
LINE
  8
17
  5
61C
 10
65.619015
 20
455.306724
 30
0.0
 11
66.921983
 21
454.003756
 31
0.0
  0
LINE
  8
17
  5
61D
 10
65.619015
 20
450.896678
 30
0.0
 11
66.921983
 21
450.896678
 31
0.0
  0
LINE
  8
17
  5
61E
 10
64.817188
 20
450.144966
 30
0.0
 11
65.619015
 21
450.144966
 31
0.0
  0
LINE
  8
17
  5
61F
 10
66.921983
 20
450.646107
 30
0.0
 11
68.341215
 21
450.646107
 31
0.0
  0
ARC
  8
16
  5
620
 10
68.826321
 20
448.39097
 30
0.0
 40
4.009132
 50
180.0
 51
270.0
  0
LINE
  8
16
  5
621
 10
67.958343
 20
443.935822
 30
0.0
 11
67.958343
 21
442.066564
 31
0.0
  0
CIRCLE
  8
16
  5
622
 10
114.730886
 20
392.764258
 30
0.0
 40
1.603653
  0
CIRCLE
  8
16
  5
623
 10
114.730886
 20
392.764258
 30
0.0
 40
2.104795
  0
LINE
  8
16
  5
624
 10
96.489334
 20
375.77556
 30
0.0
 11
96.489334
 21
407.046792
 31
0.0
  0
LINE
  8
16
  5
625
 10
143.997553
 20
383.994281
 30
0.0
 11
143.997553
 21
407.046792
 31
0.0
  0
LINE
  8
16
  5
626
 10
121.058801
 20
374.773277
 30
0.0
 11
97.491617
 21
374.773277
 31
0.0
  0
LINE
  8
16
  5
627
 10
83.219106
 20
347.481108
 30
0.0
 11
83.219106
 21
345.752169
 31
0.0
  0
ARC
  8
16
  5
628
 10
97.491617
 20
375.77556
 30
0.0
 40
1.002283
 50
180.0
 51
270.0
  0
ARC
  8
16
  5
629
 10
93.983626
 20
370.71403
 30
0.0
 40
1.002283
 50
270.0
 51
0.0
  0
LINE
  8
16
  5
62A
 10
142.99527
 20
382.991998
 30
0.0
 11
123.951891
 21
382.991998
 31
0.0
  0
LINE
  8
16
  5
62B
 10
123.951891
 20
382.991998
 30
0.0
 11
123.951891
 21
378.316347
 31
0.0
  0
ARC
  8
16
  5
62C
 10
121.058801
 20
376.777843
 30
0.0
 40
2.004566
 50
270.0
 51
330.0
  0
ARC
  8
16
  5
62D
 10
121.947325
 20
378.316347
 30
0.0
 40
2.004566
 50
330.0
 51
0.000003
  0
LINE
  8
16
  5
62E
 10
123.683279
 20
377.314064
 30
0.0
 11
122.794755
 21
375.77556
 31
0.0
  0
ARC
  8
16
  5
62F
 10
142.99527
 20
383.994281
 30
0.0
 40
1.002283
 50
270.0
 51
0.000003
  0
LINE
  8
16
  5
630
 10
121.058801
 20
439.320308
 30
0.0
 11
97.491617
 21
439.320308
 31
0.0
  0
LINE
  8
16
  5
631
 10
96.489334
 20
438.318025
 30
0.0
 11
96.489334
 21
407.046792
 31
0.0
  0
ARC
  8
16
  5
632
 10
97.491617
 20
438.318025
 30
0.0
 40
1.002283
 50
90.0
 51
180.0
  0
ARC
  8
16
  5
633
 10
93.983626
 20
443.379555
 30
0.0
 40
1.002283
 50
0.0
 51
90.0
  0
LINE
  8
16
  5
634
 10
143.997553
 20
430.099304
 30
0.0
 11
143.997553
 21
407.046792
 31
0.0
  0
LINE
  8
16
  5
635
 10
117.537279
 20
409.652728
 30
0.0
 11
142.99527
 21
409.652728
 31
0.0
  0
LINE
  8
16
  5
636
 10
117.537279
 20
404.440856
 30
0.0
 11
142.99527
 21
404.440856
 31
0.0
  0
LINE
  8
16
  5
637
 10
117.537279
 20
407.046792
 30
0.0
 11
117.537279
 21
409.652728
 31
0.0
  0
LINE
  8
16
  5
638
 10
117.537279
 20
407.046792
 30
0.0
 11
117.537279
 21
404.440856
 31
0.0
  0
CIRCLE
  8
16
  5
639
 10
114.730886
 20
421.329327
 30
0.0
 40
1.603653
  0
CIRCLE
  8
16
  5
63A
 10
114.730886
 20
421.329327
 30
0.0
 40
2.104795
  0
LINE
  8
16
  5
63B
 10
142.99527
 20
407.046792
 30
0.0
 11
142.99527
 21
409.652728
 31
0.0
  0
LINE
  8
16
  5
63C
 10
142.99527
 20
407.046792
 30
0.0
 11
142.99527
 21
404.440856
 31
0.0
  0
LINE
  8
16
  5
63D
 10
142.99527
 20
431.101587
 30
0.0
 11
123.951891
 21
431.101587
 31
0.0
  0
ARC
  8
16
  5
63E
 10
121.947325
 20
435.777237
 30
0.0
 40
2.004566
 50
0.0
 51
30.0
  0
ARC
  8
16
  5
63F
 10
121.058801
 20
437.315742
 30
0.0
 40
2.004566
 50
30.0
 51
90.0
  0
LINE
  8
16
  5
640
 10
123.951891
 20
431.101587
 30
0.0
 11
123.951891
 21
435.777237
 31
0.0
  0
LINE
  8
16
  5
641
 10
123.683279
 20
436.779521
 30
0.0
 11
122.794755
 21
438.318025
 31
0.0
  0
ARC
  8
16
  5
642
 10
142.99527
 20
430.099304
 30
0.0
 40
1.002283
 50
0.0
 51
90.0
  0
LINE
  8
16
  5
643
 10
67.441165
 20
485.224874
 30
0.0
 11
95.988193
 21
485.224874
 31
0.0
  0
DIMENSION
  8
FF
  5
645
  2
*D11
 10
42.666732
 20
548.248436
 30
0.0
 11
13.333365
 21
554.915136
 31
0.0
  1
14.5
 13
57.199837
 23
525.316198
 33
0.0
 14
42.666732
 24
526.819623
 34
0.0
 50
180.0
  3
FSTD2
  0
LINE
  8
15
  5
646
 10
92.981343
 20
498.855924
 30
0.0
 11
66.379246
 21
498.855924
 31
0.0
  0
LINE
  8
16
  5
647
 10
83.219106
 20
465.930925
 30
0.0
 11
68.826321
 21
465.930925
 31
0.0
  0
LINE
  8
16
  5
648
 10
94.985909
 20
458.94
 30
0.0
 11
69.683774
 21
458.94
 31
0.0
  0
LINE
  8
16
  5
649
 10
60.808056
 20
468.937774
 30
0.0
 11
83.219106
 21
468.937774
 31
0.0
  0
LINE
  8
16
  6
DASHED
  5
64A
 10
57.199837
 20
525.316198
 30
0.0
 11
57.199837
 21
500.359349
 31
0.0
  0
LINE
  8
15
  5
64B
 10
63.300734
 20
525.546723
 30
0.0
 11
66.379246
 21
498.855924
 31
0.0
  0
LINE
  8
15
  5
64C
 10
42.666732
 20
526.819623
 30
0.0
 11
42.666732
 21
506.272819
 31
0.0
  0
LINE
  8
16
  5
64D
 10
63.313763
 20
525.316198
 30
0.0
 11
63.313763
 21
468.937774
 31
0.0
  0
LINE
  8
16
  5
64F
 10
66.544623
 20
485.781141
 30
0.0
 11
65.819471
 21
487.22944
 31
0.0
  0
LINE
  8
16
  5
650
 10
65.819471
 20
487.22944
 30
0.0
 11
65.819471
 21
468.937774
 31
0.0
  0
LINE
  8
16
  5
651
 10
63.814905
 20
468.937774
 30
0.0
 11
63.814905
 21
498.855924
 31
0.0
  0
LINE
  8
16
  5
652
 10
66.821754
 20
484.753801
 30
0.0
 11
66.821754
 21
468.937774
 31
0.0
  0
ARC
  8
16
  5
653
 10
60.808056
 20
467.935491
 30
0.0
 40
1.002283
 50
90.0
 51
180.0
  0
ARC
  8
17
  5
654
 10
68.341215
 20
458.063002
 30
0.0
 40
1.603653
 50
17.0334
 51
90.0
  0
LINE
  8
17
  5
655
 10
68.341215
 20
459.666655
 30
0.0
 11
66.921983
 21
459.666655
 31
0.0
  0
LINE
  8
17
  5
656
 10
66.921983
 20
459.416084
 30
0.0
 11
65.619015
 21
459.416084
 31
0.0
  0
LINE
  8
17
  5
657
 10
65.619015
 20
460.167797
 30
0.0
 11
64.817188
 21
460.167797
 31
0.0
  0
ARC
  8
16
  5
658
 10
68.826321
 20
461.921792
 30
0.0
 40
4.009132
 50
90.0
 51
180.0
  0
ARC
  8
16
  5
659
 10
67.441165
 20
486.227157
 30
0.0
 40
1.002283
 50
206.565
 51
270.0
  0
ARC
  8
15
  5
65B
 10
43.167873
 20
504.769395
 30
0.0
 40
0.501142
 50
180.0
 51
270.0
  0
ARC
  8
16
  5
65C
 10
43.167873
 20
506.573504
 30
0.0
 40
0.501142
 50
180.0
 51
270.0
  0
LINE
  8
15
  5
65D
 10
42.666732
 20
506.272819
 30
0.0
 11
42.666732
 21
504.769395
 31
0.0
  0
LINE
  8
16
  5
65E
 10
43.167873
 20
504.268253
 30
0.0
 11
43.167873
 21
510.081495
 31
0.0
  0
ARC
  8
16
  5
65F
 10
61.309197
 20
497.3525
 30
0.0
 40
2.004566
 50
0.0
 51
90.0
  0
ARC
  8
16
  5
660
 10
58.20212
 20
500.359349
 30
0.0
 40
1.002283
 50
180.0
 51
270.0
  0
LINE
  8
16
  6
DASHED
  5
661
 10
61.309197
 20
499.357066
 30
0.0
 11
58.20212
 21
499.357066
 31
0.0
  0
LINE
  8
16
  5
662
 10
63.814905
 20
498.855924
 30
0.0
 11
66.379246
 21
498.855924
 31
0.0
  0
LINE
  8
16
  5
663
 10
65.819471
 20
487.22944
 30
0.0
 11
63.814905
 21
487.22944
 31
0.0
  0
LINE
  8
15
  5
664
 10
61.309197
 20
527.320764
 30
0.0
 11
43.167873
 21
527.320764
 31
0.0
  0
ARC
  8
15
  5
665
 10
43.167873
 20
526.819623
 30
0.0
 40
0.501142
 50
90.0
 51
180.0
  0
LINE
  8
16
  5
666
 10
43.167873
 20
527.320764
 30
0.0
 11
43.167873
 21
523.311632
 31
0.0
  0
ARC
  8
15
  5
667
 10
61.309197
 20
525.316198
 30
0.0
 40
2.004566
 50
0.0
 51
90.0
  0
ARC
  8
16
  5
668
 10
55.19527
 20
525.316198
 30
0.0
 40
2.004566
 50
0.0
 51
90.0
  0
LINE
  8
15
  5
669
 10
94.985909
 20
486.227157
 30
0.0
 11
94.985909
 21
496.851358
 31
0.0
  0
LINE
  8
16
  5
66A
 10
83.219106
 20
466.612477
 30
0.0
 11
83.219106
 21
468.341415
 31
0.0
  0
ARC
  8
15
  5
66B
 10
95.988193
 20
486.227157
 30
0.0
 40
1.002283
 50
180.0
 51
270.0
  0
ARC
  8
16
  5
66C
 10
93.983626
 20
484.222591
 30
0.0
 40
1.002283
 50
0.0
 51
90.0
  0
ARC
  8
15
  5
66D
 10
92.981343
 20
496.851358
 30
0.0
 40
2.004566
 50
0.0
 51
90.0
  0
LINE
  8
FF
  5
66E
 10
371.359962
 20
511.785376
 30
0.0
 11
310.004199
 21
580.44678
 31
0.0
  0
LINE
  8
FF
  5
66F
 10
308.993898
 20
489.133778
 30
0.0
 11
264.662917
 21
489.133778
 31
0.0
  0
TEXT
  8
FF
  5
670
 10
263.83453
 20
506.894235
 30
0.0
 40
10.022831
  1
補助端子
 41
0.833333
  0
LINE
  8
16
  5
671
 10
233.501434
 20
474.700902
 30
0.0
 11
233.501434
 21
407.046792
 31
0.0
  0
LINE
  8
15
  5
672
 10
238.111936
 20
467.68492
 30
0.0
 11
238.111936
 21
407.297363
 31
0.0
  0
LINE
  8
16
  5
673
 10
233.501434
 20
474.700902
 30
0.0
 11
233.501434
 21
339.392683
 31
0.0
  0
LINE
  8
16
  5
674
 10
174.867872
 20
407.046792
 30
0.0
 11
174.867872
 21
480.7146
 31
0.0
  0
LINE
  8
16
  5
675
 10
157.628603
 20
407.046792
 30
0.0
 11
157.628603
 21
475.202043
 31
0.0
  0
LINE
  8
16
  5
676
 10
174.867872
 20
478.208892
 30
0.0
 11
174.867872
 21
407.046792
 31
0.0
  0
LINE
  8
15
  5
677
 10
233.501434
 20
339.392683
 30
0.0
 11
201.466865
 21
339.116982
 31
0.0
  0
LINE
  8
16
  5
678
 10
233.501434
 20
416.06734
 30
0.0
 11
174.867872
 21
416.568482
 31
0.0
  0
LINE
  8
16
  5
679
 10
233.501434
 20
398.026244
 30
0.0
 11
174.867872
 21
397.525103
 31
0.0
  0
LINE
  8
16
  5
67A
 10
174.867872
 20
407.046792
 30
0.0
 11
174.867872
 21
333.378985
 31
0.0
  0
LINE
  8
16
  5
67B
 10
157.628603
 20
407.046792
 30
0.0
 11
157.628603
 21
338.891542
 31
0.0
  0
LINE
  8
16
  5
67C
 10
174.867872
 20
335.884692
 30
0.0
 11
174.867872
 21
407.046792
 31
0.0
  0
LINE
  8
16
  5
67D
 10
174.867872
 20
338.891542
 30
0.0
 11
201.466865
 21
339.116982
 31
0.0
  0
LINE
  8
16
  5
67E
 10
174.867872
 20
338.891542
 30
0.0
 11
156.039483
 21
338.891542
 31
0.0
  0
ARC
  8
16
  5
67F
 10
156.039483
 20
337.889258
 30
0.0
 40
1.002283
 50
90.0
 51
135.0
  0
LINE
  8
16
  5
680
 10
167.350749
 20
342.900674
 30
0.0
 11
174.867872
 21
342.900674
 31
0.0
  0
LINE
  8
16
  5
681
 10
174.867872
 20
333.880126
 30
0.0
 11
168.854174
 21
333.880126
 31
0.0
  0
LINE
  8
16
  5
682
 10
167.350749
 20
338.891542
 30
0.0
 11
167.350749
 21
342.900674
 31
0.0
  0
ARC
  8
16
  5
683
 10
174.366731
 20
333.378985
 30
0.0
 40
0.501142
 50
270.0
 51
0.0
  0
ARC
  8
15
  5
684
 10
201.484001
 20
337.112489
 30
0.0
 40
2.004566
 50
90.4898
 51
135.0
  0
ARC
  8
16
  5
685
 10
164.845041
 20
408.800788
 30
0.0
 40
0.501142
 50
180.0
 51
270.0
  0
ARC
  8
16
  5
686
 10
164.845041
 20
405.292797
 30
0.0
 40
0.501142
 50
90.0
 51
180.0
  0
LINE
  8
16
  5
687
 10
174.867872
 20
416.568482
 30
0.0
 11
158.630886
 21
416.568482
 31
0.0
  0
LINE
  8
16
  5
688
 10
174.867872
 20
397.525103
 30
0.0
 11
158.630886
 21
397.525103
 31
0.0
  0
LINE
  8
16
  5
689
 10
164.3439
 20
413.060491
 30
0.0
 11
164.3439
 21
408.800788
 31
0.0
  0
ARC
  8
16
  5
68A
 10
158.630886
 20
398.527386
 30
0.0
 40
1.002283
 50
180.0
 51
270.0
  0
LINE
  8
16
  5
68B
 10
164.3439
 20
401.033094
 30
0.0
 11
157.628603
 21
401.033094
 31
0.0
  0
LINE
  8
16
  5
68C
 10
164.3439
 20
401.033094
 30
0.0
 11
164.3439
 21
405.292797
 31
0.0
  0
ARC
  8
16
  5
68D
 10
158.630886
 20
415.566199
 30
0.0
 40
1.002283
 50
90.0
 51
180.0
  0
LINE
  8
16
  5
68E
 10
164.3439
 20
413.060491
 30
0.0
 11
157.628603
 21
413.060491
 31
0.0
  0
ARC
  8
16
  5
68F
 10
164.845041
 20
407.297363
 30
0.0
 40
1.002283
 50
0.0
 51
90.0
  0
ARC
  8
16
  5
690
 10
164.845041
 20
406.796222
 30
0.0
 40
1.002283
 50
270.0
 51
0.0
  0
LINE
  8
16
  5
691
 10
165.847325
 20
407.046792
 30
0.0
 11
165.847325
 21
407.297363
 31
0.0
  0
LINE
  8
16
  5
692
 10
165.847325
 20
407.046792
 30
0.0
 11
165.847325
 21
406.796222
 31
0.0
  0
LINE
  8
16
  5
693
 10
233.501434
 20
339.392683
 30
0.0
 11
233.501434
 21
407.046792
 31
0.0
  0
LINE
  8
15
  5
694
 10
238.111936
 20
346.408665
 30
0.0
 11
238.111936
 21
407.297363
 31
0.0
  0
ARC
  8
15
  5
695
 10
235.511011
 20
340.575377
 30
0.0
 40
1.002283
 50
275.0
 51
345.0
  0
LINE
  8
15
  5
696
 10
238.111936
 20
346.408665
 30
0.0
 11
236.479217
 21
340.314784
 31
0.0
  0
LINE
  8
15
  5
697
 10
235.598711
 20
339.578106
 30
0.0
 11
233.501434
 21
339.392683
 31
0.0
  0
LINE
  8
16
  5
698
 10
238.111936
 20
398.457226
 30
0.0
 11
233.501434
 21
398.457226
 31
0.0
  0
LINE
  8
16
  5
699
 10
238.111936
 20
415.636359
 30
0.0
 11
233.501434
 21
415.636359
 31
0.0
  0
LINE
  8
15
  5
69A
 10
233.501434
 20
474.700902
 30
0.0
 11
201.466858
 21
474.976603
 31
0.0
  0
ARC
  8
15
  5
69B
 10
169.054631
 20
516.596335
 30
0.0
 40
3.006849
 50
90.0
 51
180.0
  0
LINE
  8
15
  5
69C
 10
172.362165
 20
517.297933
 30
0.0
 11
172.362165
 21
519.603185
 31
0.0
  0
LINE
  8
16
  5
69D
 10
174.867872
 20
475.202043
 30
0.0
 11
201.466858
 21
474.976603
 31
0.0
  0
LINE
  8
15
  5
69E
 10
189.572869
 20
485.224874
 30
0.0
 11
174.366731
 21
485.224874
 31
0.0
  0
LINE
  8
17
  5
69F
 10
179.979516
 20
492.240856
 30
0.0
 11
188.899836
 21
492.240856
 31
0.0
  0
LINE
  8
17
  5
6A0
 10
179.979516
 20
497.056826
 30
0.0
 11
188.899836
 21
497.056826
 31
0.0
  0
LINE
  8
17
  5
6A1
 10
179.979516
 20
507.470548
 30
0.0
 11
188.899836
 21
507.470548
 31
0.0
  0
LINE
  8
17
  5
6A2
 10
179.979516
 20
512.286518
 30
0.0
 11
188.899836
 21
512.286518
 31
0.0
  0
LINE
  8
15
  5
6A3
 10
168.353032
 20
484.548333
 30
0.0
 11
168.353032
 21
487.22944
 31
0.0
  0
LINE
  8
15
  5
6A4
 10
174.366731
 20
485.224874
 30
0.0
 11
174.366731
 21
517.297933
 31
0.0
  0
LINE
  8
16
  5
6A5
 10
174.867872
 20
475.202043
 30
0.0
 11
156.039483
 21
475.202043
 31
0.0
  0
ARC
  8
16
  5
6A6
 10
156.039483
 20
476.204326
 30
0.0
 40
1.002283
 50
225.0
 51
270.0
  0
LINE
  8
16
  5
6A7
 10
167.350749
 20
475.202043
 30
0.0
 11
167.350749
 21
471.192911
 31
0.0
  0
LINE
  8
16
  5
6A8
 10
167.350749
 20
471.192911
 30
0.0
 11
174.867872
 21
471.192911
 31
0.0
  0
LINE
  8
16
  5
6A9
 10
174.867872
 20
480.213459
 30
0.0
 11
168.854174
 21
480.213459
 31
0.0
  0
ARC
  8
15
  5
6AA
 10
166.849608
 20
483.220308
 30
0.0
 40
2.004566
 50
41.409622
 51
90.0
  0
ARC
  8
16
  5
6AB
 10
166.849608
 20
483.220308
 30
0.0
 40
2.004566
 50
0.0
 51
41.409622
  0
LINE
  8
16
  5
6AC
 10
168.854174
 20
483.220308
 30
0.0
 11
168.854174
 21
480.213459
 31
0.0
  0
LINE
  8
16
  5
6AD
 10
174.366731
 20
485.224874
 30
0.0
 11
174.366731
 21
480.213459
 31
0.0
  0
ARC
  8
16
  5
6AE
 10
174.366731
 20
480.7146
 30
0.0
 40
0.501142
 50
0.0
 51
90.0
  0
LINE
  8
15
  5
6AF
 10
157.027233
 20
513.288801
 30
0.0
 11
166.047781
 21
513.288801
 31
0.0
  0
LINE
  8
15
  5
6B0
 10
157.027233
 20
487.22944
 30
0.0
 11
168.353032
 21
487.22944
 31
0.0
  0
LINE
  8
15
  5
6B1
 10
157.027233
 20
513.288801
 30
0.0
 11
157.027233
 21
487.22944
 31
0.0
  0
LINE
  8
16
  5
6B2
 10
168.353032
 20
516.29565
 30
0.0
 11
168.353032
 21
487.22944
 31
0.0
  0
LINE
  8
17
  5
6B3
 10
174.366731
 20
515.293367
 30
0.0
 11
174.366731
 21
489.234007
 31
0.0
  0
LINE
  8
17
  5
6B4
 10
179.879288
 20
512.787659
 30
0.0
 11
179.879288
 21
501.261404
 31
0.0
  0
LINE
  8
17
  5
6B5
 10
176.872439
 20
504.268253
 30
0.0
 11
176.872439
 21
489.234007
 31
0.0
  0
LINE
  8
17
  5
6B6
 10
176.872439
 20
504.268253
 30
0.0
 11
179.879288
 21
501.261404
 31
0.0
  0
LINE
  8
17
  5
6B7
 10
179.879288
 20
499.843173
 30
0.0
 11
176.872439
 21
502.850023
 31
0.0
  0
LINE
  8
16
  5
6B8
 10
168.353032
 20
487.22944
 30
0.0
 11
168.353032
 21
517.297933
 31
0.0
  0
LINE
  8
17
  5
6B9
 10
179.879288
 20
501.261404
 30
0.0
 11
179.879288
 21
491.739714
 31
0.0
  0
LINE
  8
17
  5
6BA
 10
176.872439
 20
489.234007
 30
0.0
 11
174.366731
 21
489.234007
 31
0.0
  0
LINE
  8
17
  5
6BB
 10
179.879288
 20
491.739714
 30
0.0
 11
176.872439
 21
491.739714
 31
0.0
  0
LINE
  8
15
  5
6BC
 10
172.362165
 20
517.297933
 30
0.0
 11
174.366731
 21
517.297933
 31
0.0
  0
LINE
  8
16
  5
6BD
 10
166.047781
 20
513.288801
 30
0.0
 11
168.353032
 21
513.288801
 31
0.0
  0
ARC
  8
16
  5
6BE
 10
169.355315
 20
516.29565
 30
0.0
 40
1.002283
 50
90.0
 51
180.0
  0
ARC
  8
16
  5
6BF
 10
169.355315
 20
516.29565
 30
0.0
 40
1.002283
 50
90.0
 51
180.0
  0
LINE
  8
15
  5
6C0
 10
166.047781
 20
516.596335
 30
0.0
 11
166.047781
 21
513.288801
 31
0.0
  0
LINE
  8
16
  5
6C1
 10
169.355315
 20
517.297933
 30
0.0
 11
172.362165
 21
517.297933
 31
0.0
  0
LINE
  8
16
  5
6C2
 10
172.362165
 20
517.297933
 30
0.0
 11
168.353032
 21
517.297933
 31
0.0
  0
LINE
  8
17
  5
6C3
 10
176.872439
 20
515.293367
 30
0.0
 11
176.872439
 21
504.268253
 31
0.0
  0
LINE
  8
17
  5
6C4
 10
176.872439
 20
515.293367
 30
0.0
 11
174.366731
 21
515.293367
 31
0.0
  0
LINE
  8
17
  5
6C5
 10
179.879288
 20
512.787659
 30
0.0
 11
176.872439
 21
512.787659
 31
0.0
  0
LINE
  8
15
  5
6C6
 10
190.990598
 20
484.638539
 30
0.0
 11
200.066272
 21
475.562865
 31
0.0
  0
ARC
  8
15
  5
6C7
 10
189.572869
 20
483.220308
 30
0.0
 40
2.004566
 50
45.0
 51
90.0
  0
ARC
  8
15
  5
6C8
 10
201.484001
 20
476.981096
 30
0.0
 40
2.004566
 50
225.0
 51
269.51
  0
LINE
  8
17
  5
6C9
 10
206.139105
 20
496.249988
 30
0.0
 11
188.899836
 21
496.249988
 31
0.0
  0
LINE
  8
17
  5
6CA
 10
206.139105
 20
508.277385
 30
0.0
 11
188.899836
 21
508.277385
 31
0.0
  0
LINE
  8
17
  5
6CB
 10
188.899836
 20
512.286518
 30
0.0
 11
188.899836
 21
492.240856
 31
0.0
  0
LINE
  8
17
  5
6CC
 10
206.139105
 20
508.277385
 30
0.0
 11
206.139105
 21
496.249988
 31
0.0
  0
LINE
  8
15
  5
6CD
 10
172.362165
 20
519.603185
 30
0.0
 11
169.054631
 21
519.603185
 31
0.0
  0
LINE
  8
15
  5
6CE
 10
238.111936
 20
467.68492
 30
0.0
 11
236.479217
 21
473.778801
 31
0.0
  0
ARC
  8
15
  5
6CF
 10
235.511011
 20
473.518208
 30
0.0
 40
1.002283
 50
15.0
 51
84.9999
  0
LINE
  8
15
  5
6D0
 10
235.598711
 20
474.515479
 30
0.0
 11
233.501434
 21
474.700902
 31
0.0
  0
TEXT
  8
FF
  5
6D1
 10
265.093898
 20
494.145194
 30
0.0
 40
8.018265
  1
M3.5
 41
1.181775
  0
LINE
  8
FF
  5
6D2
 10
367.613929
 20
432.74032
 30
0.0
 11
308.993898
 21
489.133778
 31
0.0
  0
LINE
  8
0C
  5
6D3
 10
378.847016
 20
462.172363
 30
0.0
 11
378.847016
 21
407.046792
 31
0.0
  0
LINE
  8
0C
  5
6D4
 10
373.735373
 20
416.533402
 30
0.0
 11
373.735373
 21
470.691769
 31
0.0
  0
LINE
  8
0C
  5
6D5
 10
373.234231
 20
421.579897
 30
0.0
 11
373.234231
 21
471.192911
 31
0.0
  0
ARC
  8
0D
  5
6D6
 10
369.225099
 20
455.156381
 30
0.0
 40
5.011416
 50
36.8699
 51
323.13
  0
ARC
  8
0D
  5
6D7
 10
369.225099
 20
455.156381
 30
0.0
 40
4.510274
 50
27.266
 51
332.734
  0
LINE
  8
0D
  5
6D8
 10
367.332788
 20
457.050696
 30
0.0
 11
371.119414
 21
453.262066
 31
0.0
  0
LINE
  8
0D
  5
6D9
 10
371.119414
 20
457.050696
 30
0.0
 11
367.332788
 21
453.262066
 31
0.0
  0
LINE
  8
0C
  5
6DA
 10
362.211122
 20
443.379555
 30
0.0
 11
362.211122
 21
466.933208
 31
0.0
  0
LINE
  8
0C
  5
6DB
 10
373.234231
 20
377.679898
 30
0.0
 11
369.72624
 21
377.679898
 31
0.0
  0
LINE
  8
0C
  5
6DC
 10
373.234231
 20
436.413687
 30
0.0
 11
369.72624
 21
436.413687
 31
0.0
  0
ARC
  8
0C
  5
6DD
 10
368.22482
 20
392.513687
 30
0.0
 40
5.011416
 50
0.0
 51
90.0
  0
ARC
  8
0C
  5
6DE
 10
368.22482
 20
421.579897
 30
0.0
 40
5.011416
 50
270.0
 51
0.0
  0
CIRCLE
  8
0D
  5
6DF
 10
369.976811
 20
407.046792
 30
0.0
 40
4.009132
  0
ARC
  8
0D
  5
6E0
 10
370.979094
 20
408.049075
 30
0.0
 40
0.501142
 50
180.0
 51
270.0
  0
ARC
  8
0D
  5
6E1
 10
370.979094
 20
406.044509
 30
0.0
 40
0.501142
 50
90.0
 51
180.0
  0
ARC
  8
0D
  5
6E2
 10
369.225099
 20
358.937204
 30
0.0
 40
4.510274
 50
27.266
 51
332.734
  0
ARC
  8
0D
  5
6E3
 10
369.225099
 20
358.937204
 30
0.0
 40
5.011416
 50
36.8699
 51
323.13
  0
LINE
  8
0D
  5
6E4
 10
371.119414
 20
357.042889
 30
0.0
 11
367.332788
 21
360.831519
 31
0.0
  0
LINE
  8
0D
  5
6E5
 10
367.332788
 20
357.042889
 30
0.0
 11
371.119414
 21
360.831519
 31
0.0
  0
ARC
  8
0C
  5
6E6
 10
368.824185
 20
448.39097
 30
0.0
 40
4.009132
 50
270.0
 51
0.0
  0
ARC
  8
0C
  5
6E7
 10
368.824185
 20
365.702615
 30
0.0
 40
4.009132
 50
0.0
 51
90.0
  0
ARC
  8
0C
  5
6E8
 10
368.824185
 20
352.171793
 30
0.0
 40
4.009132
 50
270.0
 51
0.0
  0
LINE
  8
0C
  5
6E9
 10
372.833318
 20
345.155811
 30
0.0
 11
364.215688
 21
345.155811
 31
0.0
  0
CIRCLE
  8
0D
  5
6EA
 10
369.72624
 20
393.014829
 30
0.0
 40
3.006849
  0
CIRCLE
  8
0D
  5
6EB
 10
369.72624
 20
383.49314
 30
0.0
 40
3.006849
  0
CIRCLE
  8
0D
  5
6EC
 10
369.72624
 20
430.600445
 30
0.0
 40
3.006849
  0
CIRCLE
  8
0D
  5
6ED
 10
369.72624
 20
421.078756
 30
0.0
 40
3.006849
  0
LINE
  8
0C
  5
6EE
 10
373.234231
 20
389.206153
 30
0.0
 11
366.420711
 21
389.206153
 31
0.0
  0
LINE
  8
0D
  5
6EF
 10
370.989117
 20
391.751952
 30
0.0
 11
368.465368
 21
394.277706
 31
0.0
  0
LINE
  8
0D
  5
6F0
 10
370.989117
 20
394.277706
 30
0.0
 11
368.465368
 21
391.751952
 31
0.0
  0
LINE
  8
0C
  5
6F1
 10
370.783649
 20
396.823505
 30
0.0
 11
366.420711
 21
396.823505
 31
0.0
  0
LINE
  8
0D
  5
6F2
 10
370.989117
 20
384.756016
 30
0.0
 11
368.465368
 21
382.230263
 31
0.0
  0
LINE
  8
0D
  5
6F3
 10
370.989117
 20
382.230263
 30
0.0
 11
368.465368
 21
384.756016
 31
0.0
  0
LINE
  8
0C
  5
6F4
 10
373.234231
 20
379.684464
 30
0.0
 11
366.420711
 21
379.684464
 31
0.0
  0
LINE
  8
0C
  5
6F5
 10
373.234231
 20
387.201587
 30
0.0
 11
366.119524
 21
387.201587
 31
0.0
  0
LINE
  8
0C
  5
6F6
 10
373.234231
 20
426.891998
 30
0.0
 11
366.119524
 21
426.891998
 31
0.0
  0
LINE
  8
0C
  5
6F7
 10
373.234231
 20
434.409121
 30
0.0
 11
366.420711
 21
434.409121
 31
0.0
  0
LINE
  8
0D
  5
6F8
 10
370.989117
 20
431.863322
 30
0.0
 11
368.465368
 21
429.337569
 31
0.0
  0
LINE
  8
0D
  5
6F9
 10
370.989117
 20
429.337569
 30
0.0
 11
368.465368
 21
431.863322
 31
0.0
  0
LINE
  8
0C
  5
6FA
 10
370.783649
 20
417.27008
 30
0.0
 11
366.420711
 21
417.27008
 31
0.0
  0
LINE
  8
0D
  5
6FB
 10
370.989117
 20
419.815879
 30
0.0
 11
368.465368
 21
422.341633
 31
0.0
  0
LINE
  8
0D
  5
6FC
 10
370.989117
 20
422.341633
 30
0.0
 11
368.465368
 21
419.815879
 31
0.0
  0
LINE
  8
0C
  5
6FD
 10
373.234231
 20
424.887432
 30
0.0
 11
366.420711
 21
424.887432
 31
0.0
  0
LINE
  8
0C
  5
6FE
 10
366.220254
 20
344.404099
 30
0.0
 11
370.828752
 21
344.404099
 31
0.0
  0
LINE
  8
0D
  6
PHANTOM
  5
6FF
 10
351.683724
 20
439.320308
 30
0.0
 11
351.683724
 21
374.773277
 31
0.0
  0
LINE
  8
0C
  5
700
 10
363.714546
 20
407.046792
 30
0.0
 11
363.714546
 21
375.274418
 31
0.0
  0
LINE
  8
0C
  5
701
 10
365.819341
 20
397.525103
 30
0.0
 11
365.819341
 21
375.274418
 31
0.0
  0
LINE
  8
0C
  5
702
 10
363.714546
 20
407.046792
 30
0.0
 11
363.714546
 21
370.71403
 31
0.0
  0
LINE
  8
0C
  5
703
 10
365.919569
 20
396.322363
 30
0.0
 11
365.919569
 21
389.707295
 31
0.0
  0
LINE
  8
0C
  5
704
 10
362.211122
 20
370.71403
 30
0.0
 11
362.211122
 21
347.160377
 31
0.0
  0
ARC
  8
0C
  5
705
 10
364.215688
 20
347.160377
 30
0.0
 40
2.004566
 50
180.0
 51
270.0
  0
ARC
  8
0C
  5
706
 10
366.220254
 20
340.394966
 30
0.0
 40
4.009132
 50
90.0
 51
180.0
  0
ARC
  8
0C
  5
707
 10
366.220254
 20
340.394966
 30
0.0
 40
4.009132
 50
90.0
 51
180.0
  0
LINE
  8
0C
  5
708
 10
368.824185
 20
348.16266
 30
0.0
 11
362.211122
 21
348.16266
 31
0.0
  0
LINE
  8
0D
  5
709
 10
351.683724
 20
374.773277
 30
0.0
 11
362.211122
 21
374.773277
 31
0.0
  0
ARC
  8
0C
  5
70A
 10
365.318199
 20
375.274418
 30
0.0
 40
0.501142
 50
270.0
 51
0.0
  0
ARC
  8
0C
  5
70B
 10
364.215688
 20
375.274418
 30
0.0
 40
0.501142
 50
180.0
 51
270.0
  0
LINE
  8
0C
  5
70C
 10
364.215688
 20
374.773277
 30
0.0
 11
365.318199
 21
374.773277
 31
0.0
  0
LINE
  8
0C
  5
70D
 10
365.819341
 20
377.679898
 30
0.0
 11
369.72624
 21
377.679898
 31
0.0
  0
ARC
  8
0C
  5
70E
 10
364.215688
 20
370.71403
 30
0.0
 40
2.004566
 50
104.478
 51
180.0
  0
ARC
  8
0C
  5
70F
 10
364.716829
 20
370.71403
 30
0.0
 40
1.002283
 50
180.0
 51
270.0
  0
LINE
  8
0C
  5
710
 10
368.824185
 20
369.711747
 30
0.0
 11
362.211122
 21
369.711747
 31
0.0
  0
ARC
  8
0C
  5
711
 10
366.220254
 20
377.479441
 30
0.0
 40
4.009132
 50
180.0
 51
231.318
  0
ARC
  8
0C
  5
712
 10
366.420711
 20
389.707295
 30
0.0
 40
0.501142
 50
180.0
 51
270.0
  0
ARC
  8
0C
  5
713
 10
366.420711
 20
380.185605
 30
0.0
 40
0.501142
 50
180.0
 51
270.0
  0
ARC
  8
0C
  5
714
 10
366.420711
 20
386.800674
 30
0.0
 40
0.501142
 50
126.933
 51
180.0
  0
LINE
  8
0C
  5
715
 10
365.919569
 20
386.800674
 30
0.0
 11
365.919569
 21
380.185605
 31
0.0
  0
LINE
  8
0C
  5
716
 10
365.819341
 20
416.568482
 30
0.0
 11
365.819341
 21
438.819167
 31
0.0
  0
LINE
  8
0C
  5
717
 10
363.714546
 20
407.046792
 30
0.0
 11
363.714546
 21
438.819167
 31
0.0
  0
LINE
  8
0C
  5
718
 10
363.714546
 20
407.046792
 30
0.0
 11
363.714546
 21
443.379555
 31
0.0
  0
LINE
  8
0C
  5
719
 10
363.714546
 20
407.046792
 30
0.0
 11
363.714546
 21
414.563916
 31
0.0
  0
ARC
  8
0C
  5
71A
 10
365.719112
 20
399.529669
 30
0.0
 40
2.004566
 50
180.0
 51
270.0
  0
LINE
  8
0C
  5
71B
 10
363.714546
 20
407.046792
 30
0.0
 11
363.714546
 21
399.529669
 31
0.0
  0
LINE
  8
0C
  5
71C
 10
365.719112
 20
397.525103
 30
0.0
 11
368.22482
 21
397.525103
 31
0.0
  0
ARC
  8
0D
  5
71D
 10
368.974528
 20
406.044509
 30
0.0
 40
0.501142
 50
0.0
 51
90.0
  0
ARC
  8
0D
  5
71E
 10
368.974528
 20
408.049075
 30
0.0
 40
0.501142
 50
270.0
 51
0.0
  0
LINE
  8
0D
  5
71F
 10
369.475669
 20
409.5525
 30
0.0
 11
369.475669
 21
408.049075
 31
0.0
  0
LINE
  8
0D
  5
720
 10
370.477953
 20
409.5525
 30
0.0
 11
370.477953
 21
408.049075
 31
0.0
  0
LINE
  8
0D
  5
721
 10
369.475669
 20
409.5525
 30
0.0
 11
370.477953
 21
409.5525
 31
0.0
  0
LINE
  8
0D
  5
722
 10
369.475669
 20
404.541085
 30
0.0
 11
370.477953
 21
404.541085
 31
0.0
  0
LINE
  8
0D
  5
723
 10
370.477953
 20
406.044509
 30
0.0
 11
370.477953
 21
404.541085
 31
0.0
  0
LINE
  8
0D
  5
724
 10
369.475669
 20
406.044509
 30
0.0
 11
369.475669
 21
404.541085
 31
0.0
  0
LINE
  8
0D
  5
725
 10
368.974528
 20
407.547934
 30
0.0
 11
366.001255
 21
407.547934
 31
0.0
  0
LINE
  8
0D
  5
726
 10
368.974528
 20
406.545651
 30
0.0
 11
366.001255
 21
406.545651
 31
0.0
  0
ARC
  8
0C
  5
727
 10
366.420711
 20
396.322363
 30
0.0
 40
0.501142
 50
90.0
 51
180.0
  0
ARC
  8
0C
  5
728
 10
365.719112
 20
414.563916
 30
0.0
 40
2.004566
 50
90.0
 51
180.0
  0
LINE
  8
0C
  5
729
 10
365.719112
 20
416.568482
 30
0.0
 11
368.22482
 21
416.568482
 31
0.0
  0
ARC
  8
0C
  5
72A
 10
366.420711
 20
417.771222
 30
0.0
 40
0.501142
 50
180.0
 51
270.0
  0
ARC
  8
0C
  5
72B
 10
366.420711
 20
424.38629
 30
0.0
 40
0.501142
 50
90.0
 51
180.0
  0
LINE
  8
0C
  5
72C
 10
365.919569
 20
417.771222
 30
0.0
 11
365.919569
 21
424.38629
 31
0.0
  0
LINE
  8
0D
  5
72D
 10
351.683724
 20
439.320308
 30
0.0
 11
362.211122
 21
439.320308
 31
0.0
  0
LINE
  8
FF
  5
72E
 10
367.613929
 20
432.74032
 30
0.0
 11
359.745204
 21
445.780023
 31
0.0
  0
LINE
  8
FF
  5
72F
 10
354.279705
 20
440.098581
 30
0.0
 11
367.613929
 21
432.74032
 31
0.0
  0
ARC
  8
0C
  5
730
 10
364.215688
 20
438.819167
 30
0.0
 40
0.501142
 50
90.0
 51
180.0
  0
ARC
  8
0C
  5
731
 10
365.318199
 20
438.819167
 30
0.0
 40
0.501142
 50
0.0
 51
90.0
  0
LINE
  8
0C
  5
732
 10
365.819341
 20
436.413687
 30
0.0
 11
369.72624
 21
436.413687
 31
0.0
  0
LINE
  8
0C
  5
733
 10
364.215688
 20
439.320308
 30
0.0
 11
365.318199
 21
439.320308
 31
0.0
  0
ARC
  8
0C
  5
734
 10
366.420711
 20
427.292911
 30
0.0
 40
0.501142
 50
180.0
 51
233.067
  0
ARC
  8
0C
  5
735
 10
366.420711
 20
433.907979
 30
0.0
 40
0.501142
 50
90.0
 51
180.0
  0
LINE
  8
0C
  5
736
 10
365.919569
 20
427.292911
 30
0.0
 11
365.919569
 21
433.907979
 31
0.0
  0
ARC
  8
0C
  5
737
 10
366.220254
 20
436.614144
 30
0.0
 40
4.009132
 50
128.682
 51
180.0
  0
ARC
  8
0C
  5
738
 10
364.215688
 20
443.379555
 30
0.0
 40
2.004566
 50
180.0
 51
255.522
  0
ARC
  8
0C
  5
739
 10
364.716829
 20
443.379555
 30
0.0
 40
1.002283
 50
90.0
 51
180.0
  0
LINE
  8
0C
  5
73A
 10
369.225099
 20
444.381838
 30
0.0
 11
362.211122
 21
444.381838
 31
0.0
  0
LINE
  8
0C
  5
73B
 10
373.735373
 20
397.560183
 30
0.0
 11
373.735373
 21
343.401816
 31
0.0
  0
LINE
  8
0C
  5
73C
 10
378.847016
 20
351.921222
 30
0.0
 11
378.847016
 21
407.046792
 31
0.0
  0
LINE
  8
0C
  5
73D
 10
436.378066
 20
339.392683
 30
0.0
 11
377.744505
 21
339.392683
 31
0.0
  0
LINE
  8
0C
  5
73E
 10
436.378066
 20
346.408665
 30
0.0
 11
373.735373
 21
346.408665
 31
0.0
  0
LINE
  8
0C
  5
73F
 10
436.378066
 20
351.921222
 30
0.0
 11
378.847016
 21
351.921222
 31
0.0
  0
ARC
  8
0C
  5
740
 10
407.812998
 20
336.886975
 30
0.0
 40
2.004566
 50
0.0
 51
90.0
  0
LINE
  8
0C
  5
741
 10
436.378066
 20
338.891542
 30
0.0
 11
377.243363
 21
338.891542
 31
0.0
  0
LINE
  8
0C
  5
742
 10
373.234231
 20
392.513687
 30
0.0
 11
373.234231
 21
342.900674
 31
0.0
  0
LINE
  8
0C
  5
743
 10
372.833318
 20
363.106701
 30
0.0
 11
372.833318
 21
365.702615
 31
0.0
  0
LINE
  8
0C
  5
744
 10
372.833318
 20
337.498368
 30
0.0
 11
372.833318
 21
354.767706
 31
0.0
  0
ARC
  8
0C
  5
745
 10
377.744505
 20
343.401816
 30
0.0
 40
4.009132
 50
180.0
 51
270.0
  0
ARC
  8
0C
  5
746
 10
377.243363
 20
342.900674
 30
0.0
 40
4.009132
 50
180.0
 51
270.0
  0
LINE
  8
0C
  5
747
 10
370.828752
 20
345.155811
 30
0.0
 11
370.828752
 21
335.107923
 31
0.0
  0
ARC
  8
0C
  5
748
 10
369.225099
 20
358.937204
 30
0.0
 40
5.512557
 50
43.3417
 51
49.1148
  0
ARC
  8
0C
  5
749
 10
369.225099
 20
358.937204
 30
0.0
 40
5.512557
 50
310.885
 51
316.658
  0
ARC
  8
0C
  5
74A
 10
419.840395
 20
336.886975
 30
0.0
 40
2.004566
 50
90.0
 51
180.0
  0
LINE
  8
0C
  5
74B
 10
422.240863
 20
338.891542
 30
0.0
 11
421.34382
 21
335.553939
 31
0.0
  0
ARC
  8
0C
  5
74C
 10
364.817058
 20
407.046792
 30
0.0
 40
12.027397
 50
323.731
 51
36.2688
  0
ARC
  8
0C
  5
74D
 10
377.744505
 20
397.560183
 30
0.0
 40
4.009132
 50
143.731
 51
180.0
  0
LINE
  8
0D
  5
74E
 10
373.955875
 20
407.547934
 30
0.0
 11
370.979094
 21
407.547934
 31
0.0
  0
LINE
  8
0D
  5
74F
 10
373.955875
 20
406.545651
 30
0.0
 11
370.979094
 21
406.545651
 31
0.0
  0
ARC
  8
0C
  5
750
 10
377.744505
 20
416.533402
 30
0.0
 40
4.009132
 50
180.0
 51
216.269
  0
ARC
  8
0C
  5
751
 10
369.225099
 20
455.156381
 30
0.0
 40
5.512557
 50
310.885
 51
316.658
  0
LINE
  8
0C
  5
752
 10
372.833318
 20
450.986884
 30
0.0
 11
372.833318
 21
448.39097
 31
0.0
  0
LINE
  8
0C
  5
753
 10
436.378066
 20
398.527386
 30
0.0
 11
424.851811
 21
398.527386
 31
0.0
  0
LINE
  8
0C
  5
754
 10
436.378066
 20
415.566199
 30
0.0
 11
424.851811
 21
415.566199
 31
0.0
  0
LINE
  8
0C
  5
755
 10
424.851811
 20
415.566199
 30
0.0
 11
424.851811
 21
406.846336
 31
0.0
  0
LINE
  8
0C
  5
756
 10
424.851811
 20
398.527386
 30
0.0
 11
424.851811
 21
407.247249
 31
0.0
  0
LINE
  8
FF
  5
757
 10
371.359962
 20
511.785376
 30
0.0
 11
364.497029
 21
525.381347
 31
0.0
  0
LINE
  8
FF
  5
758
 10
358.618638
 20
520.128381
 30
0.0
 11
371.359962
 21
511.785376
 31
0.0
  0
LINE
  8
0C
  5
759
 10
391.275327
 20
519.603185
 30
0.0
 11
369.225099
 21
519.603185
 31
0.0
  0
CIRCLE
  8
0D
  5
75A
 10
380.250213
 20
502.263687
 30
0.0
 40
10.523973
  0
CIRCLE
  8
0D
  5
75B
 10
380.250213
 20
502.263687
 30
0.0
 40
13.02968
  0
LINE
  8
0C
  5
75C
 10
374.742667
 20
474.325045
 30
0.0
 11
365.687039
 21
485.114623
 31
0.0
  0
LINE
  8
0C
  5
75D
 10
395.284459
 20
517.297933
 30
0.0
 11
365.217971
 21
517.297933
 31
0.0
  0
ARC
  8
0C
  5
75E
 10
368.824185
 20
461.921792
 30
0.0
 40
4.009132
 50
0.0
 51
90.0
  0
LINE
  8
0C
  5
75F
 10
372.833318
 20
468.937774
 30
0.0
 11
364.215688
 21
468.937774
 31
0.0
  0
LINE
  8
0B
  5
760
 10
366.220254
 20
527.320764
 30
0.0
 11
436.378066
 21
527.320764
 31
0.0
  0
LINE
  8
0C
  5
761
 10
366.220254
 20
469.689486
 30
0.0
 11
370.828752
 21
469.689486
 31
0.0
  0
LINE
  8
0C
  5
762
 10
369.225099
 20
517.297933
 30
0.0
 11
369.225099
 21
519.603185
 31
0.0
  0
LINE
  8
0C
  5
763
 10
365.217971
 20
517.297933
 30
0.0
 11
365.217971
 21
486.402557
 31
0.0
  0
ARC
  8
0C
  5
764
 10
366.220254
 20
473.698619
 30
0.0
 40
4.009132
 50
180.0
 51
270.0
  0
ARC
  8
0C
  5
765
 10
364.215688
 20
466.933208
 30
0.0
 40
2.004566
 50
90.0
 51
180.0
  0
LINE
  8
0C
  5
766
 10
368.824185
 20
465.930925
 30
0.0
 11
362.211122
 21
465.930925
 31
0.0
  0
ARC
  8
0C
  5
767
 10
367.222537
 20
486.402557
 30
0.0
 40
2.004566
 50
180.0
 51
220.0
  0
ARC
  8
0B
  5
768
 10
366.220254
 20
523.311632
 30
0.0
 40
4.009132
 50
90.0
 51
180.0
  0
LINE
  8
10
  6
CENTER
  5
769
 10
406.309573
 20
518.891564
 30
0.0
 11
406.309573
 21
515.709315
 31
0.0
  0
LINE
  8
0C
  5
76B
 10
425.352952
 20
517.297933
 30
0.0
 11
425.352952
 21
519.603185
 31
0.0
  0
LINE
  8
0C
  5
76C
 10
391.275327
 20
519.603185
 30
0.0
 11
391.275327
 21
517.297933
 31
0.0
  0
CIRCLE
  8
0C
  5
76D
 10
406.309573
 20
517.297933
 30
0.0
 40
4.760845
  0
LINE
  8
0C
  5
76E
 10
436.378066
 20
462.172363
 30
0.0
 11
378.847016
 21
462.172363
 31
0.0
  0
LINE
  8
0C
  5
76F
 10
436.378066
 20
467.68492
 30
0.0
 11
373.735373
 21
467.68492
 31
0.0
  0
LINE
  8
0C
  5
770
 10
436.378066
 20
474.700902
 30
0.0
 11
377.744505
 21
474.700902
 31
0.0
  0
ARC
  8
0C
  5
771
 10
407.812998
 20
477.206609
 30
0.0
 40
2.004566
 50
270.0
 51
0.0
  0
LINE
  8
0C
  5
772
 10
436.378066
 20
475.202043
 30
0.0
 11
377.243363
 21
475.202043
 31
0.0
  0
LINE
  8
0C
  5
773
 10
406.309573
 20
487.22944
 30
0.0
 11
416.332404
 21
487.22944
 31
0.0
  0
LINE
  8
0C
  5
774
 10
400.997473
 20
498.855924
 30
0.0
 11
421.34382
 21
498.855924
 31
0.0
  0
LINE
  8
0C
  5
775
 10
415.229893
 20
497.653185
 30
0.0
 11
407.412085
 21
497.653185
 31
0.0
  0
LINE
  8
0C
  5
776
 10
421.34382
 20
485.224874
 30
0.0
 11
395.284459
 21
485.224874
 31
0.0
  0
LINE
  8
0C
  5
777
 10
402.500898
 20
487.22944
 30
0.0
 11
421.34382
 21
487.22944
 31
0.0
  0
ARC
  8
0C
  5
778
 10
408.013455
 20
495.849075
 30
0.0
 40
0.501142
 50
90.0
 51
180.0
  0
ARC
  8
0C
  5
779
 10
408.013455
 20
489.234007
 30
0.0
 40
0.501142
 50
180.0
 51
270.0
  0
LINE
  8
0C
  5
77A
 10
395.284459
 20
499.357066
 30
0.0
 11
421.34382
 21
499.357066
 31
0.0
  0
LINE
  8
0C
  5
77B
 10
395.284459
 20
517.297933
 30
0.0
 11
395.284459
 21
484.864052
 31
0.0
  0
LINE
  8
0C
  5
77C
 10
399.99519
 20
496.851358
 30
0.0
 11
399.99519
 21
484.222591
 31
0.0
  0
LINE
  8
0C
  5
77D
 10
397.740053
 20
497.14202
 30
0.0
 11
396.24164
 21
486.938778
 31
0.0
  0
LINE
  8
0C
  5
77E
 10
402.500898
 20
485.224874
 30
0.0
 11
402.500898
 21
498.855924
 31
0.0
  0
ARC
  8
0C
  5
77F
 10
377.744505
 20
470.691769
 30
0.0
 40
4.009132
 50
90.0
 51
180.0
  0
ARC
  8
0C
  5
780
 10
377.243363
 20
471.192911
 30
0.0
 40
4.009132
 50
90.0
 51
180.0
  0
LINE
  8
0C
  5
781
 10
370.828752
 20
468.937774
 30
0.0
 11
370.828752
 21
478.985662
 31
0.0
  0
LINE
  8
0C
  5
782
 10
372.833318
 20
476.595217
 30
0.0
 11
372.833318
 21
459.325879
 31
0.0
  0
ARC
  8
0C
  5
783
 10
369.225099
 20
455.156381
 30
0.0
 40
5.512557
 50
43.3417
 51
49.1148
  0
LINE
  8
0C
  5
784
 10
395.755532
 20
483.576118
 30
0.0
 11
402.781537
 21
475.202043
 31
0.0
  0
ARC
  8
0C
  5
785
 10
397.990624
 20
484.222591
 30
0.0
 40
2.004566
 50
270.0
 51
0.0
  0
ARC
  8
0C
  5
786
 10
397.289025
 20
484.864052
 30
0.0
 40
2.004566
 50
180.0
 51
220.0
  0
ARC
  8
0C
  5
787
 10
394.257119
 20
487.22944
 30
0.0
 40
2.004566
 50
305.703
 51
351.634
  0
LINE
  8
0C
  5
788
 10
396.893124
 20
482.218025
 30
0.0
 11
397.990624
 21
482.218025
 31
0.0
  0
LINE
  8
0D
  5
789
 10
380.250213
 20
512.286518
 30
0.0
 11
389.270761
 21
507.470548
 31
0.0
  0
LINE
  8
0D
  5
78A
 10
389.270761
 20
497.056826
 30
0.0
 11
380.250213
 21
492.240856
 31
0.0
  0
LINE
  8
0D
  5
78B
 10
371.229665
 20
507.470548
 30
0.0
 11
371.229665
 21
497.056826
 31
0.0
  0
CIRCLE
  8
0D
  5
78C
 10
380.250213
 20
502.263687
 30
0.0
 40
6.013699
  0
LINE
  8
0D
  5
78D
 10
379.202827
 20
492.802134
 30
0.0
 11
380.250213
 21
492.240856
 31
0.0
  0
LINE
  8
0D
  5
78E
 10
372.973637
 20
496.124703
 30
0.0
 11
379.202827
 21
492.802134
 31
0.0
  0
LINE
  8
0D
  5
78F
 10
371.229665
 20
497.056826
 30
0.0
 11
372.973637
 21
496.124703
 31
0.0
  0
LINE
  8
0D
  5
790
 10
380.250213
 20
512.286518
 30
0.0
 11
371.229665
 21
507.470548
 31
0.0
  0
LINE
  8
0D
  5
791
 10
389.270761
 20
507.470548
 30
0.0
 11
389.270761
 21
497.056826
 31
0.0
  0
ARC
  8
0C
  5
792
 10
399.724573
 20
496.851358
 30
0.0
 40
2.004566
 50
90.0
 51
171.634
  0
LINE
  8
0C
  5
793
 10
396.281731
 20
487.22944
 30
0.0
 11
395.284459
 21
487.22944
 31
0.0
  0
ARC
  8
0C
  5
794
 10
406.910943
 20
498.354783
 30
0.0
 40
0.501142
 50
0.0
 51
90.0
  0
LINE
  8
0C
  5
795
 10
406.309573
 20
488.301883
 30
0.0
 11
403.002039
 21
488.301883
 31
0.0
  0
LINE
  8
0C
  5
796
 10
406.309573
 20
488.301883
 30
0.0
 11
406.309573
 21
487.22944
 31
0.0
  0
LINE
  8
0C
  5
797
 10
403.002039
 20
488.301883
 30
0.0
 11
403.002039
 21
487.22944
 31
0.0
  0
LINE
  8
0C
  5
798
 10
407.412085
 20
498.354783
 30
0.0
 11
407.412085
 21
487.22944
 31
0.0
  0
LINE
  8
0C
  5
799
 10
402.500898
 20
496.851358
 30
0.0
 11
399.99519
 21
496.851358
 31
0.0
  0
LINE
  8
0C
  5
79A
 10
402.500898
 20
498.855924
 30
0.0
 11
399.724573
 21
498.855924
 31
0.0
  0
LINE
  8
0C
  5
79B
 10
407.512313
 20
495.849075
 30
0.0
 11
407.512313
 21
489.234007
 31
0.0
  0
LINE
  8
10
  6
CENTER
  5
79C
 10
403.127325
 20
517.297933
 30
0.0
 11
398.541879
 21
517.297933
 31
0.0
  0
LINE
  8
10
  6
CENTER
  5
79D
 10
406.309573
 20
514.115685
 30
0.0
 11
406.309573
 21
509.530239
 31
0.0
  0
LINE
  8
10
  6
CENTER
  5
79E
 10
407.903204
 20
517.297933
 30
0.0
 11
404.720955
 21
517.297933
 31
0.0
  0
LINE
  8
0C
  5
79F
 10
421.34382
 20
517.297933
 30
0.0
 11
421.34382
 21
478.539646
 31
0.0
  0
ARC
  8
0C
  5
7A0
 10
415.831263
 20
483.220308
 30
0.0
 40
2.004566
 50
0.0
 51
90.0
  0
ARC
  8
0C
  5
7A1
 10
415.731035
 20
484.423048
 30
0.0
 40
0.801826
 50
90.0
 51
150.0
  0
ARC
  8
0C
  5
7A2
 10
411.82213
 20
483.220308
 30
0.0
 40
2.004566
 50
88.2446
 51
180.0
  0
ARC
  8
0C
  5
7A3
 10
411.922359
 20
484.423048
 30
0.0
 40
0.801826
 50
30.0
 51
92.7756
  0
ARC
  8
0C
  5
7A4
 10
413.826697
 20
484.733755
 30
0.0
 40
1.002283
 50
210.0
 51
330.0
  0
LINE
  8
0C
  5
7A5
 10
415.831263
 20
485.224874
 30
0.0
 11
415.731035
 21
485.224874
 31
0.0
  0
LINE
  8
0C
  5
7A6
 10
411.922359
 20
485.224874
 30
0.0
 11
411.82213
 21
485.224874
 31
0.0
  0
LINE
  8
0C
  5
7A7
 10
412.618945
 20
484.823961
 30
0.0
 11
412.959722
 21
484.232614
 31
0.0
  0
LINE
  8
0C
  5
7A8
 10
415.039459
 20
484.823961
 30
0.0
 11
414.698683
 21
484.232614
 31
0.0
  0
LINE
  8
0C
  5
7A9
 10
409.817564
 20
483.220308
 30
0.0
 11
409.817564
 21
477.206609
 31
0.0
  0
ARC
  8
0C
  5
7AA
 10
419.840395
 20
477.206609
 30
0.0
 40
2.004566
 50
180.0
 51
270.0
  0
LINE
  8
0C
  5
7AB
 10
417.835829
 20
477.206609
 30
0.0
 11
417.835829
 21
483.220308
 31
0.0
  0
LINE
  8
0C
  5
7AC
 10
422.240863
 20
475.202043
 30
0.0
 11
421.34382
 21
478.539646
 31
0.0
  0
LINE
  8
0C
  5
7AD
 10
416.332404
 20
488.301883
 30
0.0
 11
421.34382
 21
488.301883
 31
0.0
  0
ARC
  8
0C
  5
7AE
 10
415.731035
 20
498.354783
 30
0.0
 40
0.501142
 50
90.0
 51
180.0
  0
LINE
  8
0C
  5
7AF
 10
416.332404
 20
488.301883
 30
0.0
 11
416.332404
 21
487.22944
 31
0.0
  0
LINE
  8
0C
  5
7B0
 10
415.229893
 20
498.354783
 30
0.0
 11
415.229893
 21
487.22944
 31
0.0
  0
ARC
  8
0C
  5
7B1
 10
414.628523
 20
495.849075
 30
0.0
 40
0.501142
 50
0.0
 51
90.0
  0
ARC
  8
0C
  5
7B2
 10
414.628523
 20
489.234007
 30
0.0
 40
0.501142
 50
270.0
 51
0.0
  0
CIRCLE
  8
0D
  5
7B3
 10
411.320989
 20
492.541541
 30
0.0
 40
3.006849
  0
LINE
  8
0D
  5
7B4
 10
410.058112
 20
493.804418
 30
0.0
 11
412.583866
 21
491.278664
 31
0.0
  0
LINE
  8
0D
  5
7B5
 10
410.058112
 20
491.278664
 30
0.0
 11
412.583866
 21
493.804418
 31
0.0
  0
LINE
  8
0C
  5
7B6
 10
415.129665
 20
495.849075
 30
0.0
 11
415.129665
 21
489.234007
 31
0.0
  0
LINE
  8
0C
  5
7B7
 10
408.013455
 20
496.350217
 30
0.0
 11
414.628523
 21
496.350217
 31
0.0
  0
LINE
  8
0C
  5
7B8
 10
408.013455
 20
488.732865
 30
0.0
 11
414.628523
 21
488.732865
 31
0.0
  0
LINE
  8
10
  6
CENTER
  5
7B9
 10
414.077267
 20
517.297933
 30
0.0
 11
409.491822
 21
517.297933
 31
0.0
  0
LINE
  8
0D
  5
7BA
 10
427.357518
 20
507.470548
 30
0.0
 11
427.357518
 21
497.056826
 31
0.0
  0
CIRCLE
  8
0D
  5
7BB
 10
436.378066
 20
502.263687
 30
0.0
 40
6.013699
  0
LINE
  8
0D
  5
7BC
 10
435.330681
 20
492.802134
 30
0.0
 11
436.378066
 21
492.240856
 31
0.0
  0
LINE
  8
0D
  5
7BD
 10
429.101491
 20
496.124703
 30
0.0
 11
435.330681
 21
492.802134
 31
0.0
  0
LINE
  8
0D
  5
7BE
 10
427.357518
 20
497.056826
 30
0.0
 11
429.101491
 21
496.124703
 31
0.0
  0
LINE
  8
0D
  5
7BF
 10
436.378066
 20
512.286518
 30
0.0
 11
427.357518
 21
507.470548
 31
0.0
  0
LINE
  8
0C
  5
7C0
 10
385.261628
 20
519.603185
 30
0.0
 11
385.261628
 21
527.320764
 31
0.0
  0
LINE
  8
0C
  5
7C1
 10
389.270761
 20
527.320764
 30
0.0
 11
389.270761
 21
519.603185
 31
0.0
  0
LINE
  8
10
  6
CENTER
  5
7C2
 10
406.309573
 20
525.065627
 30
0.0
 11
406.309573
 21
520.480182
 31
0.0
  0
LINE
  8
FF
  5
7C3
 10
310.004199
 20
580.44678
 30
0.0
 11
276.230266
 21
580.44678
 31
0.0
  0
TEXT
  8
FF
  5
7C4
 10
276.109491
 20
597.61589
 30
0.0
 40
10.022831
  1
主端子
 41
0.833333
  0
TEXT
  8
FF
  5
7C5
 10
276.661248
 20
585.458196
 30
0.0
 40
8.018265
  1
M12
 41
0.998689
  0
LINE
  8
38
  6
CENTER
  5
7C6
 10
724.509401
 20
548.694452
 30
0.0
 11
724.509401
 21
266.301188
 31
0.0
  0
DIMENSION
  8
FF
  5
7C7
  2
*D5
 10
552.572746
 20
311.829898
 30
0.0
 11
545.906046
 21
407.046792
 31
0.0
  1
190
 13
492.50592
 23
502.263687
 33
0.0
 14
492.50592
 24
311.829898
 34
0.0
 50
270.0
  3
FSTD1
  0
DIMENSION
  8
FF
  5
7C8
  2
*D6
 10
575.409767
 20
527.320764
 30
0.0
 11
568.743067
 21
407.046792
 31
0.0
  1
240
 13
506.537883
 23
286.77282
 33
0.0
 14
506.537883
 24
527.320764
 34
0.0
 50
90.0
  3
FSTD1
  0
DIMENSION
  8
FF
  5
7C9
  2
*D12
 10
845.895907
 20
296.795651
 30
0.0
 11
836.562507
 21
407.046792
 31
0.0
  1
220
 13
762.345588
 23
517.297933
 33
0.0
 14
762.345588
 24
296.795651
 34
0.0
 50
270.0
  3
FSTD3
  0
LINE
  8
0C
  5
7CA
 10
462.938569
 20
330.873277
 30
0.0
 11
462.938569
 21
336.886975
 31
0.0
  0
LINE
  8
0C
  5
7CB
 10
454.920304
 20
336.886975
 30
0.0
 11
454.920304
 21
330.873277
 31
0.0
  0
LINE
  8
0C
  5
7CC
 10
451.412313
 20
296.795651
 30
0.0
 11
451.412313
 21
335.293345
 31
0.0
  0
LINE
  8
0C
  5
7CD
 10
498.018477
 20
339.768539
 30
0.0
 11
507.074105
 21
328.978962
 31
0.0
  0
LINE
  8
0C
  5
7CE
 10
477.005612
 20
330.517466
 30
0.0
 11
469.979607
 21
338.891542
 31
0.0
  0
LINE
  8
34
  6
PHANTOM
  5
7CF
 10
650.340451
 20
523.311632
 30
0.0
 11
650.340451
 21
290.781953
 31
0.0
  0
LINE
  8
34
  6
PHANTOM
  5
7D0
 10
798.67835
 20
523.311632
 30
0.0
 11
798.67835
 21
290.781953
 31
0.0
  0
LINE
  8
0B
  5
7D1
 10
510.547016
 20
523.311632
 30
0.0
 11
510.547016
 21
290.781953
 31
0.0
  0
LINE
  8
34
  6
PHANTOM
  5
7D2
 10
701.206318
 20
286.77282
 30
0.0
 11
747.812483
 21
286.77282
 31
0.0
  0
LINE
  8
0C
  5
7D3
 10
503.531034
 20
294.4904
 30
0.0
 11
481.480806
 21
294.4904
 31
0.0
  0
CIRCLE
  8
0D
  5
7D4
 10
492.50592
 20
311.829898
 30
0.0
 40
13.02968
  0
CIRCLE
  8
0D
  5
7D5
 10
492.50592
 20
311.829898
 30
0.0
 40
10.523973
  0
LINE
  8
0C
  5
7D6
 10
477.471673
 20
296.795651
 30
0.0
 11
507.540166
 21
296.795651
 31
0.0
  0
LINE
  8
0B
  5
7D7
 10
506.522849
 20
286.77282
 30
0.0
 11
473.21197
 21
286.77282
 31
0.0
  0
LINE
  8
0B
  5
7D8
 10
506.522849
 20
286.77282
 30
0.0
 11
473.21197
 21
286.77282
 31
0.0
  0
LINE
  8
10
  6
CENTER
  5
7D9
 10
466.446559
 20
304.563345
 30
0.0
 11
466.446559
 21
299.9779
 31
0.0
  0
LINE
  8
0C
  5
7DA
 10
477.471673
 20
296.795651
 30
0.0
 11
477.471673
 21
329.229533
 31
0.0
  0
ARC
  8
0B
  5
7DB
 10
466.446559
 20
296.795651
 30
0.0
 40
4.760845
 50
90.0
 51
180.0
  0
ARC
  8
0B
  5
7DC
 10
466.446559
 20
296.795651
 30
0.0
 40
4.760845
 50
0.0
 51
90.0
  0
ARC
  8
0B
  5
7DD
 10
466.446559
 20
296.795651
 30
0.0
 40
4.760845
 50
90.0
 51
180.0
  0
ARC
  8
0B
  5
7DE
 10
466.446559
 20
296.795651
 30
0.0
 40
4.760845
 50
0.0
 51
90.0
  0
LINE
  8
0C
  5
7DF
 10
447.40318
 20
294.4904
 30
0.0
 11
447.40318
 21
296.795651
 31
0.0
  0
ARC
  8
0C
  5
7E0
 10
447.40318
 20
288.777387
 30
0.0
 40
2.004566
 50
270.0
 51
0.0
  0
ARC
  8
0C
  5
7E1
 10
447.40318
 20
288.777387
 30
0.0
 40
2.004566
 50
270.0
 51
0.0
  0
LINE
  8
0C
  5
7E2
 10
449.407747
 20
296.795651
 30
0.0
 11
449.407747
 21
288.777387
 31
0.0
  0
LINE
  8
0C
  5
7E3
 10
449.407747
 20
296.795651
 30
0.0
 11
449.407747
 21
288.777387
 31
0.0
  0
LINE
  8
10
  6
CENTER
  5
7E4
 10
463.264311
 20
296.795651
 30
0.0
 11
458.678865
 21
296.795651
 31
0.0
  0
ARC
  8
0B
  5
7E5
 10
459.681148
 20
288.777387
 30
0.0
 40
2.004566
 50
270.0
 51
0.0
  0
ARC
  8
0B
  5
7E6
 10
459.681148
 20
288.777387
 30
0.0
 40
2.004566
 50
270.0
 51
0.0
  0
LINE
  8
0B
  5
7E7
 10
461.685715
 20
296.795651
 30
0.0
 11
461.685715
 21
288.777387
 31
0.0
  0
LINE
  8
0B
  5
7E8
 10
461.685715
 20
296.795651
 30
0.0
 11
461.685715
 21
288.777387
 31
0.0
  0
LINE
  8
10
  6
CENTER
  5
7E9
 10
466.446559
 20
293.613403
 30
0.0
 11
466.446559
 21
282.45298
 31
0.0
  0
LINE
  8
10
  6
CENTER
  5
7EA
 10
474.214253
 20
296.795651
 30
0.0
 11
469.628808
 21
296.795651
 31
0.0
  0
LINE
  8
10
  6
CENTER
  5
7EB
 10
468.04019
 20
296.795651
 30
0.0
 11
464.857941
 21
296.795651
 31
0.0
  0
LINE
  8
10
  6
CENTER
  5
7EC
 10
466.446559
 20
298.389282
 30
0.0
 11
466.446559
 21
295.207033
 31
0.0
  0
ARC
  8
0B
  5
7ED
 10
473.21197
 20
288.777387
 30
0.0
 40
2.004566
 50
180.0
 51
270.0
  0
ARC
  8
0B
  5
7EE
 10
473.21197
 20
288.777387
 30
0.0
 40
2.004566
 50
180.0
 51
270.0
  0
LINE
  8
0B
  5
7EF
 10
471.207404
 20
296.795651
 30
0.0
 11
471.207404
 21
288.777387
 31
0.0
  0
LINE
  8
0B
  5
7F0
 10
471.207404
 20
296.795651
 30
0.0
 11
471.207404
 21
288.777387
 31
0.0
  0
LINE
  8
0C
  5
7F1
 10
481.480806
 20
296.795651
 30
0.0
 11
481.480806
 21
294.4904
 31
0.0
  0
LINE
  8
0C
  5
7F2
 10
451.412313
 20
326.864144
 30
0.0
 11
477.471673
 21
326.864144
 31
0.0
  0
LINE
  8
0C
  5
7F3
 10
451.412313
 20
328.868711
 30
0.0
 11
477.471673
 21
328.868711
 31
0.0
  0
LINE
  8
0C
  5
7F4
 10
477.471673
 20
314.736519
 30
0.0
 11
453.416879
 21
314.736519
 31
0.0
  0
LINE
  8
0D
  5
7F5
 10
445.398614
 20
306.623037
 30
0.0
 11
445.398614
 21
317.036759
 31
0.0
  0
ARC
  8
0C
  5
7F6
 10
453.416879
 20
310.727386
 30
0.0
 40
4.009132
 50
90.0
 51
120.0
  0
ARC
  8
0C
  5
7F7
 10
453.416879
 20
310.727386
 30
0.0
 40
4.009132
 50
90.0
 51
120.0
  0
ARC
  8
0C
  5
7F8
 10
456.92487
 20
330.873277
 30
0.0
 40
2.004566
 50
180.0
 51
270.0
  0
ARC
  8
0C
  5
7F9
 10
460.934002
 20
330.873277
 30
0.0
 40
2.004566
 50
268.245
 51
0.0
  0
ARC
  8
0C
  5
7FA
 10
460.833774
 20
329.670537
 30
0.0
 40
0.801826
 50
210.0
 51
272.776
  0
ARC
  8
0C
  5
7FB
 10
457.025098
 20
329.670537
 30
0.0
 40
0.801826
 50
270.0
 51
330.0
  0
ARC
  8
0C
  5
7FC
 10
458.929436
 20
329.359829
 30
0.0
 40
1.002283
 50
30.0
 51
150.0
  0
LINE
  8
0C
  5
7FD
 10
456.92487
 20
328.868711
 30
0.0
 11
457.025098
 21
328.868711
 31
0.0
  0
LINE
  8
0C
  5
7FE
 10
460.833774
 20
328.868711
 30
0.0
 11
460.934002
 21
328.868711
 31
0.0
  0
LINE
  8
0C
  5
7FF
 10
460.142199
 20
329.269624
 30
0.0
 11
459.801422
 21
329.860971
 31
0.0
  0
LINE
  8
0C
  5
800
 10
457.721685
 20
329.269624
 30
0.0
 11
458.062461
 21
329.860971
 31
0.0
  0
ARC
  8
0C
  5
801
 10
475.467107
 20
329.229533
 30
0.0
 40
2.004566
 50
0.0
 51
40.0
  0
LINE
  8
0C
  5
802
 10
507.540166
 20
296.795651
 30
0.0
 11
507.540166
 21
327.691028
 31
0.0
  0
LINE
  8
0C
  5
803
 10
483.485372
 20
286.77282
 30
0.0
 11
483.485372
 21
294.4904
 31
0.0
  0
LINE
  8
0C
  5
804
 10
487.494504
 20
294.4904
 30
0.0
 11
487.494504
 21
286.77282
 31
0.0
  0
ARC
  8
0B
  5
805
 10
506.537883
 20
290.781953
 30
0.0
 40
4.009132
 50
270.0
 51
0.0
  0
ARC
  8
0B
  5
806
 10
506.537883
 20
290.781953
 30
0.0
 40
4.009132
 50
270.0
 51
0.0
  0
LINE
  8
0C
  5
807
 10
503.531034
 20
294.4904
 30
0.0
 11
503.531034
 21
296.795651
 31
0.0
  0
LINE
  8
0D
  5
808
 10
501.526468
 20
317.036759
 30
0.0
 11
492.50592
 21
321.852729
 31
0.0
  0
LINE
  8
0D
  5
809
 10
492.50592
 20
301.807067
 30
0.0
 11
501.526468
 21
306.623037
 31
0.0
  0
LINE
  8
0D
  5
80A
 10
483.485372
 20
306.623037
 30
0.0
 11
483.485372
 21
317.036759
 31
0.0
  0
CIRCLE
  8
0D
  5
80B
 10
492.50592
 20
311.829898
 30
0.0
 40
6.013699
  0
LINE
  8
0D
  5
80C
 10
492.50592
 20
301.807067
 30
0.0
 11
483.485372
 21
306.623037
 31
0.0
  0
LINE
  8
0D
  5
80D
 10
491.458534
 20
321.296462
 30
0.0
 11
492.50592
 21
321.852729
 31
0.0
  0
LINE
  8
0D
  5
80E
 10
483.485372
 20
317.036759
 30
0.0
 11
485.229345
 21
317.968882
 31
0.0
  0
LINE
  8
0D
  5
80F
 10
485.229345
 20
317.968882
 30
0.0
 11
491.458534
 21
321.296462
 31
0.0
  0
LINE
  8
0D
  5
810
 10
501.526468
 20
306.623037
 30
0.0
 11
501.526468
 21
317.036759
 31
0.0
  0
ARC
  8
0C
  5
811
 10
505.5356
 20
327.691028
 30
0.0
 40
2.004566
 50
0.0
 51
40.0
  0
LINE
  8
34
  6
PHANTOM
  5
813
 10
654.364618
 20
286.77282
 30
0.0
 11
687.675497
 21
286.77282
 31
0.0
  0
ARC
  8
34
  5
814
 10
654.349584
 20
290.781953
 30
0.0
 40
4.009132
 50
180.0
 51
270.0
  0
ARC
  8
34
  5
815
 10
654.349584
 20
290.781953
 30
0.0
 40
4.009132
 50
180.0
 51
270.0
  0
LINE
  8
38
  6
CENTER
  5
816
 10
694.440908
 20
304.563345
 30
0.0
 11
694.440908
 21
299.9779
 31
0.0
  0
ARC
  8
34
  5
817
 10
694.440908
 20
296.795651
 30
0.0
 40
4.760845
 50
0.0
 51
90.0
  0
ARC
  8
34
  5
818
 10
694.440908
 20
296.795651
 30
0.0
 40
4.760845
 50
90.0
 51
180.0
  0
ARC
  8
34
  5
819
 10
694.440908
 20
296.795651
 30
0.0
 40
4.760845
 50
0.0
 51
90.0
  0
ARC
  8
34
  5
81A
 10
694.440908
 20
296.795651
 30
0.0
 40
4.760845
 50
90.0
 51
180.0
  0
LINE
  8
38
  6
CENTER
  5
81B
 10
691.258659
 20
296.795651
 30
0.0
 11
686.673214
 21
296.795651
 31
0.0
  0
ARC
  8
34
  5
81C
 10
687.675497
 20
288.777387
 30
0.0
 40
2.004566
 50
270.0
 51
0.0
  0
ARC
  8
34
  5
81D
 10
687.675497
 20
288.777387
 30
0.0
 40
2.004566
 50
270.0
 51
0.0
  0
LINE
  8
38
  6
CENTER
  5
81E
 10
694.440908
 20
293.613403
 30
0.0
 11
694.440908
 21
282.362775
 31
0.0
  0
LINE
  8
38
  6
CENTER
  5
81F
 10
702.208602
 20
296.795651
 30
0.0
 11
697.623156
 21
296.795651
 31
0.0
  0
LINE
  8
38
  6
CENTER
  5
820
 10
694.440908
 20
298.389282
 30
0.0
 11
694.440908
 21
295.207033
 31
0.0
  0
LINE
  8
38
  6
CENTER
  5
821
 10
696.029526
 20
296.795651
 30
0.0
 11
692.847277
 21
296.795651
 31
0.0
  0
LINE
  8
34
  5
822
 10
689.680063
 20
296.795651
 30
0.0
 11
689.680063
 21
288.777387
 31
0.0
  0
ARC
  8
34
  5
824
 10
701.206318
 20
288.777387
 30
0.0
 40
2.004566
 50
180.0
 51
270.0
  0
ARC
  8
34
  5
825
 10
701.206318
 20
288.777387
 30
0.0
 40
2.004566
 50
180.0
 51
270.0
  0
LINE
  8
34
  5
826
 10
699.201752
 20
296.795651
 30
0.0
 11
699.201752
 21
288.777387
 31
0.0
  0
LINE
  8
34
  6
PHANTOM
  5
828
 10
794.654183
 20
286.77282
 30
0.0
 11
761.343304
 21
286.77282
 31
0.0
  0
LINE
  8
38
  6
CENTER
  5
82A
 10
754.577894
 20
304.563345
 30
0.0
 11
754.577894
 21
299.9779
 31
0.0
  0
ARC
  8
34
  5
82B
 10
754.577894
 20
296.795651
 30
0.0
 40
4.760845
 50
90.0
 51
180.0
  0
ARC
  8
34
  5
82C
 10
754.577894
 20
296.795651
 30
0.0
 40
4.760845
 50
0.0
 51
90.0
  0
ARC
  8
34
  5
82D
 10
754.577894
 20
296.795651
 30
0.0
 40
4.760845
 50
90.0
 51
180.0
  0
ARC
  8
34
  5
82E
 10
754.577894
 20
296.795651
 30
0.0
 40
4.760845
 50
0.0
 51
90.0
  0
LINE
  8
38
  6
CENTER
  5
82F
 10
754.577894
 20
293.613403
 30
0.0
 11
754.577894
 21
282.45298
 31
0.0
  0
LINE
  8
38
  6
CENTER
  5
830
 10
756.166512
 20
296.795651
 30
0.0
 11
752.984263
 21
296.795651
 31
0.0
  0
LINE
  8
38
  6
CENTER
  5
831
 10
751.395645
 20
296.795651
 30
0.0
 11
746.8102
 21
296.795651
 31
0.0
  0
ARC
  8
34
  5
832
 10
747.812483
 20
288.777387
 30
0.0
 40
2.004566
 50
270.0
 51
0.0
  0
ARC
  8
34
  5
833
 10
747.812483
 20
288.777387
 30
0.0
 40
2.004566
 50
270.0
 51
0.0
  0
LINE
  8
34
  5
834
 10
749.817049
 20
296.795651
 30
0.0
 11
749.817049
 21
288.777387
 31
0.0
  0
LINE
  8
38
  6
CENTER
  5
836
 10
754.577894
 20
298.389282
 30
0.0
 11
754.577894
 21
295.207033
 31
0.0
  0
LINE
  8
38
  6
CENTER
  5
837
 10
762.345588
 20
296.795651
 30
0.0
 11
757.760142
 21
296.795651
 31
0.0
  0
ARC
  8
34
  5
838
 10
761.343304
 20
288.777387
 30
0.0
 40
2.004566
 50
180.0
 51
270.0
  0
ARC
  8
34
  5
839
 10
761.343304
 20
288.777387
 30
0.0
 40
2.004566
 50
180.0
 51
270.0
  0
LINE
  8
34
  5
83A
 10
759.338738
 20
296.795651
 30
0.0
 11
759.338738
 21
288.777387
 31
0.0
  0
ARC
  8
34
  5
83C
 10
794.669218
 20
290.781953
 30
0.0
 40
4.009132
 50
270.0
 51
0.0
  0
ARC
  8
34
  5
83D
 10
794.669218
 20
290.781953
 30
0.0
 40
4.009132
 50
270.0
 51
0.0
  0
TEXT
  8
FF
  5
83E
 10
677.993442
 20
620.583207
 30
0.0
 40
15.034247
  1
取付穴寸法図
 41
0.833333
  0
LINE
  8
38
  6
CENTER
  5
83F
 10
641.279812
 20
407.046792
 30
0.0
 11
813.457014
 21
407.046792
 31
0.0
  0
DIMENSION
  8
FF
  5
840
  2
*D13
 10
694.440908
 20
588.159349
 30
0.0
 11
724.509401
 21
597.492749
 31
0.0
  1
60
 13
754.577894
 23
525.065627
 33
0.0
 14
694.440908
 24
525.065627
 34
0.0
 50
180.0
  3
FSTD3
  0
LINE
  8
34
  6
PHANTOM
  5
841
 10
794.669218
 20
527.320764
 30
0.0
 11
654.349584
 21
527.320764
 31
0.0
  0
LINE
  8
FF
  5
842
 10
463.590053
 20
494.641324
 30
0.0
 11
545.932621
 21
582.922419
 31
0.0
  0
TEXT
  8
FF
  5
843
 10
632.608256
 20
580.569637
 30
0.0
 40
10.022831
  1
取付穴
 41
0.833333
  0
LINE
  8
0C
  5
844
 10
493.909116
 20
462.172363
 30
0.0
 11
493.909116
 21
407.046792
 31
0.0
  0
LINE
  8
0C
  5
845
 10
499.02076
 20
416.533402
 30
0.0
 11
499.02076
 21
470.691769
 31
0.0
  0
LINE
  8
0C
  5
846
 10
499.521902
 20
421.579897
 30
0.0
 11
499.521902
 21
471.192911
 31
0.0
  0
ARC
  8
0D
  5
847
 10
503.531034
 20
455.156381
 30
0.0
 40
4.510274
 50
207.266
 51
152.734
  0
ARC
  8
0D
  5
848
 10
503.531034
 20
455.156381
 30
0.0
 40
5.011416
 50
216.87
 51
143.13
  0
LINE
  8
0D
  5
849
 10
501.636719
 20
457.050696
 30
0.0
 11
505.425349
 21
453.262066
 31
0.0
  0
LINE
  8
0D
  5
84A
 10
505.425349
 20
457.050696
 30
0.0
 11
501.636719
 21
453.262066
 31
0.0
  0
LINE
  8
0C
  5
84B
 10
510.547016
 20
443.379555
 30
0.0
 11
510.547016
 21
466.933208
 31
0.0
  0
LINE
  8
0D
  5
84C
 10
521.074413
 20
374.773277
 30
0.0
 11
510.547016
 21
374.773277
 31
0.0
  0
LINE
  8
0D
  5
84D
 10
521.074413
 20
439.320308
 30
0.0
 11
510.547016
 21
439.320308
 31
0.0
  0
LINE
  8
0C
  5
84E
 10
509.043591
 20
407.046792
 30
0.0
 11
509.043591
 21
375.274418
 31
0.0
  0
LINE
  8
0C
  5
84F
 10
506.938797
 20
397.525103
 30
0.0
 11
506.938797
 21
375.274418
 31
0.0
  0
LINE
  8
0C
  5
850
 10
499.02076
 20
397.560183
 30
0.0
 11
499.02076
 21
343.401816
 31
0.0
  0
LINE
  8
0C
  5
851
 10
493.909116
 20
351.921222
 30
0.0
 11
493.909116
 21
407.046792
 31
0.0
  0
ARC
  8
0C
  5
852
 10
504.533317
 20
392.513687
 30
0.0
 40
5.011416
 50
90.0
 51
180.0
  0
LINE
  8
0C
  5
853
 10
509.043591
 20
407.046792
 30
0.0
 11
509.043591
 21
370.71403
 31
0.0
  0
CIRCLE
  8
0D
  5
854
 10
503.029893
 20
393.014829
 30
0.0
 40
3.006849
  0
LINE
  8
0C
  5
855
 10
506.838568
 20
396.322363
 30
0.0
 11
506.838568
 21
389.707295
 31
0.0
  0
LINE
  8
0D
  5
856
 10
501.767016
 20
394.277706
 30
0.0
 11
504.292769
 21
391.751952
 31
0.0
  0
LINE
  8
0D
  5
857
 10
501.767016
 20
391.751952
 30
0.0
 11
504.292769
 21
394.277706
 31
0.0
  0
ARC
  8
0C
  5
858
 10
464.943135
 20
336.886975
 30
0.0
 40
2.004566
 50
90.0
 51
180.0
  0
ARC
  8
0C
  5
859
 10
452.915738
 20
336.886975
 30
0.0
 40
2.004566
 50
0.0
 51
90.0
  0
ARC
  8
0C
  5
85A
 10
449.407747
 20
335.293345
 30
0.0
 40
2.004566
 50
0.0
 51
15.0
  0
LINE
  8
0C
  5
85B
 10
450.520281
 20
338.891542
 30
0.0
 11
451.347164
 21
335.809521
 31
0.0
  0
LINE
  8
0C
  5
85C
 10
499.521902
 20
392.513687
 30
0.0
 11
499.521902
 21
342.900674
 31
0.0
  0
ARC
  8
0D
  5
85D
 10
503.531034
 20
358.937204
 30
0.0
 40
5.011416
 50
216.87
 51
143.13
  0
ARC
  8
0D
  5
85E
 10
503.531034
 20
358.937204
 30
0.0
 40
4.510274
 50
207.266
 51
152.734
  0
LINE
  8
0C
  5
85F
 10
499.922815
 20
363.106701
 30
0.0
 11
499.922815
 21
365.702615
 31
0.0
  0
LINE
  8
0C
  5
860
 10
510.547016
 20
370.71403
 30
0.0
 11
510.547016
 21
347.160377
 31
0.0
  0
ARC
  8
0C
  5
861
 10
503.931947
 20
352.171793
 30
0.0
 40
4.009132
 50
180.0
 51
270.0
  0
LINE
  8
0C
  5
862
 10
499.922815
 20
345.155811
 30
0.0
 11
508.54245
 21
345.155811
 31
0.0
  0
LINE
  8
0C
  5
863
 10
499.922815
 20
337.498368
 30
0.0
 11
499.922815
 21
354.767706
 31
0.0
  0
ARC
  8
0C
  5
864
 10
495.011628
 20
343.401816
 30
0.0
 40
4.009132
 50
270.0
 51
0.0
  0
ARC
  8
0C
  5
865
 10
495.512769
 20
342.900674
 30
0.0
 40
4.009132
 50
270.0
 51
0.0
  0
ARC
  8
0C
  5
866
 10
503.531034
 20
358.937204
 30
0.0
 40
5.512557
 50
223.342
 51
229.115
  0
ARC
  8
0C
  5
867
 10
503.531034
 20
358.937204
 30
0.0
 40
5.512557
 50
130.885
 51
136.658
  0
ARC
  8
0C
  5
868
 10
508.54245
 20
347.160377
 30
0.0
 40
2.004566
 50
270.0
 51
0.0
  0
ARC
  8
0C
  5
869
 10
506.537883
 20
340.394966
 30
0.0
 40
4.009132
 50
0.0
 51
90.0
  0
ARC
  8
0C
  5
86A
 10
506.537883
 20
340.394966
 30
0.0
 40
4.009132
 50
0.0
 51
90.0
  0
LINE
  8
0C
  5
86B
 10
501.927381
 20
345.155811
 30
0.0
 11
501.927381
 21
335.107923
 31
0.0
  0
LINE
  8
0C
  5
86C
 10
506.537883
 20
344.404099
 30
0.0
 11
501.927381
 21
344.404099
 31
0.0
  0
LINE
  8
0D
  5
86D
 10
505.425349
 20
357.042889
 30
0.0
 11
501.636719
 21
360.831519
 31
0.0
  0
LINE
  8
0D
  5
86E
 10
501.636719
 20
357.042889
 30
0.0
 11
505.425349
 21
360.831519
 31
0.0
  0
LINE
  8
0C
  5
86F
 10
503.931947
 20
348.16266
 30
0.0
 11
510.547016
 21
348.16266
 31
0.0
  0
LINE
  8
0C
  5
870
 10
499.521902
 20
377.679898
 30
0.0
 11
503.029893
 21
377.679898
 31
0.0
  0
ARC
  8
0C
  5
871
 10
503.931947
 20
365.702615
 30
0.0
 40
4.009132
 50
90.0
 51
180.0
  0
CIRCLE
  8
0D
  5
872
 10
503.029893
 20
383.49314
 30
0.0
 40
3.006849
  0
LINE
  8
0C
  5
873
 10
499.521902
 20
387.201587
 30
0.0
 11
506.638112
 21
387.201587
 31
0.0
  0
LINE
  8
0C
  5
874
 10
499.521902
 20
379.684464
 30
0.0
 11
506.337427
 21
379.684464
 31
0.0
  0
LINE
  8
0C
  5
875
 10
499.521902
 20
389.206153
 30
0.0
 11
506.337427
 21
389.206153
 31
0.0
  0
ARC
  8
0C
  5
876
 10
508.54245
 20
370.71403
 30
0.0
 40
2.004566
 50
0.0
 51
75.5224
  0
ARC
  8
0C
  5
877
 10
506.537883
 20
377.479441
 30
0.0
 40
4.009132
 50
308.682
 51
0.0
  0
ARC
  8
0C
  5
878
 10
506.537883
 20
377.479441
 30
0.0
 40
4.009132
 50
308.682
 51
0.0
  0
ARC
  8
0C
  5
879
 10
508.54245
 20
375.274418
 30
0.0
 40
0.501142
 50
270.0
 51
0.0
  0
ARC
  8
0C
  5
87A
 10
507.439938
 20
375.274418
 30
0.0
 40
0.501142
 50
180.0
 51
270.0
  0
LINE
  8
0C
  5
87B
 10
506.938797
 20
377.679898
 30
0.0
 11
503.029893
 21
377.679898
 31
0.0
  0
LINE
  8
0C
  5
87C
 10
508.54245
 20
374.773277
 30
0.0
 11
507.439938
 21
374.773277
 31
0.0
  0
ARC
  8
0C
  5
87D
 10
508.041308
 20
370.71403
 30
0.0
 40
1.002283
 50
270.0
 51
0.0
  0
LINE
  8
0C
  5
87E
 10
503.931947
 20
369.711747
 30
0.0
 11
510.547016
 21
369.711747
 31
0.0
  0
ARC
  8
0C
  5
87F
 10
506.337427
 20
386.800674
 30
0.0
 40
0.501142
 50
0.0
 51
53.0674
  0
ARC
  8
0C
  5
880
 10
506.337427
 20
380.185605
 30
0.0
 40
0.501142
 50
270.0
 51
0.0
  0
ARC
  8
0C
  5
881
 10
506.337427
 20
389.707295
 30
0.0
 40
0.501142
 50
270.0
 51
0.0
  0
LINE
  8
0C
  5
882
 10
506.838568
 20
386.800674
 30
0.0
 11
506.838568
 21
380.185605
 31
0.0
  0
LINE
  8
0D
  5
883
 10
501.767016
 20
382.230263
 30
0.0
 11
504.292769
 21
384.756016
 31
0.0
  0
LINE
  8
0D
  5
884
 10
501.767016
 20
384.756016
 30
0.0
 11
504.292769
 21
382.230263
 31
0.0
  0
LINE
  8
0C
  5
885
 10
447.904322
 20
415.566199
 30
0.0
 11
447.904322
 21
406.846336
 31
0.0
  0
LINE
  8
0C
  5
886
 10
447.904322
 20
398.527386
 30
0.0
 11
447.904322
 21
407.247249
 31
0.0
  0
LINE
  8
0C
  5
887
 10
509.043591
 20
407.046792
 30
0.0
 11
509.043591
 21
438.819167
 31
0.0
  0
LINE
  8
0C
  5
888
 10
506.938797
 20
416.568482
 30
0.0
 11
506.938797
 21
438.819167
 31
0.0
  0
LINE
  8
0C
  5
889
 10
509.043591
 20
407.046792
 30
0.0
 11
509.043591
 21
443.379555
 31
0.0
  0
ARC
  8
0C
  5
88A
 10
504.533317
 20
421.579897
 30
0.0
 40
5.011416
 50
180.0
 51
270.0
  0
CIRCLE
  8
0D
  5
88B
 10
502.779322
 20
407.046792
 30
0.0
 40
4.009132
  0
LINE
  8
0D
  5
88C
 10
501.777039
 20
407.547934
 30
0.0
 11
498.805269
 21
407.547934
 31
0.0
  0
LINE
  8
0D
  5
88D
 10
501.777039
 20
406.545651
 30
0.0
 11
498.805269
 21
406.545651
 31
0.0
  0
CIRCLE
  8
0D
  5
88E
 10
503.029893
 20
421.078756
 30
0.0
 40
3.006849
  0
LINE
  8
0C
  5
88F
 10
499.521902
 20
424.887432
 30
0.0
 11
506.337427
 21
424.887432
 31
0.0
  0
ARC
  8
0C
  5
890
 10
507.94108
 20
407.046792
 30
0.0
 40
12.027397
 50
143.731
 51
216.269
  0
ARC
  8
0C
  5
891
 10
495.011628
 20
397.560183
 30
0.0
 40
4.009132
 50
0.0
 51
36.2688
  0
ARC
  8
0C
  5
892
 10
495.011628
 20
416.533402
 30
0.0
 40
4.009132
 50
323.731
 51
0.0
  0
LINE
  8
0C
  5
893
 10
509.043591
 20
407.046792
 30
0.0
 11
509.043591
 21
414.563916
 31
0.0
  0
ARC
  8
0C
  5
894
 10
507.039025
 20
399.529669
 30
0.0
 40
2.004566
 50
270.0
 51
0.0
  0
LINE
  8
0C
  5
895
 10
509.043591
 20
407.046792
 30
0.0
 11
509.043591
 21
399.529669
 31
0.0
  0
LINE
  8
0C
  5
896
 10
507.039025
 20
397.525103
 30
0.0
 11
504.533317
 21
397.525103
 31
0.0
  0
ARC
  8
0D
  5
897
 10
503.781605
 20
408.049075
 30
0.0
 40
0.501142
 50
180.0
 51
270.0
  0
ARC
  8
0D
  5
898
 10
503.781605
 20
406.044509
 30
0.0
 40
0.501142
 50
90.0
 51
180.0
  0
ARC
  8
0D
  5
899
 10
501.777039
 20
406.044509
 30
0.0
 40
0.501142
 50
0.0
 51
90.0
  0
ARC
  8
0D
  5
89A
 10
501.777039
 20
408.049075
 30
0.0
 40
0.501142
 50
270.0
 51
0.0
  0
LINE
  8
0D
  5
89B
 10
506.758386
 20
407.547934
 30
0.0
 11
503.781605
 21
407.547934
 31
0.0
  0
LINE
  8
0D
  5
89C
 10
506.758386
 20
406.545651
 30
0.0
 11
503.781605
 21
406.545651
 31
0.0
  0
LINE
  8
0D
  5
89D
 10
502.27818
 20
409.5525
 30
0.0
 11
502.27818
 21
408.049075
 31
0.0
  0
LINE
  8
0D
  5
89E
 10
503.280463
 20
409.5525
 30
0.0
 11
503.280463
 21
408.049075
 31
0.0
  0
LINE
  8
0D
  5
89F
 10
502.27818
 20
409.5525
 30
0.0
 11
503.280463
 21
409.5525
 31
0.0
  0
LINE
  8
0D
  5
8A0
 10
502.27818
 20
404.541085
 30
0.0
 11
503.280463
 21
404.541085
 31
0.0
  0
LINE
  8
0D
  5
8A1
 10
503.280463
 20
406.044509
 30
0.0
 11
503.280463
 21
404.541085
 31
0.0
  0
LINE
  8
0D
  5
8A2
 10
502.27818
 20
406.044509
 30
0.0
 11
502.27818
 21
404.541085
 31
0.0
  0
ARC
  8
0C
  5
8A3
 10
506.337427
 20
396.322363
 30
0.0
 40
0.501142
 50
0.0
 51
90.0
  0
LINE
  8
0C
  5
8A4
 10
501.977495
 20
396.823505
 30
0.0
 11
506.337427
 21
396.823505
 31
0.0
  0
ARC
  8
0C
  5
8A5
 10
507.039025
 20
414.563916
 30
0.0
 40
2.004566
 50
0.0
 51
90.0
  0
LINE
  8
0C
  5
8A6
 10
507.039025
 20
416.568482
 30
0.0
 11
504.533317
 21
416.568482
 31
0.0
  0
ARC
  8
0C
  5
8A7
 10
507.039025
 20
414.563916
 30
0.0
 40
2.004566
 50
0.0
 51
90.0
  0
LINE
  8
0C
  5
8A8
 10
507.039025
 20
416.568482
 30
0.0
 11
504.533317
 21
416.568482
 31
0.0
  0
ARC
  8
0C
  5
8A9
 10
506.337427
 20
424.38629
 30
0.0
 40
0.501142
 50
0.0
 51
90.0
  0
ARC
  8
0C
  5
8AA
 10
506.337427
 20
417.771222
 30
0.0
 40
0.501142
 50
270.0
 51
0.0
  0
LINE
  8
0D
  5
8AB
 10
501.767016
 20
422.341633
 30
0.0
 11
504.292769
 21
419.815879
 31
0.0
  0
LINE
  8
0D
  5
8AC
 10
501.767016
 20
419.815879
 30
0.0
 11
504.292769
 21
422.341633
 31
0.0
  0
LINE
  8
0C
  5
8AD
 10
501.977495
 20
417.27008
 30
0.0
 11
506.337427
 21
417.27008
 31
0.0
  0
LINE
  8
0C
  5
8AE
 10
506.838568
 20
417.771222
 30
0.0
 11
506.838568
 21
424.38629
 31
0.0
  0
LINE
  8
0C
  5
8AF
 10
499.521902
 20
436.413687
 30
0.0
 11
503.029893
 21
436.413687
 31
0.0
  0
ARC
  8
0C
  5
8B0
 10
503.931947
 20
448.39097
 30
0.0
 40
4.009132
 50
180.0
 51
270.0
  0
CIRCLE
  8
0D
  5
8B1
 10
503.029893
 20
430.600445
 30
0.0
 40
3.006849
  0
LINE
  8
0C
  5
8B2
 10
499.521902
 20
426.891998
 30
0.0
 11
506.638112
 21
426.891998
 31
0.0
  0
LINE
  8
0C
  5
8B3
 10
499.521902
 20
434.409121
 30
0.0
 11
506.337427
 21
434.409121
 31
0.0
  0
ARC
  8
0C
  5
8B4
 10
503.531034
 20
455.156381
 30
0.0
 40
5.512557
 50
223.342
 51
229.115
  0
LINE
  8
0C
  5
8B5
 10
499.922815
 20
450.986884
 30
0.0
 11
499.922815
 21
448.39097
 31
0.0
  0
ARC
  8
0C
  5
8B6
 10
506.537883
 20
436.614144
 30
0.0
 40
4.009132
 50
0.0
 51
51.3178
  0
ARC
  8
0C
  5
8B7
 10
507.439938
 20
438.819167
 30
0.0
 40
0.501142
 50
90.0
 51
180.0
  0
ARC
  8
0C
  5
8B8
 10
508.54245
 20
438.819167
 30
0.0
 40
0.501142
 50
0.0
 51
90.0
  0
LINE
  8
0C
  5
8B9
 10
508.54245
 20
439.320308
 30
0.0
 11
507.439938
 21
439.320308
 31
0.0
  0
LINE
  8
0C
  5
8BA
 10
506.938797
 20
436.413687
 30
0.0
 11
503.029893
 21
436.413687
 31
0.0
  0
ARC
  8
0C
  5
8BB
 10
506.337427
 20
433.907979
 30
0.0
 40
0.501142
 50
0.0
 51
90.0
  0
ARC
  8
0C
  5
8BC
 10
506.337427
 20
427.292911
 30
0.0
 40
0.501142
 50
306.933
 51
0.0
  0
LINE
  8
0D
  5
8BD
 10
501.767016
 20
429.337569
 30
0.0
 11
504.292769
 21
431.863322
 31
0.0
  0
LINE
  8
0D
  5
8BE
 10
501.767016
 20
431.863322
 30
0.0
 11
504.292769
 21
429.337569
 31
0.0
  0
LINE
  8
0C
  5
8BF
 10
506.838568
 20
427.292911
 30
0.0
 11
506.838568
 21
433.907979
 31
0.0
  0
ARC
  8
0C
  5
8C0
 10
508.54245
 20
443.379555
 30
0.0
 40
2.004566
 50
284.478
 51
0.0
  0
ARC
  8
0C
  5
8C1
 10
508.041308
 20
443.379555
 30
0.0
 40
1.002283
 50
0.0
 51
90.0
  0
LINE
  8
0C
  5
8C2
 10
503.531034
 20
444.381838
 30
0.0
 11
510.547016
 21
444.381838
 31
0.0
  0
LINE
  8
0D
  6
PHANTOM
  5
8C3
 10
521.074413
 20
439.320308
 30
0.0
 11
521.074413
 21
374.773277
 31
0.0
  0
DIMENSION
  8
FF
  5
8C4
  2
*D7
 10
552.577758
 20
517.297933
 30
0.0
 11
545.911058
 21
541.297967
 31
0.0
  1
15
 13
492.50592
 23
502.263687
 33
0.0
 14
507.540166
 24
517.297933
 34
0.0
 50
90.0
  3
FSTD1
  0
LINE
  8
10
  6
CENTER
  5
8C5
 10
466.446559
 20
518.891564
 30
0.0
 11
466.446559
 21
515.709315
 31
0.0
  0
LINE
  8
0C
  5
8C6
 10
503.531034
 20
519.603185
 30
0.0
 11
503.531034
 21
517.297933
 31
0.0
  0
LINE
  8
0C
  5
8C7
 10
481.480806
 20
517.297933
 30
0.0
 11
481.480806
 21
519.603185
 31
0.0
  0
LINE
  8
0C
  5
8C8
 10
447.40318
 20
519.603185
 30
0.0
 11
447.40318
 21
517.297933
 31
0.0
  0
CIRCLE
  8
0C
  5
8C9
 10
466.446559
 20
517.297933
 30
0.0
 40
4.760845
  0
CIRCLE
  8
0D
  5
8CA
 10
492.50592
 20
502.263687
 30
0.0
 40
10.523973
  0
CIRCLE
  8
0D
  5
8CB
 10
492.50592
 20
502.263687
 30
0.0
 40
13.02968
  0
LINE
  8
0C
  5
8CC
 10
477.471673
 20
517.297933
 30
0.0
 11
507.540166
 21
517.297933
 31
0.0
  0
LINE
  8
0C
  5
8CD
 10
477.471673
 20
517.297933
 30
0.0
 11
477.471673
 21
484.864052
 31
0.0
  0
LINE
  8
0C
  5
8CE
 10
451.412313
 20
517.297933
 30
0.0
 11
451.412313
 21
478.80024
 31
0.0
  0
LINE
  8
0C
  5
8CF
 10
470.255235
 20
485.224874
 30
0.0
 11
470.255235
 21
498.855924
 31
0.0
  0
LINE
  8
0C
  5
8D0
 10
475.021091
 20
497.14202
 30
0.0
 11
476.519505
 21
486.938778
 31
0.0
  0
LINE
  8
0C
  5
8D1
 10
472.760943
 20
496.851358
 30
0.0
 11
472.760943
 21
484.222591
 31
0.0
  0
ARC
  8
0C
  5
8D2
 10
464.943135
 20
477.206609
 30
0.0
 40
2.004566
 50
180.0
 51
270.0
  0
LINE
  8
0C
  5
8D3
 10
451.412313
 20
485.224874
 30
0.0
 11
477.441605
 21
485.224874
 31
0.0
  0
ARC
  8
0C
  5
8D4
 10
456.92487
 20
483.220308
 30
0.0
 40
2.004566
 50
90.0
 51
180.0
  0
ARC
  8
0C
  5
8D5
 10
452.915738
 20
477.206609
 30
0.0
 40
2.004566
 50
270.0
 51
0.0
  0
ARC
  8
0C
  5
8D6
 10
449.407747
 20
478.80024
 30
0.0
 40
2.004566
 50
345.0
 51
0.0
  0
LINE
  8
0C
  5
8D7
 10
450.520281
 20
475.202043
 30
0.0
 11
451.347164
 21
478.284064
 31
0.0
  0
ARC
  8
0C
  5
8D8
 10
458.929436
 20
484.733755
 30
0.0
 40
1.002283
 50
210.0
 51
330.0
  0
ARC
  8
0C
  5
8D9
 10
457.025098
 20
484.423048
 30
0.0
 40
0.801826
 50
30.0
 51
90.0
  0
ARC
  8
0C
  5
8DA
 10
460.833774
 20
484.423048
 30
0.0
 40
0.801826
 50
87.2244
 51
150.0
  0
ARC
  8
0C
  5
8DB
 10
460.934002
 20
483.220308
 30
0.0
 40
2.004566
 50
0.0
 51
91.7554
  0
LINE
  8
0C
  5
8DC
 10
454.920304
 20
477.206609
 30
0.0
 11
454.920304
 21
483.220308
 31
0.0
  0
LINE
  8
0C
  5
8DD
 10
457.721685
 20
484.823961
 30
0.0
 11
458.062461
 21
484.232614
 31
0.0
  0
LINE
  8
0C
  5
8DE
 10
460.142199
 20
484.823961
 30
0.0
 11
459.801422
 21
484.232614
 31
0.0
  0
LINE
  8
0C
  5
8DF
 10
460.833774
 20
485.224874
 30
0.0
 11
460.934002
 21
485.224874
 31
0.0
  0
LINE
  8
0C
  5
8E0
 10
456.92487
 20
485.224874
 30
0.0
 11
457.025098
 21
485.224874
 31
0.0
  0
LINE
  8
0C
  5
8E1
 10
462.938569
 20
483.220308
 30
0.0
 11
462.938569
 21
477.206609
 31
0.0
  0
LINE
  8
0C
  5
8E2
 10
477.005612
 20
483.576118
 30
0.0
 11
469.979607
 21
475.202043
 31
0.0
  0
ARC
  8
0C
  5
8E3
 10
474.765509
 20
484.222591
 30
0.0
 40
2.004566
 50
180.0
 51
270.0
  0
ARC
  8
0C
  5
8E4
 10
475.467107
 20
484.864052
 30
0.0
 40
2.004566
 50
320.0
 51
0.0
  0
ARC
  8
0C
  5
8E5
 10
478.504025
 20
487.22944
 30
0.0
 40
2.004566
 50
188.366
 51
239.09
  0
LINE
  8
0C
  5
8E6
 10
475.863009
 20
482.218025
 30
0.0
 11
474.765509
 21
482.218025
 31
0.0
  0
LINE
  8
FF
  5
8E7
 10
463.590053
 20
494.641324
 30
0.0
 11
476.506475
 21
502.710204
 31
0.0
  0
LINE
  8
FF
  5
8E8
 10
470.741342
 20
508.087453
 30
0.0
 11
463.590053
 21
494.641324
 31
0.0
  0
LINE
  8
0C
  5
8E9
 10
451.412313
 20
498.855924
 30
0.0
 11
471.75866
 21
498.855924
 31
0.0
  0
LINE
  8
0C
  5
8EA
 10
456.423728
 20
487.22944
 30
0.0
 11
466.446559
 21
487.22944
 31
0.0
  0
LINE
  8
0C
  5
8EB
 10
457.52624
 20
497.653185
 30
0.0
 11
465.344048
 21
497.653185
 31
0.0
  0
LINE
  8
0C
  5
8EC
 10
470.255235
 20
487.22944
 30
0.0
 11
451.412313
 21
487.22944
 31
0.0
  0
CIRCLE
  8
0D
  5
8ED
 10
461.435144
 20
492.541541
 30
0.0
 40
3.006849
  0
LINE
  8
0C
  5
8EE
 10
458.12761
 20
496.350217
 30
0.0
 11
464.742678
 21
496.350217
 31
0.0
  0
LINE
  8
0C
  5
8EF
 10
458.12761
 20
488.732865
 30
0.0
 11
464.742678
 21
488.732865
 31
0.0
  0
LINE
  8
0C
  5
8F0
 10
477.471673
 20
499.357066
 30
0.0
 11
451.412313
 21
499.357066
 31
0.0
  0
LINE
  8
0D
  5
8F1
 10
445.398614
 20
507.470548
 30
0.0
 11
445.398614
 21
497.056826
 31
0.0
  0
LINE
  8
0C
  5
8F2
 10
451.412313
 20
488.301883
 30
0.0
 11
456.423728
 21
488.301883
 31
0.0
  0
ARC
  8
0C
  5
8F3
 10
457.025098
 20
498.354783
 30
0.0
 40
0.501142
 50
0.0
 51
90.0
  0
LINE
  8
0C
  5
8F4
 10
456.423728
 20
488.301883
 30
0.0
 11
456.423728
 21
487.22944
 31
0.0
  0
LINE
  8
0C
  5
8F5
 10
457.52624
 20
498.354783
 30
0.0
 11
457.52624
 21
487.22944
 31
0.0
  0
ARC
  8
0C
  5
8F6
 10
458.12761
 20
495.849075
 30
0.0
 40
0.501142
 50
90.0
 51
180.0
  0
ARC
  8
0C
  5
8F7
 10
458.12761
 20
489.234007
 30
0.0
 40
0.501142
 50
180.0
 51
270.0
  0
LINE
  8
0D
  5
8F8
 10
460.172267
 20
493.804418
 30
0.0
 11
462.698021
 21
491.278664
 31
0.0
  0
LINE
  8
0D
  5
8F9
 10
460.172267
 20
491.278664
 30
0.0
 11
462.698021
 21
493.804418
 31
0.0
  0
LINE
  8
0C
  5
8FA
 10
457.626468
 20
495.849075
 30
0.0
 11
457.626468
 21
489.234007
 31
0.0
  0
LINE
  8
10
  6
CENTER
  5
8FB
 10
463.264311
 20
517.297933
 30
0.0
 11
458.678865
 21
517.297933
 31
0.0
  0
ARC
  8
0C
  5
8FC
 10
473.036571
 20
496.851358
 30
0.0
 40
2.004566
 50
8.36587
 51
90.0
  0
ARC
  8
0C
  5
8FD
 10
465.84519
 20
498.354783
 30
0.0
 40
0.501142
 50
90.0
 51
180.0
  0
LINE
  8
0C
  5
8FE
 10
466.446559
 20
488.301883
 30
0.0
 11
466.446559
 21
487.22944
 31
0.0
  0
LINE
  8
0C
  5
8FF
 10
469.754094
 20
488.301883
 30
0.0
 11
466.446559
 21
488.301883
 31
0.0
  0
LINE
  8
0C
  5
900
 10
469.754094
 20
488.301883
 30
0.0
 11
469.754094
 21
487.22944
 31
0.0
  0
LINE
  8
0C
  5
901
 10
465.344048
 20
498.354783
 30
0.0
 11
465.344048
 21
487.22944
 31
0.0
  0
LINE
  8
0C
  5
902
 10
470.255235
 20
498.855924
 30
0.0
 11
473.036571
 21
498.855924
 31
0.0
  0
LINE
  8
0C
  5
903
 10
470.255235
 20
496.851358
 30
0.0
 11
472.760943
 21
496.851358
 31
0.0
  0
ARC
  8
0C
  5
904
 10
464.742678
 20
495.849075
 30
0.0
 40
0.501142
 50
0.0
 51
90.0
  0
ARC
  8
0C
  5
905
 10
464.742678
 20
489.234007
 30
0.0
 40
0.501142
 50
270.0
 51
0.0
  0
LINE
  8
0C
  5
906
 10
465.24382
 20
495.849075
 30
0.0
 11
465.24382
 21
489.234007
 31
0.0
  0
LINE
  8
0C
  5
907
 10
476.479413
 20
487.22944
 30
0.0
 11
477.471673
 21
487.22944
 31
0.0
  0
LINE
  8
10
  6
CENTER
  5
908
 10
474.214253
 20
517.297933
 30
0.0
 11
469.628808
 21
517.297933
 31
0.0
  0
LINE
  8
10
  6
CENTER
  5
909
 10
468.04019
 20
517.297933
 30
0.0
 11
464.857941
 21
517.297933
 31
0.0
  0
LINE
  8
10
  6
CENTER
  5
90A
 10
466.446559
 20
514.115685
 30
0.0
 11
466.446559
 21
509.530239
 31
0.0
  0
LINE
  8
0C
  5
90B
 10
507.540166
 20
517.297933
 30
0.0
 11
507.540166
 21
486.402557
 31
0.0
  0
LINE
  8
0C
  5
90C
 10
498.018477
 20
474.325045
 30
0.0
 11
507.074105
 21
485.114623
 31
0.0
  0
ARC
  8
0C
  5
90D
 10
503.931947
 20
461.921792
 30
0.0
 40
4.009132
 50
90.0
 51
180.0
  0
LINE
  8
0C
  5
90E
 10
499.922815
 20
468.937774
 30
0.0
 11
508.54245
 21
468.937774
 31
0.0
  0
ARC
  8
0C
  5
90F
 10
495.011628
 20
470.691769
 30
0.0
 40
4.009132
 50
0.0
 51
90.0
  0
ARC
  8
0C
  5
910
 10
495.512769
 20
471.192911
 30
0.0
 40
4.009132
 50
0.0
 51
90.0
  0
LINE
  8
0C
  5
911
 10
499.922815
 20
476.595217
 30
0.0
 11
499.922815
 21
459.325879
 31
0.0
  0
ARC
  8
0C
  5
912
 10
503.531034
 20
455.156381
 30
0.0
 40
5.512557
 50
130.885
 51
136.658
  0
LINE
  8
0C
  5
913
 10
501.927381
 20
468.937774
 30
0.0
 11
501.927381
 21
478.985662
 31
0.0
  0
ARC
  8
0C
  5
914
 10
506.537883
 20
473.698619
 30
0.0
 40
4.009132
 50
270.0
 51
0.0
  0
ARC
  8
0C
  5
915
 10
508.54245
 20
466.933208
 30
0.0
 40
2.004566
 50
0.0
 51
90.0
  0
LINE
  8
0C
  5
916
 10
503.931947
 20
465.930925
 30
0.0
 11
510.547016
 21
465.930925
 31
0.0
  0
LINE
  8
0C
  5
917
 10
506.537883
 20
469.689486
 30
0.0
 11
501.927381
 21
469.689486
 31
0.0
  0
ARC
  8
0C
  5
918
 10
505.5356
 20
486.402557
 30
0.0
 40
2.004566
 50
320.0
 51
0.0
  0
LINE
  8
0D
  5
919
 10
492.50592
 20
512.286518
 30
0.0
 11
501.526468
 21
507.470548
 31
0.0
  0
LINE
  8
0D
  5
91A
 10
501.526468
 20
497.056826
 30
0.0
 11
492.50592
 21
492.240856
 31
0.0
  0
LINE
  8
0D
  5
91B
 10
483.485372
 20
507.470548
 30
0.0
 11
483.485372
 21
497.056826
 31
0.0
  0
CIRCLE
  8
0D
  5
91C
 10
492.50592
 20
502.263687
 30
0.0
 40
6.013699
  0
LINE
  8
0D
  5
91D
 10
491.458534
 20
492.802134
 30
0.0
 11
492.50592
 21
492.240856
 31
0.0
  0
LINE
  8
0D
  5
91E
 10
485.229345
 20
496.124703
 30
0.0
 11
491.458534
 21
492.802134
 31
0.0
  0
LINE
  8
0D
  5
91F
 10
483.485372
 20
497.056826
 30
0.0
 11
485.229345
 21
496.124703
 31
0.0
  0
LINE
  8
0D
  5
920
 10
492.50592
 20
512.286518
 30
0.0
 11
483.485372
 21
507.470548
 31
0.0
  0
LINE
  8
0D
  5
921
 10
501.526468
 20
507.470548
 30
0.0
 11
501.526468
 21
497.056826
 31
0.0
  0
LINE
  8
0C
  5
922
 10
503.531034
 20
519.603185
 30
0.0
 11
481.480806
 21
519.603185
 31
0.0
  0
LINE
  8
10
  6
CENTER
  5
923
 10
466.446559
 20
525.065627
 30
0.0
 11
466.446559
 21
520.480182
 31
0.0
  0
LINE
  8
0C
  5
924
 10
483.485372
 20
527.320764
 30
0.0
 11
483.485372
 21
519.603185
 31
0.0
  0
LINE
  8
0C
  5
925
 10
487.494504
 20
519.603185
 30
0.0
 11
487.494504
 21
527.320764
 31
0.0
  0
ARC
  8
0B
  5
926
 10
506.537883
 20
523.311632
 30
0.0
 40
4.009132
 50
0.0
 51
90.0
  0
LINE
  8
FF
  5
927
 10
673.057198
 20
565.076769
 30
0.0
 11
631.086593
 21
565.076769
 31
0.0
  0
ARC
  8
34
  5
928
 10
654.349584
 20
523.311632
 30
0.0
 40
4.009132
 50
90.0
 51
180.0
  0
LINE
  8
38
  6
CENTER
  5
929
 10
694.440908
 20
518.891564
 30
0.0
 11
694.440908
 21
515.709315
 31
0.0
  0
CIRCLE
  8
33
  5
92A
 10
694.440908
 20
517.297933
 30
0.0
 40
4.760845
  0
LINE
  8
38
  6
CENTER
  5
92B
 10
691.258659
 20
517.297933
 30
0.0
 11
686.673214
 21
517.297933
 31
0.0
  0
LINE
  8
38
  6
CENTER
  5
92C
 10
702.208602
 20
517.297933
 30
0.0
 11
697.623156
 21
517.297933
 31
0.0
  0
LINE
  8
38
  6
CENTER
  5
92D
 10
696.029526
 20
517.297933
 30
0.0
 11
692.847277
 21
517.297933
 31
0.0
  0
LINE
  8
38
  6
CENTER
  5
92E
 10
694.440908
 20
514.115685
 30
0.0
 11
694.440908
 21
509.530239
 31
0.0
  0
LINE
  8
FF
  5
92F
 10
691.664583
 20
521.166746
 30
0.0
 11
674.059481
 21
565.076769
 31
0.0
  0
LINE
  8
FF
  5
930
 10
682.531279
 20
533.354008
 30
0.0
 11
691.664583
 21
521.166746
 31
0.0
  0
LINE
  8
FF
  5
931
 10
691.664583
 20
521.166746
 30
0.0
 11
689.848948
 21
536.28769
 31
0.0
  0
LINE
  8
38
  6
CENTER
  5
932
 10
694.440908
 20
525.065627
 30
0.0
 11
694.440908
 21
520.480182
 31
0.0
  0
TEXT
  8
FF
  5
933
 10
454.532277
 20
597.499537
 30
0.0
 40
8.018265
  1
※１
 41
0.833333
  0
LINE
  8
FF
  5
934
 10
545.932621
 20
582.922419
 30
0.0
 11
579.70455
 21
582.922419
 31
0.0
  0
TEXT
  8
FF
  5
935
 10
550.944036
 20
587.933835
 30
0.0
 40
8.018265
  1
M3.5
 41
1.078973
  0
TEXT
  8
FF
  5
936
 10
537.117541
 20
599.535262
 30
0.0
 40
10.022831
  1
コイル端子
 41
0.833333
  0
TEXT
  8
FF
  5
937
 10
632.608256
 20
567.527491
 30
0.0
 40
10.022831
  1
４－Ｍ８
 41
0.833333
  0
DIMENSION
  8
FF
  5
938
  2
*D8
 10
845.895907
 20
527.320764
 30
0.0
 11
839.229207
 21
550.654131
 31
0.0
  1
10
 13
762.345588
 23
517.297933
 33
0.0
 14
794.669218
 24
527.320764
 34
0.0
 50
90.0
  3
FSTD1
  0
LINE
  8
38
  6
CENTER
  5
939
 10
754.577894
 20
518.891564
 30
0.0
 11
754.577894
 21
515.709315
 31
0.0
  0
CIRCLE
  8
33
  5
93A
 10
754.577894
 20
517.297933
 30
0.0
 40
4.760845
  0
LINE
  8
38
  6
CENTER
  5
93B
 10
756.166512
 20
517.297933
 30
0.0
 11
752.984263
 21
517.297933
 31
0.0
  0
LINE
  8
38
  6
CENTER
  5
93C
 10
751.395645
 20
517.297933
 30
0.0
 11
746.8102
 21
517.297933
 31
0.0
  0
LINE
  8
38
  6
CENTER
  5
93D
 10
754.577894
 20
514.115685
 30
0.0
 11
754.577894
 21
509.530239
 31
0.0
  0
LINE
  8
38
  6
CENTER
  5
93E
 10
762.345588
 20
517.297933
 30
0.0
 11
757.760142
 21
517.297933
 31
0.0
  0
LINE
  8
38
  6
CENTER
  5
93F
 10
754.577894
 20
525.065627
 30
0.0
 11
754.577894
 21
520.480182
 31
0.0
  0
ARC
  8
34
  5
940
 10
794.669218
 20
523.311632
 30
0.0
 40
4.009132
 50
0.0
 51
90.0
  0
DIMENSION
  8
FF
  5
B4D
  2
*D9
 10
492.50592
 20
548.694452
 30
0.0
 11
464.441993
 21
555.361152
 31
0.0
  1
56
 13
436.378066
 23
548.694452
 33
0.0
 14
492.50592
 24
502.263687
 34
0.0
  3
FSTD1
1001
ACAD
1000
DSTYLE
1002
{
1070
    40
1040
1.0
1002
}
  0
DIMENSION
  8
FF
  5
B6A
  2
*D10
 10
521.074413
 20
595.035011
 30
0.0
 11
436.379069
 21
601.701711
 31
0.0
  1
(170)
 13
351.683724
 23
439.320308
 33
0.0
 14
521.074413
 24
439.320308
 34
0.0
  3
FSTD1
1001
ACAD
1000
DSTYLE
1002
{
1070
    40
1040
1.0
1002
}
  0
TEXT
  8
FF
  5
B8F
 10
295.398665
 20
368.324867
 30
0.0
 40
10.0
  1
※１
 41
0.8333
  0
LINE
  8
FF
  5
B90
 10
315.685914
 20
375.75685
 30
0.0
 11
356.936656
 21
395.35026
 31
0.0
  0
TEXT
  8
FF
  5
DFF
 10
34.897824
 20
91.771864
 30
0.0
 40
12.0
  1
Type
  0
ARC
  8
FF
  5
E00
 10
9.509434
 20
100.075375
 30
0.0
 40
10.037899
 50
98.442625
 51
137.3304
1001
ACAD
1000
ASC_BOUNDS
1002
{
1070
    19
1002
}
  0
POLYLINE
  8
FF
  5
E01
 66
     1
 10
0.0
 20
0.0
 30
0.0
 70
   128
  0
VERTEX
  8
FF
  5
E4D
 10
8.998814
 20
108.93774
 30
0.0
  0
VERTEX
  8
FF
  5
E4E
 10
7.449688
 20
108.714635
 30
0.0
  0
VERTEX
  8
FF
  5
E4F
 10
5.928533
 20
108.173868
 30
0.0
  0
VERTEX
  8
FF
  5
E50
 10
4.484566
 20
107.332934
 30
0.0
  0
VERTEX
  8
FF
  5
E51
 10
3.164505
 20
106.219043
 30
0.0
  0
VERTEX
  8
FF
  5
E52
 10
2.01106
 20
104.868234
 30
0.0
  0
VERTEX
  8
FF
  5
E53
 10
1.061551
 20
103.324211
 30
0.0
  0
VERTEX
  8
FF
  5
E54
 10
0.346698
 20
101.63693
 30
0.0
  0
SEQEND
  8
FF
  5
E55
  0
LINE
  8
FF
  5
E02
 10
2.719007
 20
102.895864
 30
0.0
 11
15.754946
 21
102.895864
 31
0.0
  0
LINE
  8
FF
  5
E03
 10
2.444129
 20
101.599864
 30
0.0
 11
16.897824
 21
101.599864
 31
0.0
  0
ARC
  8
FF
  5
E04
 10
6.657268
 20
99.313339
 30
0.0
 40
6.759194
 50
186.002385
 51
276.412304
1001
ACAD
1000
ASC_BOUNDS
1002
{
1070
    19
1002
}
  0
ARC
  8
FF
  5
E05
 10
6.348435
 20
98.971831
 30
0.0
 40
7.56
 50
182.729155
 51
279.960292
1001
ACAD
1000
ASC_BOUNDS
1002
{
1070
    19
1002
}
  0
LINE
  8
FF
  5
E06
 10
-14.962176
 20
91.771864
 30
0.0
 11
-11.667415
 21
107.276619
 31
0.0
  0
LINE
  8
FF
  5
E07
 10
-9.53361
 20
91.771864
 30
0.0
 11
-8.08011
 21
98.611864
 31
0.0
  0
LINE
  8
FF
  5
E08
 10
-14.962176
 20
91.771864
 30
0.0
 11
-9.53361
 21
91.771864
 31
0.0
  0
ARC
  8
FF
  5
E09
 10
-8.586215
 20
106.621864
 30
0.0
 40
3.15
 50
90.0
 51
168.003101
  0
LINE
  8
FF
  5
E0A
 10
2.722824
 20
109.771864
 30
0.0
 11
2.128824
 21
106.878759
 31
0.0
  0
LINE
  8
FF
  5
E0B
 10
-8.08011
 20
98.611864
 30
0.0
 11
-1.20299
 21
98.611864
 31
0.0
  0
LINE
  8
FF
  5
E0C
 10
-7.16976
 20
102.895864
 30
0.0
 11
-0.391673
 21
102.895864
 31
0.0
  0
LINE
  8
FF
  5
E0D
 10
-5.958964
 20
105.163864
 30
0.0
 11
0.84778
 21
105.163864
 31
0.0
  0
ARC
  8
FF
  5
E0E
 10
-5.958964
 20
104.263864
 30
0.0
 40
0.9
 50
90.0
 51
168.003101
  0
LINE
  8
FF
  5
E0F
 10
-7.16976
 20
102.895864
 30
0.0
 11
-6.839307
 21
104.450937
 31
0.0
  0
LINE
  8
FF
  5
E10
 10
2.719007
 20
102.895864
 30
0.0
 11
2.444129
 21
101.599864
 31
0.0
  0
ARC
  8
FF
  5
E11
 10
9.72429
 20
98.840212
 30
0.0
 40
10.898671
 50
144.533818
 51
158.153358
  0
POLYLINE
  8
FF
  5
E12
 66
     1
 10
0.0
 20
0.0
 30
0.0
 70
   128
  0
VERTEX
  8
FF
  5
E56
 10
0.346698
 20
101.63693
 30
0.0
  0
VERTEX
  8
FF
  5
E57
 10
0.007729
 20
100.094936
 30
0.0
  0
VERTEX
  8
FF
  5
E58
 10
-0.064869
 20
98.589048
 30
0.0
  0
SEQEND
  8
FF
  5
E59
  0
LINE
  8
FF
  5
E13
 10
-8.586215
 20
109.771864
 30
0.0
 11
2.722824
 21
109.771864
 31
0.0
  0
ARC
  8
FF
  5
E14
 10
5.92608
 20
102.254613
 30
0.0
 40
10.867416
 50
279.159834
 51
342.417868
1001
ACAD
1000
ASC_BOUNDS
1002
{
1070
    19
1002
}
  0
ARC
  8
FF
  5
E15
 10
5.609241
 20
102.537758
 30
0.0
 40
10.103488
 50
280.279158
 51
339.332945
1001
ACAD
1000
ASC_BOUNDS
1002
{
1070
    19
1002
}
  0
ARC
  8
FF
  5
E16
 10
9.409453
 20
102.640901
 30
0.0
 40
7.490936
 50
1.499529
 51
100.57959
1001
ACAD
1000
ASC_BOUNDS
1002
{
1070
    19
1002
}
  0
ARC
  8
FF
  5
E17
 10
9.380359
 20
102.56604
 30
0.0
 40
6.383113
 50
2.961866
 51
93.426847
  0
LINE
  8
FF
  5
E18
 10
16.897824
 20
101.599864
 30
0.0
 11
16.897824
 21
102.836929
 31
0.0
  0
LINE
  8
FF
  5
E19
 10
16.285824
 20
98.971864
 30
0.0
 11
15.062541
 21
98.971864
 31
0.0
  0
TEXT
  8
FF
  5
E1A
 10
94.897824
 20
48.571864
 30
0.0
 40
12.0
  1
SC-N12(H2)
  0
TEXT
  8
FF
  5
E1B
 10
94.897824
 20
70.171864
 30
0.0
 40
12.0
  1
SC-N12 , SC-N12H
  0
TEXT
  8
FF
  5
E1C
 10
94.897824
 20
91.771864
 30
0.0
 40
12.0
  1
SC-N11 , SC-N11H
  0
LINE
  8
FF
  5
E1D
 10
509.700825
 20
55.771864
 30
0.0
 11
737.700825
 21
55.771864
 31
0.0
  0
LINE
  8
FF
  5
E1E
 10
509.700825
 20
67.771864
 30
0.0
 11
737.700825
 21
67.771864
 31
0.0
  0
LINE
  8
FF
  5
E1F
 10
509.700825
 20
79.771864
 30
0.0
 11
737.700825
 21
79.771864
 31
0.0
  0
LINE
  8
FF
  5
E20
 10
509.700825
 20
91.771864
 30
0.0
 11
737.700825
 21
91.771864
 31
0.0
  0
LINE
  8
FF
  5
E21
 10
509.700825
 20
103.771864
 30
0.0
 11
737.700825
 21
103.771864
 31
0.0
  0
TEXT
  8
FF
  6
CONTINUOUS
  5
E22
 10
515.543358
 20
71.088503
 30
0.0
 40
6.0
  1
変更
  0
TEXT
  8
FF
  6
CONTINUOUS
  5
E23
 10
515.543358
 20
82.424002
 30
0.0
 40
6.0
  1
作成
  0
LINE
  8
FF
  5
E24
 10
509.700825
 20
103.771864
 30
0.0
 11
509.700825
 21
55.771864
 31
0.0
  0
TEXT
  8
FF
  6
CONTINUOUS
  5
E25
 10
540.966887
 20
70.609763
 30
0.0
 40
6.0
  1
2005-12
  0
LINE
  8
FF
  5
E26
 10
581.700825
 20
103.771864
 30
0.0
 11
581.700825
 21
55.771864
 31
0.0
  0
LINE
  8
FF
  5
E27
 10
533.700825
 20
103.771864
 30
0.0
 11
533.700825
 21
55.771864
 31
0.0
  0
TEXT
  8
FF
  6
CONTINUOUS
  5
E29
 10
550.416827
 20
94.606093
 30
0.0
 40
6.0
  1
日付
  0
TEXT
  8
FF
  6
CONTINUOUS
  5
E2C
 10
585.794608
 20
70.609763
 30
0.0
 40
6.0
  1
SC-N11
  0
LINE
  8
FF
  5
E2D
 10
641.700825
 20
103.771864
 30
0.0
 11
641.700825
 21
55.771864
 31
0.0
  0
TEXT
  8
FF
  6
CONTINUOUS
  5
E2E
 10
602.36849
 20
94.606093
 30
0.0
 40
6.0
  1
ﾌｧｲﾙ名
  0
TEXT
  8
FF
  6
CONTINUOUS
  5
E30
 10
662.512926
 20
94.606093
 30
0.0
 40
6.0
  1
図面番号
  0
LINE
  8
FF
  5
E32
 10
737.700825
 20
103.771864
 30
0.0
 11
737.700825
 21
55.771864
 31
0.0
  0
LINE
  8
FF
  5
E33
 10
713.700825
 20
103.771864
 30
0.0
 11
713.700825
 21
55.771864
 31
0.0
  0
TEXT
  8
FF
  6
CONTINUOUS
  5
E34
 10
719.962371
 20
94.606093
 30
0.0
 40
6.0
  1
変更
  0
ENDSEC
  0
EOF
