  0
SECTION
  2
HEADER
  9
$ACADVER
  1
AC1009
  9
$INSBASE
 10
0.0
 20
0.0
 30
0.0
  9
$EXTMIN
 10
-3.426106
 20
-96.251707
 30
0.0
  9
$EXTMAX
 10
602.784777
 20
311.273915
 30
0.0
  9
$LIMMIN
 10
-25.66249
 20
-118.181519
  9
$LIMMAX
 10
629.053289
 20
337.979865
  9
$ORTHOMODE
 70
     1
  9
$REGENMODE
 70
     1
  9
$FILLMODE
 70
     1
  9
$QTEXTMODE
 70
     0
  9
$MIRRTEXT
 70
     1
  9
$DRAGMODE
 70
     2
  9
$LTSCALE
 40
6.0
  9
$OSMODE
 70
   673
  9
$ATTMODE
 70
     1
  9
$TEXTSIZE
 40
2.5
  9
$TRACEWID
 40
1.0
  9
$TEXTSTYLE
  7
STANDARD
  9
$CLAYER
  8
FF
  9
$CELTYPE
  6
BYLAYER
  9
$CECOLOR
 62
   256
  9
$DIMSCALE
 40
1.0
  9
$DIMASZ
 40
8.0
  9
$DIMEXO
 40
2.6667
  9
$DIMDLI
 40
0.38
  9
$DIMRND
 40
0.0
  9
$DIMDLE
 40
0.0
  9
$DIMEXE
 40
2.6667
  9
$DIMTP
 40
0.0
  9
$DIMTM
 40
0.0
  9
$DIMTXT
 40
8.0
  9
$DIMCEN
 40
0.09
  9
$DIMTSZ
 40
0.0
  9
$DIMTOL
 70
     0
  9
$DIMLIM
 70
     0
  9
$DIMTIH
 70
     0
  9
$DIMTOH
 70
     0
  9
$DIMSE1
 70
     0
  9
$DIMSE2
 70
     0
  9
$DIMTAD
 70
     1
  9
$DIMZIN
 70
     0
  9
$DIMBLK
  1

  9
$DIMASO
 70
     1
  9
$DIMSHO
 70
     1
  9
$DIMPOST
  1

  9
$DIMAPOST
  1

  9
$DIMALT
 70
     0
  9
$DIMALTD
 70
     2
  9
$DIMALTF
 40
25.4
  9
$DIMLFAC
 40
1.0
  9
$DIMTOFL
 70
     1
  9
$DIMTVP
 40
0.0
  9
$DIMTIX
 70
     0
  9
$DIMSOXD
 70
     0
  9
$DIMSAH
 70
     1
  9
$DIMBLK1
  1
_OPEN
  9
$DIMBLK2
  1
_OPEN
  9
$DIMSTYLE
  2
FSTD3
  9
$DIMCLRD
 70
     0
  9
$DIMCLRE
 70
     0
  9
$DIMCLRT
 70
     0
  9
$DIMTFAC
 40
1.0
  9
$DIMGAP
 40
-2.6667
  9
$LUNITS
 70
     2
  9
$LUPREC
 70
     4
  9
$SKETCHINC
 40
1.0
  9
$FILLETRAD
 40
10.0
  9
$AUNITS
 70
     0
  9
$AUPREC
 70
     0
  9
$MENU
  1
acad
  9
$ELEVATION
 40
0.0
  9
$PELEVATION
 40
0.0
  9
$THICKNESS
 40
0.0
  9
$LIMCHECK
 70
     0
  9
$BLIPMODE
 70
     0
  9
$CHAMFERA
 40
10.0
  9
$CHAMFERB
 40
10.0
  9
$SKPOLY
 70
     0
  9
$TDCREATE
 40
2452132.394709490
  9
$TDUPDATE
 40
2453726.716661574
  9
$TDINDWG
 40
0.0143120949
  9
$TDUSRTIMER
 40
0.0143120949
  9
$USRTIMER
 70
     1
  9
$ANGBASE
 50
0.0
  9
$ANGDIR
 70
     0
  9
$PDMODE
 70
     0
  9
$PDSIZE
 40
0.0
  9
$PLINEWID
 40
0.0
  9
$COORDS
 70
     1
  9
$SPLFRAME
 70
     0
  9
$SPLINETYPE
 70
     6
  9
$SPLINESEGS
 70
     8
  9
$ATTDIA
 70
     0
  9
$ATTREQ
 70
     1
  9
$HANDLING
 70
     1
  9
$HANDSEED
  5
1050
  9
$SURFTAB1
 70
     6
  9
$SURFTAB2
 70
     6
  9
$SURFTYPE
 70
     6
  9
$SURFU
 70
     6
  9
$SURFV
 70
     6
  9
$UCSNAME
  2

  9
$UCSORG
 10
0.0
 20
0.0
 30
0.0
  9
$UCSXDIR
 10
1.0
 20
0.0
 30
0.0
  9
$UCSYDIR
 10
0.0
 20
1.0
 30
0.0
  9
$PUCSNAME
  2

  9
$PUCSORG
 10
0.0
 20
0.0
 30
0.0
  9
$PUCSXDIR
 10
1.0
 20
0.0
 30
0.0
  9
$PUCSYDIR
 10
0.0
 20
1.0
 30
0.0
  9
$USERI1
 70
     0
  9
$USERI2
 70
     0
  9
$USERI3
 70
     0
  9
$USERI4
 70
     0
  9
$USERI5
 70
     0
  9
$USERR1
 40
0.0
  9
$USERR2
 40
0.0
  9
$USERR3
 40
0.0
  9
$USERR4
 40
0.0
  9
$USERR5
 40
0.0
  9
$WORLDVIEW
 70
     1
  9
$SHADEDGE
 70
     3
  9
$SHADEDIF
 70
    70
  9
$TILEMODE
 70
     1
  9
$MAXACTVP
 70
    16
  9
$PINSBASE
 10
0.0
 20
0.0
 30
0.0
  9
$PLIMCHECK
 70
     0
  9
$PEXTMIN
 10
1.000000E+20
 20
1.000000E+20
 30
1.000000E+20
  9
$PEXTMAX
 10
-1.000000E+20
 20
-1.000000E+20
 30
-1.000000E+20
  9
$PLIMMIN
 10
0.0
 20
0.0
  9
$PLIMMAX
 10
420.0
 20
297.0
  9
$UNITMODE
 70
     0
  9
$VISRETAIN
 70
     1
  9
$PLINEGEN
 70
     0
  9
$PSLTSCALE
 70
     1
  9
$TREEDEPTH
 70
  3020
  9
$DWGCODEPAGE
  3
dos932
  0
ENDSEC
  0
SECTION
  2
TABLES
  0
TABLE
  2
VPORT
 70
     2
  0
VPORT
  2
*ACTIVE
 70
     0
 10
0.0
 20
0.0
 11
1.0
 21
1.0
 12
308.872172
 22
124.420463
 13
0.0
 23
0.0
 14
10.0
 24
10.0
 15
10.0
 25
10.0
 16
0.0
 26
0.0
 36
1.0
 17
0.0
 27
0.0
 37
0.0
 40
560.489338
 41
1.475202
 42
50.0
 43
0.0
 44
0.0
 50
0.0
 51
0.0
 71
     0
 72
   100
 73
     1
 74
     1
 75
     0
 76
     0
 77
     0
 78
     0
  0
ENDTAB
  0
TABLE
  2
LTYPE
 70
     3
  0
LTYPE
  2
CONTINUOUS
 70
    64
  3
Solid line
 72
    65
 73
     0
 40
0.0
  0
LTYPE
  2
CENTER
 70
    64
  3
Center ____ _ ____ _ ____ _ ____ _ ____ _ ____
 72
    65
 73
     4
 40
2.0
 49
1.25
 49
-0.25
 49
0.25
 49
-0.25
  0
LTYPE
  2
PHANTOM
 70
    64
  3
Phantom ______  __  __  ______  __  __  ______
 72
    65
 73
     6
 40
2.5
 49
1.25
 49
-0.25
 49
0.25
 49
-0.25
 49
0.25
 49
-0.25
  0
ENDTAB
  0
TABLE
  2
LAYER
 70
    14
  0
LAYER
  2
0
 70
    64
 62
     7
  6
CONTINUOUS
  0
LAYER
  2
0D
 70
    64
 62
     2
  6
CONTINUOUS
  0
LAYER
  2
FF
 70
    64
 62
     4
  6
CONTINUOUS
  0
LAYER
  2
DEFPOINTS
 70
    64
 62
     7
  6
CONTINUOUS
  0
LAYER
  2
33
 70
    64
 62
     6
  6
CONTINUOUS
  0
LAYER
  2
34
 70
    64
 62
     3
  6
CONTINUOUS
  0
LAYER
  2
38
 70
    64
 62
     6
  6
CENTER
  0
LAYER
  2
15
 70
    64
 62
     6
  6
CONTINUOUS
  0
LAYER
  2
16
 70
    64
 62
     3
  6
CONTINUOUS
  0
LAYER
  2
17
 70
    64
 62
     2
  6
CONTINUOUS
  0
LAYER
  2
1A
 70
    64
 62
     6
  6
CENTER
  0
LAYER
  2
0B
 70
    64
 62
     6
  6
CONTINUOUS
  0
LAYER
  2
0C
 70
    64
 62
     3
  6
CONTINUOUS
  0
LAYER
  2
10
 70
    64
 62
     6
  6
CENTER
  0
ENDTAB
  0
TABLE
  2
STYLE
 70
     1
  0
STYLE
  2
STANDARD
 70
    64
 40
0.0
 41
1.0
 50
0.0
 71
     0
 42
2.5
  3
txt.shx
  4
bigfont.shx
  0
ENDTAB
  0
TABLE
  2
VIEW
 70
     0
  0
ENDTAB
  0
TABLE
  2
UCS
 70
     0
  0
ENDTAB
  0
TABLE
  2
APPID
 70
     1
  0
APPID
  2
ACAD
 70
    64
  0
ENDTAB
  0
TABLE
  2
DIMSTYLE
 70
     4
  0
DIMSTYLE
  2
STANDARD
 70
     0
  3

  4

  5

  6

  7

 40
1.0
 41
2.5
 42
0.625
 43
3.75
 44
1.25
 45
0.0
 46
0.0
 47
0.0
 48
0.0
140
2.5
141
2.5
142
0.0
143
0.0394
144
1.0
145
0.0
146
1.0
147
0.625
 71
     0
 72
     0
 73
     0
 74
     0
 75
     0
 76
     0
 77
     1
 78
     8
170
     0
171
     4
172
     1
173
     0
174
     0
175
     0
176
     0
177
     0
178
     0
  0
DIMSTYLE
  2
FSTD1
 70
    64
  3

  4

  5

  6
_OPEN
  7
_OPEN
 40
1.0
 41
8.0
 42
2.6667
 43
0.38
 44
2.6667
 45
0.0
 46
0.0
 47
0.0
 48
0.0
140
8.0
141
0.09
142
0.0
143
25.4
144
1.0
145
0.0
146
1.0
147
2.6667
 71
     0
 72
     0
 73
     0
 74
     0
 75
     0
 76
     0
 77
     1
 78
     0
170
     0
171
     2
172
     1
173
     1
174
     0
175
     0
176
     0
177
     0
178
     0
  0
DIMSTYLE
  2
FSTD2
 70
    64
  3

  4

  5

  6
_OPEN
  7
_OPEN
 40
1.0
 41
8.0
 42
2.6667
 43
0.38
 44
2.6667
 45
0.0
 46
0.0
 47
0.0
 48
0.0
140
8.0
141
0.09
142
0.0
143
25.4
144
1.0
145
0.0
146
1.0
147
2.6667
 71
     0
 72
     0
 73
     0
 74
     0
 75
     0
 76
     0
 77
     1
 78
     0
170
     0
171
     2
172
     1
173
     1
174
     0
175
     0
176
     0
177
     0
178
     0
  0
DIMSTYLE
  2
FSTD3
 70
    64
  3

  4

  5

  6
_OPEN
  7
_OPEN
 40
1.0
 41
8.0
 42
2.6667
 43
0.38
 44
2.6667
 45
0.0
 46
0.0
 47
0.0
 48
0.0
140
8.0
141
0.09
142
0.0
143
25.4
144
1.0
145
0.0
146
1.0
147
-2.6667
 71
     0
 72
     0
 73
     0
 74
     0
 75
     0
 76
     0
 77
     1
 78
     0
170
     0
171
     2
172
     1
173
     1
174
     0
175
     0
176
     0
177
     0
178
     0
  0
ENDTAB
  0
ENDSEC
  0
SECTION
  2
BLOCKS
  0
BLOCK
  8
0
  5
D2
  2
_OPEN
 70
    64
 10
0.0
 20
0.0
 30
0.0
  3
_OPEN
  0
LINE
  8
0
  6
BYBLOCK
 62
     0
  5
CF
 10
-1.0
 20
0.166667
 30
0.0
 11
0.0
 21
0.0
 31
0.0
  0
LINE
  8
0
  6
BYBLOCK
 62
     0
  5
D0
 10
0.0
 20
0.0
 30
0.0
 11
-1.0
 21
-0.166667
 31
0.0
  0
LINE
  8
0
  6
BYBLOCK
 62
     0
  5
D1
 10
0.0
 20
0.0
 30
0.0
 11
-1.0
 21
0.0
 31
0.0
  0
ENDBLK
  8
0
  5
D3
  0
BLOCK
  8
0
  5
A51
  2
*D1
 70
    65
 10
0.0
 20
0.0
 30
0.0
  3
*D1
  0
LINE
  8
0
  6
BYBLOCK
 62
     0
  5
A52
 10
313.986
 20
223.076615
 30
0.0
 11
313.986
 21
243.544615
 31
0.0
  0
LINE
  8
0
  6
BYBLOCK
 62
     0
  5
A53
 10
281.986
 20
223.076615
 30
0.0
 11
281.986
 21
243.544615
 31
0.0
  0
LINE
  8
0
  6
BYBLOCK
 62
     0
  5
A54
 10
305.986
 20
240.877915
 30
0.0
 11
289.986
 21
240.877915
 31
0.0
  0
INSERT
  8
0
  6
BYBLOCK
 62
     0
  5
A55
  2
_OPEN
 10
313.986
 20
240.877915
 30
0.0
 41
8.0
 42
8.0
 43
8.0
  0
INSERT
  8
0
  6
BYBLOCK
 62
     0
  5
A56
  2
_OPEN
 10
281.986
 20
240.877915
 30
0.0
 41
8.0
 42
8.0
 50
180.0
 43
8.0
  0
TEXT
  8
0
  6
BYBLOCK
 62
     0
  5
A57
 10
291.319333
 20
243.544615
 30
0.0
 40
8.0
  1
32
  0
POINT
  8
DEFPOINTS
  6
BYBLOCK
 62
     0
  5
A58
 10
313.986
 20
220.409915
 30
0.0
  0
POINT
  8
DEFPOINTS
  6
BYBLOCK
 62
     0
  5
A59
 10
281.986
 20
220.409915
 30
0.0
  0
POINT
  8
DEFPOINTS
  6
BYBLOCK
 62
     0
  5
A5A
 10
281.986
 20
240.877915
 30
0.0
  0
ENDBLK
  8
0
  5
A5B
  0
BLOCK
  8
0
  5
A8A
  2
*D2
 70
    65
 10
0.0
 20
0.0
 30
0.0
  3
*D2
  0
LINE
  8
0
  6
BYBLOCK
 62
     0
  5
A8B
 10
273.986
 20
95.743215
 30
0.0
 11
273.986
 21
69.683215
 31
0.0
  0
LINE
  8
0
  6
BYBLOCK
 62
     0
  5
A8C
 10
289.986
 20
95.743215
 30
0.0
 11
289.986
 21
69.683215
 31
0.0
  0
LINE
  8
0
  6
BYBLOCK
 62
     0
  5
A8D
 10
265.986
 20
72.349915
 30
0.0
 11
257.986
 21
72.349915
 31
0.0
  0
LINE
  8
0
  6
BYBLOCK
 62
     0
  5
A8E
 10
297.986
 20
72.349915
 30
0.0
 11
321.986066
 21
72.349915
 31
0.0
  0
LINE
  8
0
  6
BYBLOCK
 62
     0
  5
A8F
 10
273.986
 20
72.349915
 30
0.0
 11
289.986
 21
72.349915
 31
0.0
  0
INSERT
  8
0
  6
BYBLOCK
 62
     0
  5
A90
  2
_OPEN
 10
273.986
 20
72.349915
 30
0.0
 41
8.0
 42
8.0
 43
8.0
  0
INSERT
  8
0
  6
BYBLOCK
 62
     0
  5
A91
  2
_OPEN
 10
289.986
 20
72.349915
 30
0.0
 41
8.0
 42
8.0
 50
180.0
 43
8.0
  0
TEXT
  8
0
  6
BYBLOCK
 62
     0
  5
A92
 10
308.6527
 20
75.016615
 30
0.0
 40
8.0
  1
16
  0
POINT
  8
DEFPOINTS
  6
BYBLOCK
 62
     0
  5
A93
 10
273.986
 20
98.409915
 30
0.0
  0
POINT
  8
DEFPOINTS
  6
BYBLOCK
 62
     0
  5
A94
 10
289.986
 20
98.409915
 30
0.0
  0
POINT
  8
DEFPOINTS
  6
BYBLOCK
 62
     0
  5
A95
 10
289.986
 20
72.349915
 30
0.0
  0
ENDBLK
  8
0
  5
A96
  0
BLOCK
  8
0
  5
D70
  2
*D3
 70
    65
 10
0.0
 20
0.0
 30
0.0
  3
*D3
  0
LINE
  8
0
  6
BYBLOCK
 62
     0
  5
D71
 10
337.986
 20
199.776615
 30
0.0
 11
337.986
 21
279.884615
 31
0.0
  0
LINE
  8
0
  6
BYBLOCK
 62
     0
  5
D72
 10
225.9852
 20
199.776615
 30
0.0
 11
225.9852
 21
279.884615
 31
0.0
  0
LINE
  8
0
  6
BYBLOCK
 62
     0
  5
D73
 10
329.986
 20
277.217915
 30
0.0
 11
233.9852
 21
277.217915
 31
0.0
  0
INSERT
  8
0
  6
BYBLOCK
 62
     0
  5
D74
  2
_OPEN
 10
337.986
 20
277.217915
 30
0.0
 41
8.0
 42
8.0
 43
8.0
  0
INSERT
  8
0
  6
BYBLOCK
 62
     0
  5
D75
  2
_OPEN
 10
225.9852
 20
277.217915
 30
0.0
 41
8.0
 42
8.0
 50
180.0
 43
8.0
  0
TEXT
  8
0
  6
BYBLOCK
 62
     0
  5
D76
 10
268.652266
 20
279.884615
 30
0.0
 40
8.0
  1
(113)
  0
POINT
  8
DEFPOINTS
  6
BYBLOCK
 62
     0
  5
D77
 10
337.986
 20
197.109915
 30
0.0
  0
POINT
  8
DEFPOINTS
  6
BYBLOCK
 62
     0
  5
D78
 10
225.9852
 20
197.109915
 30
0.0
  0
POINT
  8
DEFPOINTS
  6
BYBLOCK
 62
     0
  5
D79
 10
225.9852
 20
277.217915
 30
0.0
  0
ENDBLK
  8
0
  5
D7A
  0
BLOCK
  8
0
  5
A5C
  2
*D4
 70
    65
 10
0.0
 20
0.0
 30
0.0
  3
*D4
  0
LINE
  8
0
  6
BYBLOCK
 62
     0
  5
A5D
 10
325.986
 20
228.076615
 30
0.0
 11
325.986
 21
262.124615
 31
0.0
  0
LINE
  8
0
  6
BYBLOCK
 62
     0
  5
A5E
 10
237.986
 20
228.076615
 30
0.0
 11
237.986
 21
262.124615
 31
0.0
  0
LINE
  8
0
  6
BYBLOCK
 62
     0
  5
A5F
 10
317.986
 20
259.457915
 30
0.0
 11
245.986
 21
259.457915
 31
0.0
  0
INSERT
  8
0
  6
BYBLOCK
 62
     0
  5
A60
  2
_OPEN
 10
325.986
 20
259.457915
 30
0.0
 41
8.0
 42
8.0
 43
8.0
  0
INSERT
  8
0
  6
BYBLOCK
 62
     0
  5
A61
  2
_OPEN
 10
237.986
 20
259.457915
 30
0.0
 41
8.0
 42
8.0
 50
180.0
 43
8.0
  0
TEXT
  8
0
  6
BYBLOCK
 62
     0
  5
A62
 10
275.319333
 20
262.124615
 30
0.0
 40
8.0
  1
88
  0
POINT
  8
DEFPOINTS
  6
BYBLOCK
 62
     0
  5
A63
 10
325.986
 20
225.409915
 30
0.0
  0
POINT
  8
DEFPOINTS
  6
BYBLOCK
 62
     0
  5
A64
 10
237.986
 20
225.409915
 30
0.0
  0
POINT
  8
DEFPOINTS
  6
BYBLOCK
 62
     0
  5
A65
 10
237.986
 20
259.457915
 30
0.0
  0
ENDBLK
  8
0
  5
A66
  0
BLOCK
  8
0
  5
A18
  2
*D5
 70
    65
 10
0.0
 20
0.0
 30
0.0
  3
*D5
  0
LINE
  8
0
  6
BYBLOCK
 62
     0
  5
A19
 10
132.7
 20
204.576615
 30
0.0
 11
132.7
 21
279.884615
 31
0.0
  0
LINE
  8
0
  6
BYBLOCK
 62
     0
  5
A1A
 10
16.0
 20
229.576615
 30
0.0
 11
16.0
 21
279.884615
 31
0.0
  0
LINE
  8
0
  6
BYBLOCK
 62
     0
  5
A1B
 10
124.7
 20
277.217915
 30
0.0
 11
24.0
 21
277.217915
 31
0.0
  0
INSERT
  8
0
  6
BYBLOCK
 62
     0
  5
A1C
  2
_OPEN
 10
132.7
 20
277.217915
 30
0.0
 41
8.0
 42
8.0
 43
8.0
  0
INSERT
  8
0
  6
BYBLOCK
 62
     0
  5
A1D
  2
_OPEN
 10
16.0
 20
277.217915
 30
0.0
 41
8.0
 42
8.0
 50
180.0
 43
8.0
  0
TEXT
  8
0
  6
BYBLOCK
 62
     0
  5
A1E
 10
66.35
 20
279.884615
 30
0.0
 40
8.0
  1
117
  0
POINT
  8
DEFPOINTS
  6
BYBLOCK
 62
     0
  5
A1F
 10
132.7
 20
201.909915
 30
0.0
  0
POINT
  8
DEFPOINTS
  6
BYBLOCK
 62
     0
  5
A20
 10
16.0
 20
226.909915
 30
0.0
  0
POINT
  8
DEFPOINTS
  6
BYBLOCK
 62
     0
  5
A21
 10
16.0
 20
277.217915
 30
0.0
  0
ENDBLK
  8
0
  5
A22
  0
BLOCK
  8
0
  5
A23
  2
*D6
 70
    65
 10
0.0
 20
0.0
 30
0.0
  3
*D6
  0
LINE
  8
0
  6
BYBLOCK
 62
     0
  5
A24
 10
90.1
 20
231.076615
 30
0.0
 11
90.1
 21
262.124615
 31
0.0
  0
LINE
  8
0
  6
BYBLOCK
 62
     0
  5
A25
 10
16.0
 20
229.576615
 30
0.0
 11
16.0
 21
262.124615
 31
0.0
  0
LINE
  8
0
  6
BYBLOCK
 62
     0
  5
A26
 10
82.1
 20
259.457915
 30
0.0
 11
24.0
 21
259.457915
 31
0.0
  0
INSERT
  8
0
  6
BYBLOCK
 62
     0
  5
A27
  2
_OPEN
 10
90.1
 20
259.457915
 30
0.0
 41
8.0
 42
8.0
 43
8.0
  0
INSERT
  8
0
  6
BYBLOCK
 62
     0
  5
A28
  2
_OPEN
 10
16.0
 20
259.457915
 30
0.0
 41
8.0
 42
8.0
 50
180.0
 43
8.0
  0
TEXT
  8
0
  6
BYBLOCK
 62
     0
  5
A29
 10
46.383333
 20
262.124615
 30
0.0
 40
8.0
  1
74
  0
POINT
  8
DEFPOINTS
  6
BYBLOCK
 62
     0
  5
A2A
 10
90.1
 20
228.409915
 30
0.0
  0
POINT
  8
DEFPOINTS
  6
BYBLOCK
 62
     0
  5
A2B
 10
16.0
 20
226.909915
 30
0.0
  0
POINT
  8
DEFPOINTS
  6
BYBLOCK
 62
     0
  5
A2C
 10
16.0
 20
259.457915
 30
0.0
  0
ENDBLK
  8
0
  5
A2D
  0
BLOCK
  8
0
  5
A74
  2
*D7
 70
    65
 10
0.0
 20
0.0
 30
0.0
  3
*D7
  0
LINE
  8
0
  6
BYBLOCK
 62
     0
  5
A75
 10
318.6527
 20
218.409915
 30
0.0
 11
359.7167
 21
218.409915
 31
0.0
  0
LINE
  8
0
  6
BYBLOCK
 62
     0
  5
A76
 10
318.6527
 20
107.409915
 30
0.0
 11
359.7167
 21
107.409915
 31
0.0
  0
LINE
  8
0
  6
BYBLOCK
 62
     0
  5
A77
 10
357.05
 20
210.409915
 30
0.0
 11
357.05
 21
115.409915
 31
0.0
  0
INSERT
  8
0
  6
BYBLOCK
 62
     0
  5
A78
  2
_OPEN
 10
357.05
 20
218.409915
 30
0.0
 41
8.0
 42
8.0
 50
90.0
 43
8.0
  0
INSERT
  8
0
  6
BYBLOCK
 62
     0
  5
A79
  2
_OPEN
 10
357.05
 20
107.409915
 30
0.0
 41
8.0
 42
8.0
 50
270.0
 43
8.0
  0
TEXT
  8
0
  6
BYBLOCK
 62
     0
  5
A7A
 10
354.3833
 20
156.243249
 30
0.0
 40
8.0
  1
111
 50
90.0
  0
POINT
  8
DEFPOINTS
  6
BYBLOCK
 62
     0
  5
A7B
 10
315.986
 20
218.409915
 30
0.0
  0
POINT
  8
DEFPOINTS
  6
BYBLOCK
 62
     0
  5
A7C
 10
315.986
 20
107.409915
 30
0.0
  0
POINT
  8
DEFPOINTS
  6
BYBLOCK
 62
     0
  5
A7D
 10
357.05
 20
107.409915
 30
0.0
  0
ENDBLK
  8
0
  5
A7E
  0
BLOCK
  8
0
  5
A7F
  2
*D8
 70
    65
 10
0.0
 20
0.0
 30
0.0
  3
*D8
  0
LINE
  8
0
  6
BYBLOCK
 62
     0
  5
A80
 10
325.6527
 20
99.409915
 30
0.0
 11
376.8487
 21
99.409915
 31
0.0
  0
LINE
  8
0
  6
BYBLOCK
 62
     0
  5
A81
 10
325.6527
 20
226.409915
 30
0.0
 11
376.8487
 21
226.409915
 31
0.0
  0
LINE
  8
0
  6
BYBLOCK
 62
     0
  5
A82
 10
374.182
 20
107.409915
 30
0.0
 11
374.182
 21
218.409915
 31
0.0
  0
INSERT
  8
0
  6
BYBLOCK
 62
     0
  5
A83
  2
_OPEN
 10
374.182
 20
99.409915
 30
0.0
 41
8.0
 42
8.0
 50
270.0
 43
8.0
  0
INSERT
  8
0
  6
BYBLOCK
 62
     0
  5
A84
  2
_OPEN
 10
374.182
 20
226.409915
 30
0.0
 41
8.0
 42
8.0
 50
90.0
 43
8.0
  0
TEXT
  8
0
  6
BYBLOCK
 62
     0
  5
A85
 10
371.5153
 20
153.576582
 30
0.0
 40
8.0
  1
127
 50
90.0
  0
POINT
  8
DEFPOINTS
  6
BYBLOCK
 62
     0
  5
A86
 10
322.986
 20
99.409915
 30
0.0
  0
POINT
  8
DEFPOINTS
  6
BYBLOCK
 62
     0
  5
A87
 10
322.986
 20
226.409915
 30
0.0
  0
POINT
  8
DEFPOINTS
  6
BYBLOCK
 62
     0
  5
A88
 10
374.182
 20
226.409915
 30
0.0
  0
ENDBLK
  8
0
  5
A89
  0
BLOCK
  8
0
  5
A67
  2
*D9
 70
    65
 10
0.0
 20
0.0
 30
0.0
  3
*D9
  0
LINE
  8
0
  6
BYBLOCK
 62
     0
  5
A68
 10
318.6527
 20
218.409915
 30
0.0
 11
359.7167
 21
218.409915
 31
0.0
  0
LINE
  8
0
  6
BYBLOCK
 62
     0
  5
A69
 10
325.6527
 20
226.409915
 30
0.0
 11
359.7167
 21
226.409915
 31
0.0
  0
LINE
  8
0
  6
BYBLOCK
 62
     0
  5
A6A
 10
357.05
 20
210.409915
 30
0.0
 11
357.05
 21
202.409915
 31
0.0
  0
LINE
  8
0
  6
BYBLOCK
 62
     0
  5
A6B
 10
357.05
 20
234.409915
 30
0.0
 11
357.05
 21
253.076649
 31
0.0
  0
LINE
  8
0
  6
BYBLOCK
 62
     0
  5
A6C
 10
357.05
 20
218.409915
 30
0.0
 11
357.05
 21
226.409915
 31
0.0
  0
INSERT
  8
0
  6
BYBLOCK
 62
     0
  5
A6D
  2
_OPEN
 10
357.05
 20
218.409915
 30
0.0
 41
8.0
 42
8.0
 50
90.0
 43
8.0
  0
INSERT
  8
0
  6
BYBLOCK
 62
     0
  5
A6E
  2
_OPEN
 10
357.05
 20
226.409915
 30
0.0
 41
8.0
 42
8.0
 50
270.0
 43
8.0
  0
TEXT
  8
0
  6
BYBLOCK
 62
     0
  5
A6F
 10
354.3833
 20
245.076615
 30
0.0
 40
8.0
  1
8
 50
90.0
  0
POINT
  8
DEFPOINTS
  6
BYBLOCK
 62
     0
  5
A70
 10
315.986
 20
218.409915
 30
0.0
  0
POINT
  8
DEFPOINTS
  6
BYBLOCK
 62
     0
  5
A71
 10
322.986
 20
226.409915
 30
0.0
  0
POINT
  8
DEFPOINTS
  6
BYBLOCK
 62
     0
  5
A72
 10
357.05
 20
226.409915
 30
0.0
  0
ENDBLK
  8
0
  5
A73
  0
BLOCK
  8
0
  5
AA6
  2
*D10
 70
    65
 10
0.0
 20
0.0
 30
0.0
  3
*D10
  0
LINE
  8
0
  6
BYBLOCK
 62
     0
  5
AA7
 10
544.1127
 20
200.409915
 30
0.0
 11
580.1167
 21
200.409915
 31
0.0
  0
LINE
  8
0
  6
BYBLOCK
 62
     0
  5
AA8
 10
548.1127
 20
226.409915
 30
0.0
 11
580.1167
 21
226.409915
 31
0.0
  0
LINE
  8
0
  6
BYBLOCK
 62
     0
  5
AA9
 10
577.45
 20
208.409915
 30
0.0
 11
577.45
 21
218.409915
 31
0.0
  0
INSERT
  8
0
  6
BYBLOCK
 62
     0
  5
AAA
  2
_OPEN
 10
577.45
 20
200.409915
 30
0.0
 41
8.0
 42
8.0
 50
270.0
 43
8.0
  0
INSERT
  8
0
  6
BYBLOCK
 62
     0
  5
AAB
  2
_OPEN
 10
577.45
 20
226.409915
 30
0.0
 41
8.0
 42
8.0
 50
90.0
 43
8.0
  0
TEXT
  8
0
  6
BYBLOCK
 62
     0
  5
AAC
 10
574.7833
 20
206.743249
 30
0.0
 40
8.0
  1
26
 50
90.0
  0
POINT
  8
DEFPOINTS
  6
BYBLOCK
 62
     0
  5
AAD
 10
541.446
 20
200.409915
 30
0.0
  0
POINT
  8
DEFPOINTS
  6
BYBLOCK
 62
     0
  5
AAE
 10
545.446
 20
226.409915
 30
0.0
  0
POINT
  8
DEFPOINTS
  6
BYBLOCK
 62
     0
  5
AAF
 10
577.45
 20
226.409915
 30
0.0
  0
ENDBLK
  8
0
  5
AB0
  0
BLOCK
  8
0
  5
A2E
  2
*D11
 70
    65
 10
0.0
 20
0.0
 30
0.0
  3
*D11
  0
LINE
  8
0
  6
BYBLOCK
 62
     0
  5
A2F
 10
16.0
 20
229.576615
 30
0.0
 11
16.0
 21
243.544615
 31
0.0
  0
LINE
  8
0
  6
BYBLOCK
 62
     0
  5
A30
 10
33.7
 20
229.076615
 30
0.0
 11
33.7
 21
243.544615
 31
0.0
  0
LINE
  8
0
  6
BYBLOCK
 62
     0
  5
A31
 10
8.0
 20
240.877915
 30
0.0
 11
0.0
 21
240.877915
 31
0.0
  0
LINE
  8
0
  6
BYBLOCK
 62
     0
  5
A32
 10
41.7
 20
240.877915
 30
0.0
 11
76.366733
 21
240.877915
 31
0.0
  0
LINE
  8
0
  6
BYBLOCK
 62
     0
  5
A33
 10
16.0
 20
240.877915
 30
0.0
 11
33.7
 21
240.877915
 31
0.0
  0
INSERT
  8
0
  6
BYBLOCK
 62
     0
  5
A34
  2
_OPEN
 10
16.0
 20
240.877915
 30
0.0
 41
8.0
 42
8.0
 43
8.0
  0
INSERT
  8
0
  6
BYBLOCK
 62
     0
  5
A35
  2
_OPEN
 10
33.7
 20
240.877915
 30
0.0
 41
8.0
 42
8.0
 50
180.0
 43
8.0
  0
TEXT
  8
0
  6
BYBLOCK
 62
     0
  5
A36
 10
52.3667
 20
243.544615
 30
0.0
 40
8.0
  1
17.7
  0
POINT
  8
DEFPOINTS
  6
BYBLOCK
 62
     0
  5
A37
 10
16.0
 20
226.909915
 30
0.0
  0
POINT
  8
DEFPOINTS
  6
BYBLOCK
 62
     0
  5
A38
 10
33.7
 20
226.409915
 30
0.0
  0
POINT
  8
DEFPOINTS
  6
BYBLOCK
 62
     0
  5
A39
 10
33.7
 20
240.877915
 30
0.0
  0
ENDBLK
  8
0
  5
A3A
  0
BLOCK
  8
0
  5
A97
  2
*D12
 70
    65
 10
0.0
 20
0.0
 30
0.0
  3
*D12
  0
LINE
  8
0
  6
BYBLOCK
 62
     0
  5
A98
 10
539.446
 20
208.976615
 30
0.0
 11
539.446
 21
277.144615
 31
0.0
  0
LINE
  8
0
  6
BYBLOCK
 62
     0
  5
A99
 10
469.446
 20
133.976615
 30
0.0
 11
469.446
 21
277.144615
 31
0.0
  0
LINE
  8
0
  6
BYBLOCK
 62
     0
  5
A9A
 10
531.446
 20
274.477915
 30
0.0
 11
477.446
 21
274.477915
 31
0.0
  0
INSERT
  8
0
  6
BYBLOCK
 62
     0
  5
A9B
  2
_OPEN
 10
539.446
 20
274.477915
 30
0.0
 41
8.0
 42
8.0
 43
8.0
  0
INSERT
  8
0
  6
BYBLOCK
 62
     0
  5
A9C
  2
_OPEN
 10
469.446
 20
274.477915
 30
0.0
 41
8.0
 42
8.0
 50
180.0
 43
8.0
  0
TEXT
  8
0
  6
BYBLOCK
 62
     0
  5
A9D
 10
498.446
 20
279.811315
 30
0.0
 40
8.0
  1
70
  0
LINE
  8
0
  6
BYBLOCK
 62
     0
  5
A9E
 10
495.7793
 20
277.144615
 30
0.0
 11
513.1127
 21
277.144615
 31
0.0
  0
LINE
  8
0
  6
BYBLOCK
 62
     0
  5
A9F
 10
513.1127
 20
277.144615
 30
0.0
 11
513.1127
 21
290.478015
 31
0.0
  0
LINE
  8
0
  6
BYBLOCK
 62
     0
  5
AA0
 10
513.1127
 20
290.478015
 30
0.0
 11
495.7793
 21
290.478015
 31
0.0
  0
LINE
  8
0
  6
BYBLOCK
 62
     0
  5
AA1
 10
495.7793
 20
290.478015
 30
0.0
 11
495.7793
 21
277.144615
 31
0.0
  0
POINT
  8
DEFPOINTS
  6
BYBLOCK
 62
     0
  5
AA2
 10
539.446
 20
206.309915
 30
0.0
  0
POINT
  8
DEFPOINTS
  6
BYBLOCK
 62
     0
  5
AA3
 10
469.446
 20
131.309915
 30
0.0
  0
POINT
  8
DEFPOINTS
  6
BYBLOCK
 62
     0
  5
AA4
 10
469.446
 20
274.477915
 30
0.0
  0
ENDBLK
  8
0
  5
AA5
  0
BLOCK
  8
0
  5
AB1
  2
*D13
 70
    65
 10
0.0
 20
0.0
 30
0.0
  3
*D13
  0
LINE
  8
0
  6
BYBLOCK
 62
     0
  5
AB2
 10
548.0127
 20
200.409915
 30
0.0
 11
580.1167
 21
200.409915
 31
0.0
  0
LINE
  8
0
  6
BYBLOCK
 62
     0
  5
AB3
 10
478.0127
 20
125.409915
 30
0.0
 11
580.1167
 21
125.409915
 31
0.0
  0
LINE
  8
0
  6
BYBLOCK
 62
     0
  5
AB4
 10
577.45
 20
192.409915
 30
0.0
 11
577.45
 21
133.409915
 31
0.0
  0
INSERT
  8
0
  6
BYBLOCK
 62
     0
  5
AB5
  2
_OPEN
 10
577.45
 20
200.409915
 30
0.0
 41
8.0
 42
8.0
 50
90.0
 43
8.0
  0
INSERT
  8
0
  6
BYBLOCK
 62
     0
  5
AB6
  2
_OPEN
 10
577.45
 20
125.409915
 30
0.0
 41
8.0
 42
8.0
 50
270.0
 43
8.0
  0
TEXT
  8
0
  6
BYBLOCK
 62
     0
  5
AB7
 10
572.1166
 20
156.243249
 30
0.0
 40
8.0
  1
75
 50
90.0
  0
LINE
  8
0
  6
BYBLOCK
 62
     0
  5
AB8
 10
574.7833
 20
153.576549
 30
0.0
 11
574.7833
 21
172.243282
 31
0.0
  0
LINE
  8
0
  6
BYBLOCK
 62
     0
  5
AB9
 10
574.7833
 20
172.243282
 30
0.0
 11
561.4499
 21
172.243282
 31
0.0
  0
LINE
  8
0
  6
BYBLOCK
 62
     0
  5
ABA
 10
561.4499
 20
172.243282
 30
0.0
 11
561.4499
 21
153.576549
 31
0.0
  0
LINE
  8
0
  6
BYBLOCK
 62
     0
  5
ABB
 10
561.4499
 20
153.576549
 30
0.0
 11
574.7833
 21
153.576549
 31
0.0
  0
POINT
  8
DEFPOINTS
  6
BYBLOCK
 62
     0
  5
ABC
 10
545.346
 20
200.409915
 30
0.0
  0
POINT
  8
DEFPOINTS
  6
BYBLOCK
 62
     0
  5
ABD
 10
475.346
 20
125.409915
 30
0.0
  0
POINT
  8
DEFPOINTS
  6
BYBLOCK
 62
     0
  5
ABE
 10
577.45
 20
125.409915
 30
0.0
  0
ENDBLK
  8
0
  5
ABF
  0
ENDSEC
  0
SECTION
  2
ENTITIES
  0
LINE
  8
10
  6
CENTER
  5
440
 10
222.178
 20
162.909915
 30
0.0
 11
340.954
 21
162.909915
 31
0.0
  0
DIMENSION
  8
FF
  5
441
  2
*D1
 10
281.986
 20
240.877915
 30
0.0
 11
297.986
 21
247.544615
 31
0.0
  1
32
 13
313.986
 23
220.409915
 33
0.0
 14
281.986
 24
220.409915
 34
0.0
 50
180.0
  3
FSTD1
  0
DIMENSION
  8
FF
  5
442
  2
*D2
 10
289.986
 20
72.349915
 30
0.0
 11
313.986033
 21
79.016615
 31
0.0
  1
16
 13
273.986
 23
98.409915
 33
0.0
 14
289.986
 24
98.409915
 34
0.0
  3
FSTD1
  0
DIMENSION
  8
FF
  5
443
  2
*D3
 10
225.9852
 20
277.217915
 30
0.0
 11
281.9856
 21
283.884615
 31
0.0
  1
(113)
 13
337.986
 23
197.109915
 33
0.0
 14
225.9852
 24
197.109915
 34
0.0
 50
180.0
  3
FSTD1
  0
DIMENSION
  8
FF
  5
444
  2
*D4
 10
237.986
 20
259.457915
 30
0.0
 11
281.986
 21
266.124615
 31
0.0
  1
88
 13
325.986
 23
225.409915
 33
0.0
 14
237.986
 24
225.409915
 34
0.0
 50
180.0
  3
FSTD1
  0
LINE
  8
0C
  5
445
 10
254.486
 20
194.909915
 30
0.0
 11
309.486
 21
194.909915
 31
0.0
  0
LINE
  8
0C
  5
446
 10
254.486
 20
130.909915
 30
0.0
 11
309.486
 21
130.909915
 31
0.0
  0
LINE
  8
0C
  5
447
 10
249.486
 20
125.909915
 30
0.0
 11
314.486
 21
125.909915
 31
0.0
  0
LINE
  8
0C
  5
448
 10
249.486
 20
199.909915
 30
0.0
 11
314.486
 21
199.909915
 31
0.0
  0
LINE
  8
0C
  5
449
 10
251.486
 20
120.909915
 30
0.0
 11
312.486
 21
120.909915
 31
0.0
  0
LINE
  8
0C
  5
44A
 10
251.486
 20
204.909915
 30
0.0
 11
312.486
 21
204.909915
 31
0.0
  0
ARC
  8
0C
  5
44B
 10
295.586
 20
209.109915
 30
0.0
 40
0.8
 50
0.0
 51
150.0
  0
ARC
  8
0C
  5
44C
 10
295.586
 20
116.709915
 30
0.0
 40
0.8
 50
210.0
 51
0.0
  0
ARC
  8
0C
  5
44D
 10
298.386
 20
206.909915
 30
0.0
 40
2.0
 50
180.0
 51
270.0
  0
ARC
  8
0C
  5
44E
 10
298.386
 20
118.909915
 30
0.0
 40
2.0
 50
90.0
 51
180.0
  0
LINE
  8
0C
  5
44F
 10
302.086
 20
223.109915
 30
0.0
 11
293.586
 21
223.109915
 31
0.0
  0
LINE
  8
0C
  5
450
 10
302.386
 20
224.909915
 30
0.0
 11
293.586
 21
224.909915
 31
0.0
  0
LINE
  8
0C
  5
451
 10
302.386
 20
225.409915
 30
0.0
 11
293.586
 21
225.409915
 31
0.0
  0
LINE
  8
0C
  5
452
 10
293.586
 20
213.809915
 30
0.0
 11
299.386
 21
213.809915
 31
0.0
  0
LINE
  8
0C
  5
453
 10
305.378
 20
115.909915
 30
0.0
 11
289.486
 21
115.909915
 31
0.0
  0
LINE
  8
0C
  5
454
 10
301.886
 20
110.909915
 30
0.0
 11
296.286
 21
110.909915
 31
0.0
  0
LINE
  8
0B
  5
455
 10
305.986
 20
100.409915
 30
0.0
 11
289.986
 21
100.409915
 31
0.0
  0
LINE
  8
0C
  5
456
 10
304.986
 20
211.809915
 30
0.0
 11
289.05
 21
211.809915
 31
0.0
  0
LINE
  8
0C
  5
457
 10
301.886
 20
114.209915
 30
0.0
 11
296.286
 21
114.209915
 31
0.0
  0
LINE
  8
0C
  5
458
 10
305.378
 20
209.909915
 30
0.0
 11
287.95
 21
209.909915
 31
0.0
  0
CIRCLE
  8
0D
  5
459
 10
297.986
 20
219.109915
 30
0.0
 40
3.0
  0
LINE
  8
0D
  5
45A
 10
294.686
 20
222.909915
 30
0.0
 11
301.286
 21
222.909915
 31
0.0
  0
LINE
  8
0D
  5
45B
 10
294.686
 20
215.309915
 30
0.0
 11
301.286
 21
215.309915
 31
0.0
  0
LINE
  8
0B
  5
45C
 10
305.986
 20
225.409915
 30
0.0
 11
289.986
 21
225.409915
 31
0.0
  0
LINE
  8
0B
  5
45D
 10
305.986
 20
100.409915
 30
0.0
 11
289.986
 21
100.409915
 31
0.0
  0
LINE
  8
15
  6
CONTINUOUS
  5
45E
 10
16.5
 20
191.409915
 30
0.0
 11
16.5
 21
134.409915
 31
0.0
  0
LINE
  8
10
  6
CENTER
  5
45F
 10
281.986
 20
95.673915
 30
0.0
 11
281.986
 21
235.097915
 31
0.0
  0
LINE
  8
0D
  6
PHANTOM
  5
460
 10
225.9852
 20
195.109915
 30
0.0
 11
225.9852
 21
130.709915
 31
0.0
  0
LINE
  8
16
  5
461
 10
82.2
 20
139.909915
 30
0.0
 11
82.2
 21
162.909915
 31
0.0
  0
LINE
  8
16
  5
462
 10
34.8
 20
131.709915
 30
0.0
 11
34.8
 21
162.909915
 31
0.0
  0
LINE
  8
0C
  5
463
 10
237.986
 20
162.909915
 30
0.0
 11
237.986
 21
131.209915
 31
0.0
  0
LINE
  8
0C
  5
464
 10
254.486
 20
194.909915
 30
0.0
 11
254.486
 21
130.909915
 31
0.0
  0
LINE
  8
0C
  5
465
 10
290.986
 20
155.909915
 30
0.0
 11
290.986
 21
169.909915
 31
0.0
  0
LINE
  8
0C
  5
466
 10
272.986
 20
155.909915
 30
0.0
 11
272.986
 21
169.909915
 31
0.0
  0
LINE
  8
0C
  5
467
 10
249.486
 20
122.909915
 30
0.0
 11
249.486
 21
202.909915
 31
0.0
  0
LINE
  8
15
  5
468
 10
132.7
 20
125.909915
 30
0.0
 11
132.7
 21
162.909915
 31
0.0
  0
LINE
  8
16
  5
469
 10
127.7
 20
120.909915
 30
0.0
 11
127.7
 21
162.909915
 31
0.0
  0
LINE
  8
0C
  5
46A
 10
249.486
 20
150.409915
 30
0.0
 11
249.486
 21
175.409915
 31
0.0
  0
LINE
  8
0C
  5
46B
 10
237.986
 20
155.409915
 30
0.0
 11
237.986
 21
170.409915
 31
0.0
  0
LINE
  8
16
  5
46C
 10
94.4
 20
172.409915
 30
0.0
 11
94.4
 21
153.409915
 31
0.0
  0
LINE
  8
16
  5
46D
 10
127.7
 20
120.909915
 30
0.0
 11
127.7
 21
204.909915
 31
0.0
  0
LINE
  8
16
  5
46E
 10
94.4
 20
172.409915
 30
0.0
 11
94.4
 21
153.409915
 31
0.0
  0
LINE
  8
16
  5
46F
 10
83.7
 20
204.909915
 30
0.0
 11
83.7
 21
120.909915
 31
0.0
  0
LINE
  8
16
  5
470
 10
22.5
 20
193.609915
 30
0.0
 11
22.5
 21
100.409915
 31
0.0
  0
LINE
  8
16
  5
471
 10
32.7
 20
156.909915
 30
0.0
 11
32.7
 21
142.409915
 31
0.0
  0
LINE
  8
0B
  5
472
 10
237.986
 20
223.409915
 30
0.0
 11
237.986
 21
102.409915
 31
0.0
  0
LINE
  8
0B
  5
473
 10
237.986
 20
223.409915
 30
0.0
 11
237.986
 21
102.409915
 31
0.0
  0
LINE
  8
16
  5
474
 10
22.5
 20
100.409915
 30
0.0
 11
22.5
 21
225.409915
 31
0.0
  0
TEXT
  8
FF
  5
476
 10
19.194
 20
37.045915
 30
0.0
 40
12.0
  1
※１　サイドオン補助接点ユニット２個取付けた場合
 41
0.833333
  0
LINE
  8
15
  5
477
 10
101.2856
 20
116.497915
 30
0.0
 11
105.1144
 21
120.325915
 31
0.0
  0
LINE
  8
16
  5
478
 10
127.7
 20
153.409915
 30
0.0
 11
94.4
 21
153.409915
 31
0.0
  0
LINE
  8
16
  5
479
 10
90.6
 20
120.909915
 30
0.0
 11
127.7
 21
120.909915
 31
0.0
  0
LINE
  8
15
  6
CONTINUOUS
  5
495
 10
91.1
 20
101.309915
 30
0.0
 11
91.1
 21
100.909915
 31
0.0
  0
LINE
  8
15
  6
CONTINUOUS
  5
496
 10
86.1
 20
102.909915
 30
0.0
 11
86.1
 21
99.409915
 31
0.0
  0
LINE
  8
16
  6
CONTINUOUS
  5
497
 10
16.5
 20
134.409915
 30
0.0
 11
16.5
 21
100.409915
 31
0.0
  0
LINE
  8
16
  5
498
 10
90.1
 20
113.909915
 30
0.0
 11
90.1
 21
100.909915
 31
0.0
  0
ARC
  8
15
  5
499
 10
43.7
 20
101.409915
 30
0.0
 40
1.0
 50
270.0
 51
0.0
  0
LINE
  8
15
  5
49A
 10
16.0
 20
134.109915
 30
0.0
 11
16.0
 21
100.909915
 31
0.0
  0
LINE
  8
15
  5
49B
 10
43.7
 20
100.409915
 30
0.0
 11
22.5
 21
100.409915
 31
0.0
  0
LINE
  8
15
  5
49C
 10
22.5
 20
100.409915
 30
0.0
 11
16.5
 21
100.409915
 31
0.0
  0
ARC
  8
15
  5
49D
 10
16.3
 20
100.909915
 30
0.0
 40
0.3
 50
180.0
 51
270.0
  0
LINE
  8
15
  5
49E
 10
16.5
 20
100.609915
 30
0.0
 11
16.3
 21
100.609915
 31
0.0
  0
LINE
  8
16
  5
49F
 10
27.8
 20
100.409915
 30
0.0
 11
22.5
 21
100.409915
 31
0.0
  0
LINE
  8
15
  5
4A0
 10
90.1
 20
99.409915
 30
0.0
 11
86.1
 21
99.409915
 31
0.0
  0
LINE
  8
15
  6
CONTINUOUS
  5
4A1
 10
90.1
 20
100.909915
 30
0.0
 11
90.1
 21
99.409915
 31
0.0
  0
LINE
  8
15
  5
4A2
 10
90.1
 20
100.909915
 30
0.0
 11
91.1
 21
100.909915
 31
0.0
  0
CIRCLE
  8
17
  5
4A3
 10
53.0
 20
148.661915
 30
0.0
 40
1.9
  0
CIRCLE
  8
17
  5
4A4
 10
53.0
 20
148.661915
 30
0.0
 40
3.5
  0
LINE
  8
16
  5
4A5
 10
59.3132
 20
130.709915
 30
0.0
 11
35.8
 21
130.709915
 31
0.0
  0
LINE
  8
15
  5
4A6
 10
74.7856
 20
114.909915
 30
0.0
 11
45.7
 21
114.909915
 31
0.0
  0
LINE
  8
16
  5
4A7
 10
33.7
 20
142.409915
 30
0.0
 11
33.7
 21
118.909915
 31
0.0
  0
ARC
  8
16
  5
4AA
 10
16.3
 20
118.109915
 30
0.0
 40
0.3
 50
90.0
 51
180.0
  0
LINE
  8
16
  5
4AB
 10
16.3
 20
118.409915
 30
0.0
 11
16.5
 21
118.409915
 31
0.0
  0
LINE
  8
16
  6
CONTINUOUS
  5
4AD
 10
44.7
 20
113.909915
 30
0.0
 11
44.7
 21
116.909915
 31
0.0
  0
ARC
  8
15
  5
4AE
 10
45.7
 20
113.909915
 30
0.0
 40
1.0
 50
90.0
 51
180.0
  0
LINE
  8
15
  5
4AF
 10
44.7
 20
101.409915
 30
0.0
 11
44.7
 21
113.909915
 31
0.0
  0
LINE
  8
16
  5
4B0
 10
34.7
 20
117.909915
 30
0.0
 11
43.7
 21
117.909915
 31
0.0
  0
ARC
  8
16
  5
4B1
 10
34.7
 20
118.909915
 30
0.0
 40
1.0
 50
180.0
 51
270.0
  0
ARC
  8
16
  5
4B2
 10
43.7
 20
116.909915
 30
0.0
 40
1.0
 50
0.0
 51
90.0
  0
ARC
  8
15
  5
4B3
 10
16.3
 20
134.109915
 30
0.0
 40
0.3
 50
90.0
 51
180.0
  0
LINE
  8
15
  5
4B4
 10
16.3
 20
134.409915
 30
0.0
 11
16.5
 21
134.409915
 31
0.0
  0
ARC
  8
16
  5
4B5
 10
35.8
 20
131.709915
 30
0.0
 40
1.0
 50
180.0
 51
270.0
  0
LINE
  8
16
  5
4B6
 10
33.7
 20
142.409915
 30
0.0
 11
32.7
 21
142.409915
 31
0.0
  0
LINE
  8
16
  5
4B7
 10
90.6
 20
153.409915
 30
0.0
 11
90.6
 21
119.409915
 31
0.0
  0
LINE
  8
16
  5
4B8
 10
90.6
 20
153.409915
 30
0.0
 11
90.6
 21
119.909915
 31
0.0
  0
LINE
  8
15
  5
4B9
 10
76.6
 20
104.409915
 30
0.0
 11
84.6
 21
104.409915
 31
0.0
  0
LINE
  8
15
  5
4BA
 10
84.6
 20
110.409915
 30
0.0
 11
76.6
 21
110.409915
 31
0.0
  0
LINE
  8
15
  5
4BB
 10
76.2
 20
115.909915
 30
0.0
 11
86.0
 21
115.909915
 31
0.0
  0
LINE
  8
16
  5
4BC
 10
80.9072
 20
120.617915
 30
0.0
 11
76.2
 21
115.909915
 31
0.0
  0
ARC
  8
15
  5
4BD
 10
74.7856
 20
115.909915
 30
0.0
 40
1.0
 50
270.0
 51
315.0
  0
LINE
  8
15
  5
4BE
 10
76.6
 20
110.409915
 30
0.0
 11
76.6
 21
104.409915
 31
0.0
  0
LINE
  8
15
  6
CONTINUOUS
  5
4BF
 10
76.2
 20
115.909915
 30
0.0
 11
75.492707
 21
115.202809
 31
0.0
  0
LINE
  8
15
  6
CONTINUOUS
  5
4C0
 10
86.1
 20
111.909915
 30
0.0
 11
86.09856
 21
115.914784
 31
0.0
  0
LINE
  8
15
  5
4C1
 10
90.1
 20
115.909915
 30
0.0
 11
90.1
 21
113.909915
 31
0.0
  0
LINE
  8
16
  5
4C2
 10
86.1
 20
111.909915
 30
0.0
 11
86.1
 21
102.909915
 31
0.0
  0
LINE
  8
16
  5
4C3
 10
84.6
 20
110.409915
 30
0.0
 11
84.6
 21
104.409915
 31
0.0
  0
LINE
  8
15
  6
CONTINUOUS
  5
4C4
 10
84.6
 20
104.409915
 30
0.0
 11
84.6
 21
103.409915
 31
0.0
  0
ARC
  8
15
  5
4C5
 10
85.6
 20
102.909915
 30
0.0
 40
0.5
 50
0.0
 51
90.0
  0
LINE
  8
15
  5
4C6
 10
85.6
 20
103.409915
 30
0.0
 11
84.6
 21
103.409915
 31
0.0
  0
LINE
  8
15
  6
CONTINUOUS
  5
4C7
 10
84.6
 20
110.409915
 30
0.0
 11
84.6
 21
111.409915
 31
0.0
  0
ARC
  8
15
  5
4C8
 10
85.6
 20
111.909915
 30
0.0
 40
0.5
 50
270.0
 51
0.0
  0
LINE
  8
15
  5
4C9
 10
84.6
 20
111.409915
 30
0.0
 11
85.6
 21
111.409915
 31
0.0
  0
LINE
  8
15
  5
4CA
 10
96.75
 20
101.637915
 30
0.0
 11
96.75
 21
113.185915
 31
0.0
  0
LINE
  8
16
  5
4CB
 10
92.6
 20
113.185915
 30
0.0
 11
92.6
 21
101.637915
 31
0.0
  0
LINE
  8
16
  5
4CC
 10
91.1
 20
108.661915
 30
0.0
 11
92.6
 21
107.161915
 31
0.0
  0
LINE
  8
16
  5
4CD
 10
92.6
 20
101.637915
 30
0.0
 11
92.6
 21
113.185915
 31
0.0
  0
LINE
  8
16
  5
4CE
 10
91.1
 20
113.509915
 30
0.0
 11
91.1
 21
101.309915
 31
0.0
  0
LINE
  8
16
  5
4CF
 10
91.1
 20
101.309915
 30
0.0
 11
91.1
 21
113.509915
 31
0.0
  0
LINE
  8
16
  5
4D0
 10
96.75
 20
104.409915
 30
0.0
 11
92.6
 21
104.409915
 31
0.0
  0
LINE
  8
15
  5
4D1
 10
92.6
 20
101.637915
 30
0.0
 11
96.75
 21
101.637915
 31
0.0
  0
LINE
  8
15
  6
CONTINUOUS
  5
4D2
 10
92.6
 20
101.309915
 30
0.0
 11
92.6
 21
101.637915
 31
0.0
  0
LINE
  8
16
  5
4D3
 10
91.1
 20
107.661915
 30
0.0
 11
92.6
 21
106.161915
 31
0.0
  0
LINE
  8
15
  5
4D4
 10
91.1
 20
101.309915
 30
0.0
 11
92.6
 21
101.309915
 31
0.0
  0
LINE
  8
16
  5
4D5
 10
96.75
 20
110.409915
 30
0.0
 11
92.6
 21
110.409915
 31
0.0
  0
LINE
  8
15
  5
4D6
 10
96.75
 20
113.185915
 30
0.0
 11
92.6
 21
113.185915
 31
0.0
  0
LINE
  8
15
  6
CONTINUOUS
  5
4D7
 10
92.6
 20
113.509915
 30
0.0
 11
92.6
 21
113.185915
 31
0.0
  0
LINE
  8
15
  6
CONTINUOUS
  5
4D8
 10
91.1
 20
113.509915
 30
0.0
 11
91.1
 21
113.909915
 31
0.0
  0
LINE
  8
15
  5
4D9
 10
92.6
 20
113.509915
 30
0.0
 11
91.1
 21
113.509915
 31
0.0
  0
LINE
  8
15
  5
4DA
 10
91.1
 20
113.909915
 30
0.0
 11
90.1
 21
113.909915
 31
0.0
  0
LINE
  8
16
  5
4DB
 10
81.6144
 20
120.909915
 30
0.0
 11
90.6
 21
120.909915
 31
0.0
  0
LINE
  8
16
  5
4DC
 10
90.6
 20
119.909915
 30
0.0
 11
87.0
 21
119.909915
 31
0.0
  0
ARC
  8
16
  5
4DD
 10
81.6144
 20
119.909915
 30
0.0
 40
1.0
 50
90.0
 51
135.0
  0
ARC
  8
16
  5
4DE
 10
86.0
 20
116.909915
 30
0.0
 40
1.0
 50
270.0
 51
0.0
  0
LINE
  8
16
  5
4DF
 10
87.0
 20
119.909915
 30
0.0
 11
87.0
 21
116.909915
 31
0.0
  0
LINE
  8
15
  5
4E0
 10
99.8716
 20
115.909915
 30
0.0
 11
90.1
 21
115.909915
 31
0.0
  0
LINE
  8
16
  6
CONTINUOUS
  5
4E1
 10
90.1
 20
115.909915
 30
0.0
 11
90.10413
 21
119.909915
 31
0.0
  0
ARC
  8
16
  5
4E2
 10
90.1
 20
119.409915
 30
0.0
 40
0.5
 50
270.0
 51
0.0
  0
ARC
  8
15
  5
4E3
 10
99.8716
 20
117.909915
 30
0.0
 40
2.0
 50
270.0
 51
315.0
  0
LINE
  8
16
  5
4E4
 10
81.2
 20
138.909915
 30
0.0
 11
62.2
 21
138.909915
 31
0.0
  0
LINE
  8
16
  5
4E5
 10
62.2
 20
138.909915
 30
0.0
 11
62.2
 21
134.245915
 31
0.0
  0
ARC
  8
16
  5
4E6
 10
60.2
 20
134.245915
 30
0.0
 40
2.0
 50
330.0
 51
0.000003
  0
ARC
  8
16
  5
4E7
 10
59.3132
 20
132.709915
 30
0.0
 40
2.0
 50
270.0
 51
330.0
  0
LINE
  8
16
  5
4E8
 10
61.932
 20
133.245915
 30
0.0
 11
61.0452
 21
131.709915
 31
0.0
  0
ARC
  8
16
  5
4E9
 10
81.2
 20
139.909915
 30
0.0
 40
1.0
 50
270.0
 51
0.000003
  0
LINE
  8
16
  5
4EA
 10
84.7
 20
153.409915
 30
0.0
 11
94.4
 21
153.409915
 31
0.0
  0
ARC
  8
16
  5
4EB
 10
84.7
 20
154.409915
 30
0.0
 40
1.0
 50
180.0
 51
270.0
  0
ARC
  8
15
  5
4EC
 10
106.5284
 20
118.909915
 30
0.0
 40
2.0
 50
90.0
 51
135.0
  0
LINE
  8
15
  5
4ED
 10
132.7
 20
125.909915
 30
0.0
 11
131.4596
 21
121.281915
 31
0.0
  0
ARC
  8
15
  5
4EE
 10
130.9768
 20
121.409915
 30
0.0
 40
0.5
 50
270.0
 51
345.0
  0
LINE
  8
15
  5
4EF
 10
127.7
 20
120.909915
 30
0.0
 11
130.9768
 21
120.909915
 31
0.0
  0
LINE
  8
0C
  5
4F0
 10
241.986
 20
100.409915
 30
0.0
 11
241.986
 21
112.381915
 31
0.0
  0
LINE
  8
0C
  5
4F1
 10
257.986
 20
100.409915
 30
0.0
 11
257.986
 21
115.041915
 31
0.0
  0
LINE
  8
0C
  5
4F2
 10
273.986
 20
112.385915
 30
0.0
 11
273.986
 21
100.409915
 31
0.0
  0
LINE
  8
0C
  5
4F3
 10
289.986
 20
100.409915
 30
0.0
 11
289.986
 21
112.385915
 31
0.0
  0
ARC
  8
0C
  5
4F4
 10
294.786
 20
101.409915
 30
0.0
 40
1.0
 50
270.0
 51
0.0
  0
ARC
  8
0B
  5
4F5
 10
239.986
 20
102.409915
 30
0.0
 40
2.0
 50
180.0
 51
270.0
  0
ARC
  8
0C
  5
4F6
 10
260.586
 20
101.409915
 30
0.0
 40
1.0
 50
270.0
 51
0.0
  0
ARC
  8
0C
  5
4F7
 10
269.186
 20
101.409915
 30
0.0
 40
1.0
 50
180.0
 51
270.0
  0
ARC
  8
0B
  5
4F8
 10
239.986
 20
102.409915
 30
0.0
 40
2.0
 50
180.0
 51
270.0
  0
LINE
  8
0B
  5
4F9
 10
242.986
 20
99.409915
 30
0.0
 11
256.986
 21
99.409915
 31
0.0
  0
LINE
  8
0B
  5
4FA
 10
241.986
 20
100.409915
 30
0.0
 11
239.986
 21
100.409915
 31
0.0
  0
LINE
  8
0B
  5
4FB
 10
241.986
 20
100.409915
 30
0.0
 11
239.986
 21
100.409915
 31
0.0
  0
LINE
  8
0B
  5
4FC
 10
242.986
 20
99.409915
 30
0.0
 11
241.986
 21
100.409915
 31
0.0
  0
LINE
  8
0B
  5
4FD
 10
273.986
 20
100.409915
 30
0.0
 11
257.986
 21
100.409915
 31
0.0
  0
LINE
  8
0B
  5
4FE
 10
273.986
 20
100.409915
 30
0.0
 11
257.986
 21
100.409915
 31
0.0
  0
LINE
  8
0B
  5
4FF
 10
257.986
 20
100.409915
 30
0.0
 11
256.986
 21
99.409915
 31
0.0
  0
LINE
  8
0B
  5
500
 10
274.986
 20
99.409915
 30
0.0
 11
288.986
 21
99.409915
 31
0.0
  0
LINE
  8
0B
  5
501
 10
273.986
 20
100.409915
 30
0.0
 11
274.986
 21
99.409915
 31
0.0
  0
LINE
  8
0B
  5
502
 10
288.986
 20
99.409915
 30
0.0
 11
289.986
 21
100.409915
 31
0.0
  0
LINE
  8
0D
  5
503
 10
248.574
 20
125.409915
 30
0.0
 11
245.398
 21
125.409915
 31
0.0
  0
LINE
  8
0C
  5
504
 10
247.886
 20
133.609915
 30
0.0
 11
243.986
 21
133.609915
 31
0.0
  0
ARC
  8
0C
  5
505
 10
244.486
 20
148.409915
 30
0.0
 40
5.0
 50
0.0
 51
90.0
  0
CIRCLE
  8
0D
  5
506
 10
249.986
 20
107.409915
 30
0.0
 40
5.77352
  0
LINE
  8
0D
  5
507
 10
249.986
 20
113.185915
 30
0.0
 11
244.986
 21
110.297915
 31
0.0
  0
LINE
  8
0D
  5
508
 10
244.986
 20
104.521915
 30
0.0
 11
249.986
 21
101.637915
 31
0.0
  0
LINE
  8
0C
  5
509
 10
249.914
 20
121.673915
 30
0.0
 11
246.278
 21
118.509915
 31
0.0
  0
ARC
  8
0C
  5
50A
 10
244.486
 20
148.409915
 30
0.0
 40
5.0
 50
0.0
 51
90.0
  0
CIRCLE
  8
0D
  5
50B
 10
246.986
 20
125.409915
 30
0.0
 40
2.4
  0
ARC
  8
0D
  5
50C
 10
247.286
 20
136.109915
 30
0.0
 40
0.5
 50
270.0
 51
0.0
  0
ARC
  8
0D
  5
50D
 10
247.286
 20
142.709915
 30
0.0
 40
0.5
 50
0.0
 51
90.0
  0
ARC
  8
0D
  5
50E
 10
247.286
 20
145.609915
 30
0.0
 40
0.5
 50
270.0
 51
0.0
  0
LINE
  8
0D
  5
50F
 10
246.986
 20
129.309915
 30
0.0
 11
246.986
 21
128.585915
 31
0.0
  0
LINE
  8
0C
  5
510
 10
241.986
 20
112.381915
 30
0.0
 11
246.278
 21
118.509915
 31
0.0
  0
LINE
  8
0D
  5
511
 10
244.986
 20
110.297915
 30
0.0
 11
244.986
 21
104.521915
 31
0.0
  0
LINE
  8
0D
  5
512
 10
246.986
 20
122.233915
 30
0.0
 11
246.986
 21
121.509915
 31
0.0
  0
LINE
  8
0C
  5
513
 10
245.858
 20
117.909915
 30
0.0
 11
238.986
 21
117.909915
 31
0.0
  0
ARC
  8
0C
  5
514
 10
238.986
 20
116.909915
 30
0.0
 40
1.0
 50
90.0
 51
180.0
  0
LINE
  8
0D
  5
515
 10
243.81
 20
125.409915
 30
0.0
 11
243.086
 21
125.409915
 31
0.0
  0
LINE
  8
0D
  5
516
 10
246.986
 20
126.997915
 30
0.0
 11
246.986
 21
123.821915
 31
0.0
  0
LINE
  8
0C
  5
517
 10
240.086
 20
153.413915
 30
0.0
 11
240.086
 21
131.209915
 31
0.0
  0
ARC
  8
0D
  5
518
 10
240.686
 20
142.709915
 30
0.0
 40
0.5
 50
90.0
 51
180.0
  0
LINE
  8
0D
  6
PHANTOM
  5
519
 10
225.9852
 20
130.709915
 30
0.0
 11
237.986
 21
130.709915
 31
0.0
  0
ARC
  8
0D
  5
51A
 10
240.686
 20
136.109915
 30
0.0
 40
0.5
 50
180.0
 51
270.0
  0
LINE
  8
0C
  5
51B
 10
240.086
 20
133.609915
 30
0.0
 11
243.986
 21
133.609915
 31
0.0
  0
LINE
  8
0D
  5
51C
 10
247.286
 20
135.609915
 30
0.0
 11
240.686
 21
135.609915
 31
0.0
  0
ARC
  8
0C
  5
51D
 10
238.486
 20
131.209915
 30
0.0
 40
0.5
 50
180.0
 51
270.0
  0
ARC
  8
0C
  5
51E
 10
239.586
 20
131.209915
 30
0.0
 40
0.5
 50
270.0
 51
0.0
  0
LINE
  8
0C
  5
51F
 10
238.486
 20
130.709915
 30
0.0
 11
239.586
 21
130.709915
 31
0.0
  0
CIRCLE
  8
0D
  5
520
 10
243.986
 20
139.409915
 30
0.0
 40
3.0
  0
LINE
  8
0D
  5
521
 10
240.186
 20
136.109915
 30
0.0
 11
240.186
 21
142.709915
 31
0.0
  0
LINE
  8
0D
  5
522
 10
245.246
 20
138.149915
 30
0.0
 11
242.726
 21
140.669915
 31
0.0
  0
LINE
  8
0D
  5
523
 10
245.246
 20
140.669915
 30
0.0
 11
242.726
 21
138.149915
 31
0.0
  0
CIRCLE
  8
0D
  5
524
 10
243.986
 20
148.909915
 30
0.0
 40
3.0
  0
LINE
  8
0D
  5
525
 10
245.246
 20
150.169915
 30
0.0
 11
242.726
 21
147.649915
 31
0.0
  0
LINE
  8
0D
  5
526
 10
245.246
 20
147.649915
 30
0.0
 11
242.726
 21
150.169915
 31
0.0
  0
LINE
  8
0D
  5
527
 10
240.186
 20
145.609915
 30
0.0
 11
240.186
 21
152.209915
 31
0.0
  0
LINE
  8
0D
  5
528
 10
247.286
 20
143.209915
 30
0.0
 11
240.686
 21
143.209915
 31
0.0
  0
LINE
  8
0D
  5
529
 10
247.286
 20
145.109915
 30
0.0
 11
240.686
 21
145.109915
 31
0.0
  0
ARC
  8
0D
  5
52A
 10
240.686
 20
145.609915
 30
0.0
 40
0.5
 50
180.0
 51
270.0
  0
LINE
  8
0C
  5
52B
 10
239.986
 20
153.409915
 30
0.0
 11
244.486
 21
153.409915
 31
0.0
  0
LINE
  8
0D
  5
52C
 10
247.038
 20
152.709915
 30
0.0
 11
240.686
 21
152.709915
 31
0.0
  0
ARC
  8
0C
  5
52D
 10
239.986
 20
155.409915
 30
0.0
 40
2.0
 50
180.0
 51
270.0
  0
ARC
  8
0D
  5
52E
 10
240.686
 20
152.209915
 30
0.0
 40
0.5
 50
90.0
 51
180.0
  0
LINE
  8
0C
  5
52F
 10
246.666
 20
152.909915
 30
0.0
 11
243.986
 21
152.909915
 31
0.0
  0
LINE
  8
0C
  5
530
 10
249.486
 20
122.909915
 30
0.0
 11
249.486
 21
150.409915
 31
0.0
  0
LINE
  8
0C
  5
531
 10
249.486
 20
148.409915
 30
0.0
 11
249.486
 21
122.909915
 31
0.0
  0
ARC
  8
0C
  5
532
 10
272.186
 20
116.709915
 30
0.0
 40
0.8
 50
210.0
 51
0.353878
  0
LINE
  8
0C
  5
533
 10
274.486
 20
115.909915
 30
0.0
 11
258.594
 21
115.909915
 31
0.0
  0
LINE
  8
0D
  5
534
 10
254.986
 20
104.521915
 30
0.0
 11
254.986
 21
110.297915
 31
0.0
  0
LINE
  8
0D
  5
535
 10
249.986
 20
101.637915
 30
0.0
 11
254.986
 21
104.521915
 31
0.0
  0
LINE
  8
0D
  5
536
 10
254.986
 20
110.297915
 30
0.0
 11
249.986
 21
113.185915
 31
0.0
  0
LINE
  8
0C
  5
537
 10
268.186
 20
113.709915
 30
0.0
 11
268.186
 21
101.409915
 31
0.0
  0
LINE
  8
0C
  5
538
 10
261.586
 20
113.709915
 30
0.0
 11
261.586
 21
101.409915
 31
0.0
  0
LINE
  8
0C
  5
539
 10
262.086
 20
110.909915
 30
0.0
 11
267.686
 21
110.909915
 31
0.0
  0
LINE
  8
0C
  5
53A
 10
262.086
 20
114.209915
 30
0.0
 11
267.686
 21
114.209915
 31
0.0
  0
ARC
  8
0C
  5
53B
 10
262.086
 20
111.409915
 30
0.0
 40
0.5
 50
180.0
 51
270.0
  0
ARC
  8
0C
  5
53C
 10
262.086
 20
113.709915
 30
0.0
 40
0.5
 50
90.0
 51
180.0
  0
ARC
  8
0C
  5
53D
 10
267.686
 20
111.409915
 30
0.0
 40
0.5
 50
270.0
 51
0.0
  0
ARC
  8
0C
  5
53E
 10
267.686
 20
113.709915
 30
0.0
 40
0.5
 50
0.0
 51
90.0
  0
LINE
  8
0C
  5
53F
 10
265.586
 20
120.909915
 30
0.0
 11
251.486
 21
120.909915
 31
0.0
  0
LINE
  8
0C
  5
540
 10
262.094
 20
120.909915
 30
0.0
 11
257.986
 21
115.041915
 31
0.0
  0
LINE
  8
0C
  5
541
 10
265.434
 20
120.909915
 30
0.0
 11
251.486
 21
120.909915
 31
0.0
  0
ARC
  8
0C
  5
542
 10
251.486
 20
122.909915
 30
0.0
 40
2.0
 50
180.0
 51
270.0
  0
ARC
  8
0C
  5
543
 10
251.486
 20
122.909915
 30
0.0
 40
2.0
 50
180.0
 51
270.0
  0
ARC
  8
0C
  5
544
 10
251.486
 20
122.909915
 30
0.0
 40
2.0
 50
180.0
 51
270.0
  0
LINE
  8
0D
  5
545
 10
250.886
 20
125.409915
 30
0.0
 11
250.162
 21
125.409915
 31
0.0
  0
ARC
  8
0C
  5
546
 10
265.586
 20
118.909915
 30
0.0
 40
2.0
 50
0.0
 51
90.0
  0
ARC
  8
0C
  5
547
 10
268.386
 20
116.709915
 30
0.0
 40
0.8
 50
180.0
 51
330.0
  0
ARC
  8
0C
  5
548
 10
270.286
 20
116.401915
 30
0.0
 40
1.0
 50
30.0
 51
150.0
  0
LINE
  8
0C
  5
549
 10
271.494
 20
116.309915
 30
0.0
 11
271.15
 21
116.901915
 31
0.0
  0
LINE
  8
0C
  5
54A
 10
269.078
 20
116.309915
 30
0.0
 11
269.418
 21
116.901915
 31
0.0
  0
LINE
  8
0C
  5
54B
 10
267.586
 20
116.709915
 30
0.0
 11
267.586
 21
118.909915
 31
0.0
  0
LINE
  8
0C
  5
54C
 10
276.886
 20
117.409915
 30
0.0
 11
273.986
 21
112.385915
 31
0.0
  0
LINE
  8
0C
  5
54D
 10
287.086
 20
117.409915
 30
0.0
 11
289.986
 21
112.385915
 31
0.0
  0
LINE
  8
0C
  5
54E
 10
275.486
 20
114.909915
 30
0.0
 11
274.486
 21
115.909915
 31
0.0
  0
LINE
  8
0C
  5
54F
 10
288.486
 20
114.909915
 30
0.0
 11
289.486
 21
115.909915
 31
0.0
  0
CIRCLE
  8
0D
  5
550
 10
281.986
 20
107.409915
 30
0.0
 40
5.77352
  0
LINE
  8
0D
  5
551
 10
286.986
 20
110.297915
 30
0.0
 11
281.986
 21
113.185915
 31
0.0
  0
LINE
  8
0D
  5
552
 10
281.986
 20
101.637915
 30
0.0
 11
286.986
 21
104.521915
 31
0.0
  0
LINE
  8
0D
  5
553
 10
276.986
 20
110.297915
 30
0.0
 11
276.986
 21
104.521915
 31
0.0
  0
LINE
  8
0D
  5
554
 10
276.986
 20
104.521915
 30
0.0
 11
281.986
 21
101.637915
 31
0.0
  0
LINE
  8
0D
  5
555
 10
281.986
 20
113.185915
 30
0.0
 11
276.986
 21
110.297915
 31
0.0
  0
LINE
  8
0D
  5
556
 10
286.986
 20
104.521915
 30
0.0
 11
286.986
 21
110.297915
 31
0.0
  0
LINE
  8
0C
  5
557
 10
295.786
 20
113.709915
 30
0.0
 11
295.786
 21
101.409915
 31
0.0
  0
ARC
  8
0C
  5
558
 10
296.286
 20
113.709915
 30
0.0
 40
0.5
 50
90.0
 51
180.0
  0
ARC
  8
0C
  5
559
 10
296.286
 20
111.409915
 30
0.0
 40
0.5
 50
180.0
 51
270.0
  0
LINE
  8
0C
  5
55A
 10
288.986
 20
120.909915
 30
0.0
 11
274.986
 21
120.909915
 31
0.0
  0
LINE
  8
0C
  5
55B
 10
290.986
 20
120.909915
 30
0.0
 11
272.986
 21
120.909915
 31
0.0
  0
ARC
  8
0C
  5
55C
 10
274.986
 20
118.909915
 30
0.0
 40
2.0
 50
90.0
 51
180.0
  0
LINE
  8
0C
  5
55D
 10
272.986
 20
116.705915
 30
0.0
 11
272.986
 21
118.909915
 31
0.0
  0
LINE
  8
0C
  5
55E
 10
276.886
 20
120.909915
 30
0.0
 11
276.886
 21
117.409915
 31
0.0
  0
ARC
  8
0C
  5
55F
 10
288.986
 20
118.909915
 30
0.0
 40
2.0
 50
0.0
 51
90.0
  0
LINE
  8
0C
  5
560
 10
287.086
 20
117.409915
 30
0.0
 11
287.086
 21
120.909915
 31
0.0
  0
ARC
  8
0C
  5
561
 10
293.686
 20
116.401915
 30
0.0
 40
1.0
 50
30.0
 51
150.0
  0
ARC
  8
0C
  5
562
 10
291.786
 20
116.709915
 30
0.0
 40
0.8
 50
179.646
 51
330.0
  0
LINE
  8
0C
  5
563
 10
294.894
 20
116.309915
 30
0.0
 11
294.55
 21
116.901915
 31
0.0
  0
LINE
  8
0C
  5
564
 10
292.478
 20
116.309915
 30
0.0
 11
292.818
 21
116.901915
 31
0.0
  0
LINE
  8
0C
  5
565
 10
290.986
 20
116.705915
 30
0.0
 11
290.986
 21
118.909915
 31
0.0
  0
LINE
  8
0C
  5
566
 10
296.386
 20
116.709915
 30
0.0
 11
296.386
 21
118.909915
 31
0.0
  0
LINE
  8
0C
  5
567
 10
247.886
 20
152.077915
 30
0.0
 11
247.886
 21
131.209915
 31
0.0
  0
ARC
  8
0C
  5
568
 10
248.386
 20
131.209915
 30
0.0
 40
0.5
 50
180.0
 51
270.0
  0
LINE
  8
0C
  5
569
 10
249.486
 20
130.709915
 30
0.0
 11
248.434
 21
130.709915
 31
0.0
  0
LINE
  8
0D
  5
56A
 10
247.786
 20
136.109915
 30
0.0
 11
247.786
 21
142.709915
 31
0.0
  0
LINE
  8
0D
  5
56B
 10
247.786
 20
145.609915
 30
0.0
 11
247.786
 21
152.165915
 31
0.0
  0
LINE
  8
0C
  5
56C
 10
290.986
 20
155.909915
 30
0.0
 11
272.986
 21
155.909915
 31
0.0
  0
LINE
  8
1A
  6
CENTER
  5
56D
 10
137.6768
 20
162.909915
 30
0.0
 11
10.1668
 21
162.909915
 31
0.0
  0
DIMENSION
  8
FF
  5
56E
  2
*D5
 10
16.0
 20
277.217915
 30
0.0
 11
74.35
 21
283.884615
 31
0.0
  1
117
 13
132.7
 23
201.909915
 33
0.0
 14
16.0
 24
226.909915
 34
0.0
 50
180.0
  3
FSTD1
  0
LINE
  8
15
  5
56F
 10
101.2856
 20
209.325915
 30
0.0
 11
105.1144
 21
205.497915
 31
0.0
  0
LINE
  8
16
  5
570
 10
127.7
 20
172.409915
 30
0.0
 11
94.4
 21
172.409915
 31
0.0
  0
LINE
  8
16
  5
571
 10
106.5284
 20
204.909915
 30
0.0
 11
90.6
 21
204.909915
 31
0.0
  0
DIMENSION
  8
FF
  5
572
  2
*D6
 10
16.0
 20
259.457915
 30
0.0
 11
53.05
 21
266.124615
 31
0.0
  1
74
 13
90.1
 23
228.409915
 33
0.0
 14
16.0
 24
226.909915
 34
0.0
 50
180.0
  3
FSTD1
  0
DIMENSION
  8
FF
  5
573
  2
*D11
 10
33.7
 20
240.877915
 30
0.0
 11
63.033366
 21
247.544615
 31
0.0
  1
17.7
 13
16.0
 23
226.909915
 33
0.0
 14
33.7
 24
226.409915
 34
0.0
  3
FSTD2
  0
LINE
  8
15
  6
CONTINUOUS
  5
574
 10
91.1
 20
212.309915
 30
0.0
 11
91.1
 21
211.909915
 31
0.0
  0
LINE
  8
15
  6
CONTINUOUS
  5
575
 10
86.1
 20
213.909915
 30
0.0
 11
86.103787
 21
209.904515
 31
0.0
  0
LINE
  8
16
  5
576
 10
90.1
 20
211.909915
 30
0.0
 11
90.1
 21
224.909915
 31
0.0
  0
LINE
  8
16
  5
577
 10
33.7
 20
224.409915
 30
0.0
 11
33.7
 21
183.409915
 31
0.0
  0
LINE
  8
16
  5
578
 10
22.5
 20
225.409915
 30
0.0
 11
22.5
 21
193.609915
 31
0.0
  0
LINE
  8
15
  5
579
 10
49.8
 20
224.409915
 30
0.0
 11
49.8
 21
210.909915
 31
0.0
  0
LINE
  8
15
  5
57A
 10
16.0
 20
224.909915
 30
0.0
 11
16.0
 21
191.709915
 31
0.0
  0
LINE
  8
16
  5
57B
 10
16.5
 20
225.209915
 30
0.0
 11
16.5
 21
191.409915
 31
0.0
  0
CIRCLE
  8
17
  5
57C
 10
53.0
 20
177.161915
 30
0.0
 40
1.9
  0
CIRCLE
  8
17
  5
57D
 10
53.0
 20
177.161915
 30
0.0
 40
3.5
  0
LINE
  8
16
  5
57E
 10
59.3132
 20
195.109915
 30
0.0
 11
35.8
 21
195.109915
 31
0.0
  0
LINE
  8
15
  5
57F
 10
51.35
 20
209.909915
 30
0.0
 11
75.7856
 21
209.909915
 31
0.0
  0
LINE
  8
16
  5
580
 10
34.8
 20
194.109915
 30
0.0
 11
34.8
 21
162.909915
 31
0.0
  0
LINE
  8
16
  5
581
 10
32.7
 20
183.409915
 30
0.0
 11
32.7
 21
168.909915
 31
0.0
  0
LINE
  8
16
  5
582
 10
33.7
 20
168.909915
 30
0.0
 11
33.7
 21
156.909915
 31
0.0
  0
LINE
  8
16
  5
583
 10
33.7
 20
156.909915
 30
0.0
 11
32.7
 21
156.909915
 31
0.0
  0
LINE
  8
16
  5
584
 10
33.7
 20
168.909915
 30
0.0
 11
32.7
 21
168.909915
 31
0.0
  0
LINE
  8
16
  5
585
 10
33.7
 20
183.409915
 30
0.0
 11
32.7
 21
183.409915
 31
0.0
  0
ARC
  8
15
  5
586
 10
16.3
 20
191.709915
 30
0.0
 40
0.3
 50
180.0
 51
270.0
  0
LINE
  8
15
  5
587
 10
16.3
 20
191.409915
 30
0.0
 11
16.5
 21
191.409915
 31
0.0
  0
ARC
  8
16
  5
588
 10
16.3
 20
209.109915
 30
0.0
 40
0.3
 50
90.0
 51
180.0
  0
LINE
  8
16
  5
589
 10
16.3
 20
209.409915
 30
0.0
 11
16.5
 21
209.409915
 31
0.0
  0
ARC
  8
16
  5
58A
 10
36.3524
 20
199.689915
 30
0.0
 40
1.28
 50
270.0
 51
343.722
  0
LINE
  8
16
  5
58B
 10
33.7
 20
205.909915
 30
0.0
 11
33.7
 21
197.909915
 31
0.0
  0
LINE
  8
16
  5
58C
 10
34.2
 20
197.909915
 30
0.0
 11
34.2
 21
205.909915
 31
0.0
  0
ARC
  8
16
  5
58D
 10
35.8
 20
194.109915
 30
0.0
 40
1.0
 50
90.0
 51
180.0
  0
LINE
  8
16
  5
58E
 10
33.7
 20
197.909915
 30
0.0
 11
34.2
 21
197.909915
 31
0.0
  0
LINE
  8
16
  5
58F
 10
52.9
 20
209.909915
 30
0.0
 11
34.7
 21
209.909915
 31
0.0
  0
ARC
  8
16
  5
590
 10
36.3524
 20
204.129915
 30
0.0
 40
1.28
 50
16.2783
 51
90.0
  0
LINE
  8
16
  5
591
 10
35.2
 20
205.409915
 30
0.0
 11
35.2
 21
198.409915
 31
0.0
  0
LINE
  8
16
  5
592
 10
35.2
 20
198.409915
 30
0.0
 11
35.2
 21
205.409915
 31
0.0
  0
LINE
  8
16
  5
593
 10
34.2
 20
205.409915
 30
0.0
 11
34.2
 21
198.409915
 31
0.0
  0
LINE
  8
16
  5
594
 10
34.2
 20
201.909915
 30
0.0
 11
35.2
 21
200.909915
 31
0.0
  0
LINE
  8
16
  5
595
 10
34.2
 20
202.909915
 30
0.0
 11
35.2
 21
201.909915
 31
0.0
  0
LINE
  8
16
  5
596
 10
34.2
 20
198.409915
 30
0.0
 11
35.2
 21
198.409915
 31
0.0
  0
ARC
  8
16
  5
597
 10
28.75
 20
201.909915
 30
0.0
 40
9.2
 50
343.2
 51
16.8
  0
LINE
  8
16
  5
598
 10
35.2
 20
198.409915
 30
0.0
 11
36.3524
 21
198.409915
 31
0.0
  0
LINE
  8
16
  5
599
 10
35.2
 20
205.409915
 30
0.0
 11
34.2
 21
205.409915
 31
0.0
  0
LINE
  8
16
  5
59A
 10
34.2
 20
205.909915
 30
0.0
 11
33.7
 21
205.909915
 31
0.0
  0
ARC
  8
16
  5
59B
 10
34.7
 20
210.909915
 30
0.0
 40
1.0
 50
180.0
 51
270.0
  0
LINE
  8
16
  5
59C
 10
36.3524
 20
205.409915
 30
0.0
 11
35.2
 21
205.409915
 31
0.0
  0
ARC
  8
15
  5
59D
 10
50.8
 20
210.909915
 30
0.0
 40
1.0
 50
180.0
 51
270.0
  0
LINE
  8
16
  5
59E
 10
82.2
 20
185.909915
 30
0.0
 11
82.2
 21
162.909915
 31
0.0
  0
LINE
  8
16
  5
59F
 10
90.6
 20
206.409915
 30
0.0
 11
90.6
 21
172.409915
 31
0.0
  0
LINE
  8
16
  5
5A0
 10
90.6
 20
205.909915
 30
0.0
 11
90.6
 21
172.409915
 31
0.0
  0
LINE
  8
16
  5
5A1
 10
82.2
 20
159.209915
 30
0.0
 11
55.0
 21
159.209915
 31
0.0
  0
LINE
  8
16
  5
5A2
 10
82.2
 20
166.609915
 30
0.0
 11
55.0
 21
166.609915
 31
0.0
  0
LINE
  8
16
  5
5A3
 10
55.0
 20
162.909915
 30
0.0
 11
55.0
 21
166.609915
 31
0.0
  0
LINE
  8
16
  5
5A4
 10
55.0
 20
162.909915
 30
0.0
 11
55.0
 21
159.209915
 31
0.0
  0
ARC
  8
16
  5
5A5
 10
87.9
 20
163.409915
 30
0.0
 40
1.0
 50
0.0
 51
90.0
  0
ARC
  8
16
  5
5A6
 10
87.9
 20
162.409915
 30
0.0
 40
1.0
 50
270.0
 51
0.0
  0
ARC
  8
16
  5
5A7
 10
87.9
 20
160.909915
 30
0.0
 40
0.5
 50
90.0
 51
180.0
  0
LINE
  8
16
  5
5A8
 10
87.4
 20
156.909915
 30
0.0
 11
87.4
 21
160.909915
 31
0.0
  0
LINE
  8
16
  5
5A9
 10
87.4
 20
156.909915
 30
0.0
 11
83.7
 21
156.909915
 31
0.0
  0
LINE
  8
16
  5
5AA
 10
88.9
 20
162.409915
 30
0.0
 11
88.9
 21
163.409915
 31
0.0
  0
ARC
  8
16
  5
5AB
 10
86.9
 20
168.409915
 30
0.0
 40
0.5
 50
0.0
 51
90.0
  0
ARC
  8
16
  5
5AC
 10
87.9
 20
164.909915
 30
0.0
 40
0.5
 50
180.0
 51
270.0
  0
LINE
  8
16
  5
5AD
 10
86.9
 20
168.909915
 30
0.0
 11
83.7
 21
168.909915
 31
0.0
  0
LINE
  8
16
  5
5AE
 10
87.4
 20
168.409915
 30
0.0
 11
87.4
 21
164.909915
 31
0.0
  0
LINE
  8
16
  5
5AF
 10
84.7
 20
172.409915
 30
0.0
 11
94.4
 21
172.409915
 31
0.0
  0
ARC
  8
16
  5
5B0
 10
84.7
 20
171.409915
 30
0.0
 40
1.0
 50
90.0
 51
180.0
  0
LINE
  8
16
  6
CONTINUOUS
  5
5B1
 10
75.7856
 20
209.909915
 30
0.0
 11
86.0
 21
209.909915
 31
0.0
  0
LINE
  8
16
  5
5B2
 10
81.2
 20
186.909915
 30
0.0
 11
62.2
 21
186.909915
 31
0.0
  0
LINE
  8
16
  5
5B3
 10
80.9072
 20
205.201915
 30
0.0
 11
76.4928
 21
209.617915
 31
0.0
  0
LINE
  8
16
  5
5B4
 10
62.2
 20
186.909915
 30
0.0
 11
62.2
 21
191.573915
 31
0.0
  0
ARC
  8
16
  5
5B5
 10
59.3132
 20
193.109915
 30
0.0
 40
2.0
 50
30.0
 51
90.0
  0
ARC
  8
16
  5
5B6
 10
60.2
 20
191.573915
 30
0.0
 40
2.0
 50
0.0
 51
30.0
  0
LINE
  8
16
  5
5B7
 10
61.932
 20
192.573915
 30
0.0
 11
61.0452
 21
194.109915
 31
0.0
  0
ARC
  8
16
  5
5B8
 10
75.7856
 20
208.909915
 30
0.0
 40
1.0
 50
45.0
 51
90.0
  0
ARC
  8
16
  5
5B9
 10
81.2
 20
185.909915
 30
0.0
 40
1.0
 50
0.0
 51
90.0
  0
LINE
  8
16
  5
5BA
 10
81.6144
 20
204.909915
 30
0.0
 11
90.6
 21
204.909915
 31
0.0
  0
LINE
  8
16
  5
5BB
 10
90.6
 20
205.909915
 30
0.0
 11
87.0
 21
205.909915
 31
0.0
  0
ARC
  8
16
  5
5BC
 10
81.6144
 20
205.909915
 30
0.0
 40
1.0
 50
225.0
 51
270.0
  0
ARC
  8
16
  5
5BD
 10
86.0
 20
208.909915
 30
0.0
 40
1.0
 50
0.0
 51
90.0
  0
LINE
  8
16
  5
5BE
 10
87.0
 20
205.909915
 30
0.0
 11
87.0
 21
208.909915
 31
0.0
  0
LINE
  8
15
  5
5BF
 10
99.8716
 20
209.909915
 30
0.0
 11
90.1
 21
209.909915
 31
0.0
  0
LINE
  8
15
  5
5C0
 10
91.1
 20
211.909915
 30
0.0
 11
90.1
 21
211.909915
 31
0.0
  0
ARC
  8
16
  5
5C1
 10
90.1
 20
206.409915
 30
0.0
 40
0.5
 50
0.0
 51
90.0
  0
LINE
  8
15
  5
5C2
 10
90.1
 20
205.909915
 30
0.0
 11
90.1
 21
211.909915
 31
0.0
  0
ARC
  8
15
  5
5C3
 10
99.8716
 20
207.909915
 30
0.0
 40
2.0
 50
45.0
 51
90.0
  0
LINE
  8
15
  5
5C4
 10
48.8
 20
225.409915
 30
0.0
 11
22.5
 21
225.409915
 31
0.0
  0
LINE
  8
15
  5
5C5
 10
22.5
 20
225.409915
 30
0.0
 11
16.5
 21
225.409915
 31
0.0
  0
LINE
  8
15
  6
CONTINUOUS
  5
5C6
 10
16.5
 20
225.209915
 30
0.0
 11
16.5
 21
225.409915
 31
0.0
  0
ARC
  8
15
  5
5C7
 10
16.3
 20
224.909915
 30
0.0
 40
0.3
 50
90.0
 51
180.0
  0
LINE
  8
15
  5
5C8
 10
16.5
 20
225.209915
 30
0.0
 11
16.3
 21
225.209915
 31
0.0
  0
ARC
  8
16
  5
5C9
 10
32.7
 20
224.409915
 30
0.0
 40
1.0
 50
0.0
 51
90.0
  0
ARC
  8
15
  5
5CA
 10
48.8
 20
224.409915
 30
0.0
 40
1.0
 50
0.0
 51
90.0
  0
LINE
  8
15
  5
5CB
 10
84.6
 20
215.409915
 30
0.0
 11
76.6
 21
215.409915
 31
0.0
  0
LINE
  8
15
  5
5CC
 10
76.6
 20
221.409915
 30
0.0
 11
84.6
 21
221.409915
 31
0.0
  0
LINE
  8
15
  5
5CD
 10
76.6
 20
215.409915
 30
0.0
 11
76.6
 21
221.409915
 31
0.0
  0
LINE
  8
15
  6
CONTINUOUS
  5
5CE
 10
86.1
 20
222.909915
 30
0.0
 11
86.1
 21
226.409915
 31
0.0
  0
LINE
  8
15
  6
CONTINUOUS
  5
5CF
 10
90.1
 20
224.909915
 30
0.0
 11
90.1
 21
226.409915
 31
0.0
  0
LINE
  8
16
  5
5D0
 10
84.6
 20
215.409915
 30
0.0
 11
84.6
 21
221.409915
 31
0.0
  0
LINE
  8
16
  5
5D1
 10
86.1
 20
213.909915
 30
0.0
 11
86.1
 21
222.909915
 31
0.0
  0
LINE
  8
15
  6
CONTINUOUS
  5
5D2
 10
84.6
 20
215.409915
 30
0.0
 11
84.6
 21
214.409915
 31
0.0
  0
ARC
  8
15
  5
5D3
 10
85.6
 20
213.909915
 30
0.0
 40
0.5
 50
0.0
 51
90.0
  0
LINE
  8
15
  5
5D4
 10
84.6
 20
214.409915
 30
0.0
 11
85.6
 21
214.409915
 31
0.0
  0
LINE
  8
15
  6
CONTINUOUS
  5
5D5
 10
84.6
 20
222.409915
 30
0.0
 11
84.6
 21
221.409915
 31
0.0
  0
ARC
  8
15
  5
5D6
 10
85.6
 20
222.909915
 30
0.0
 40
0.5
 50
270.0
 51
0.0
  0
LINE
  8
15
  5
5D7
 10
85.6
 20
222.409915
 30
0.0
 11
84.6
 21
222.409915
 31
0.0
  0
LINE
  8
16
  5
5D8
 10
91.1
 20
224.509915
 30
0.0
 11
91.1
 21
212.309915
 31
0.0
  0
LINE
  8
16
  5
5D9
 10
91.1
 20
212.309915
 30
0.0
 11
91.1
 21
224.509915
 31
0.0
  0
LINE
  8
16
  5
5DA
 10
92.6
 20
224.185915
 30
0.0
 11
92.6
 21
212.637915
 31
0.0
  0
LINE
  8
16
  5
5DB
 10
91.1
 20
218.161915
 30
0.0
 11
92.6
 21
219.661915
 31
0.0
  0
LINE
  8
16
  5
5DC
 10
92.6
 20
212.637915
 30
0.0
 11
92.6
 21
224.185915
 31
0.0
  0
LINE
  8
15
  5
5DD
 10
96.75
 20
224.185915
 30
0.0
 11
96.75
 21
212.637915
 31
0.0
  0
LINE
  8
15
  5
5DE
 10
96.75
 20
212.637915
 30
0.0
 11
92.6
 21
212.637915
 31
0.0
  0
LINE
  8
16
  5
5DF
 10
96.75
 20
215.409915
 30
0.0
 11
92.6
 21
215.409915
 31
0.0
  0
LINE
  8
15
  6
CONTINUOUS
  5
5E0
 10
92.6
 20
212.637915
 30
0.0
 11
92.6
 21
212.309915
 31
0.0
  0
LINE
  8
15
  5
5E1
 10
92.6
 20
212.309915
 30
0.0
 11
91.1
 21
212.309915
 31
0.0
  0
LINE
  8
16
  5
5E2
 10
91.1
 20
217.161915
 30
0.0
 11
92.6
 21
218.661915
 31
0.0
  0
LINE
  8
15
  5
5E3
 10
92.6
 20
224.185915
 30
0.0
 11
96.75
 21
224.185915
 31
0.0
  0
LINE
  8
16
  5
5E4
 10
96.75
 20
221.409915
 30
0.0
 11
92.6
 21
221.409915
 31
0.0
  0
LINE
  8
15
  6
CONTINUOUS
  5
5E5
 10
92.6
 20
224.509915
 30
0.0
 11
92.6
 21
224.185915
 31
0.0
  0
LINE
  8
15
  6
CONTINUOUS
  5
5E6
 10
91.1
 20
224.909915
 30
0.0
 11
91.1
 21
224.509915
 31
0.0
  0
LINE
  8
15
  5
5E7
 10
90.1
 20
224.909915
 30
0.0
 11
91.1
 21
224.909915
 31
0.0
  0
LINE
  8
15
  5
5E8
 10
91.1
 20
224.509915
 30
0.0
 11
92.6
 21
224.509915
 31
0.0
  0
LINE
  8
15
  5
5E9
 10
90.1
 20
226.409915
 30
0.0
 11
86.1
 21
226.409915
 31
0.0
  0
LINE
  8
FF
  5
5EA
 10
214.9848
 20
257.061915
 30
0.0
 11
191.9408
 21
257.061915
 31
0.0
  0
LINE
  8
FF
  5
5EB
 10
215.4828
 20
209.949915
 30
0.0
 11
182.5388
 21
209.949915
 31
0.0
  0
TEXT
  8
FF
  5
5EC
 10
192.0348
 20
260.813915
 30
0.0
 40
6.0
  1
M6
 41
1.0696
  0
TEXT
  8
FF
  5
5ED
 10
182.6328
 20
213.701915
 30
0.0
 40
6.0
  1
M3.5
 41
1.181776
  0
TEXT
  8
FF
  5
5EE
 10
180.862
 20
222.665915
 30
0.0
 40
8.0
  1
補助端子
 41
0.833333
  0
LINE
  8
15
  5
5EF
 10
132.7
 20
199.909915
 30
0.0
 11
132.7
 21
162.909915
 31
0.0
  0
LINE
  8
16
  5
5F0
 10
127.7
 20
204.909915
 30
0.0
 11
127.7
 21
162.909915
 31
0.0
  0
LINE
  8
15
  6
CONTINUOUS
  5
5F1
 10
106.5284
 20
204.909915
 30
0.0
 11
127.7
 21
204.909915
 31
0.0
  0
ARC
  8
15
  5
5F2
 10
106.5284
 20
206.909915
 30
0.0
 40
2.0
 50
225.0
 51
270.0
  0
LINE
  8
15
  5
5F3
 10
132.7
 20
199.909915
 30
0.0
 11
131.4596
 21
204.541915
 31
0.0
  0
ARC
  8
15
  5
5F4
 10
130.9768
 20
204.409915
 30
0.0
 40
0.5
 50
15.0
 51
90.0
  0
LINE
  8
15
  5
5F5
 10
127.7
 20
204.909915
 30
0.0
 11
130.9768
 21
204.909915
 31
0.0
  0
LINE
  8
0C
  5
5F6
 10
262.586
 20
213.809915
 30
0.0
 11
262.586
 21
211.809915
 31
0.0
  0
LINE
  8
0C
  5
5F7
 10
264.586
 20
211.809915
 30
0.0
 11
264.586
 21
212.309915
 31
0.0
  0
LINE
  8
0C
  5
5F8
 10
264.586
 20
211.909915
 30
0.0
 11
264.586
 21
213.809915
 31
0.0
  0
LINE
  8
0C
  5
5F9
 10
262.586
 20
213.209915
 30
0.0
 11
262.586
 21
211.809915
 31
0.0
  0
LINE
  8
0C
  5
5FA
 10
267.386
 20
213.809915
 30
0.0
 11
267.386
 21
211.809915
 31
0.0
  0
LINE
  8
0C
  5
5FB
 10
241.986
 20
213.441915
 30
0.0
 11
246.278
 21
207.309915
 31
0.0
  0
LINE
  8
0C
  5
5FC
 10
287.086
 20
208.409915
 30
0.0
 11
289.986
 21
213.433915
 31
0.0
  0
LINE
  8
0C
  5
5FD
 10
276.886
 20
208.409915
 30
0.0
 11
273.986
 21
213.433915
 31
0.0
  0
LINE
  8
0C
  5
5FE
 10
257.986
 20
225.409915
 30
0.0
 11
257.986
 21
210.777915
 31
0.0
  0
LINE
  8
0C
  5
5FF
 10
258.986
 20
225.409915
 30
0.0
 11
258.986
 21
211.809915
 31
0.0
  0
LINE
  8
0C
  5
600
 10
291.486
 20
225.409915
 30
0.0
 11
291.486
 21
211.809915
 31
0.0
  0
LINE
  8
0C
  5
601
 10
272.486
 20
225.409915
 30
0.0
 11
272.486
 21
211.809915
 31
0.0
  0
LINE
  8
0C
  5
602
 10
247.886
 20
192.209915
 30
0.0
 11
243.986
 21
192.209915
 31
0.0
  0
ARC
  8
0C
  5
603
 10
244.486
 20
177.409915
 30
0.0
 40
5.0
 50
270.0
 51
0.0
  0
CIRCLE
  8
0D
  5
604
 10
244.486
 20
162.909915
 30
0.0
 40
4.0
  0
LINE
  8
0D
  5
605
 10
248.454
 20
163.409915
 30
0.0
 11
245.486
 21
163.409915
 31
0.0
  0
LINE
  8
0D
  5
606
 10
248.454
 20
162.409915
 30
0.0
 11
245.486
 21
162.409915
 31
0.0
  0
LINE
  8
0C
  5
607
 10
249.914
 20
204.149915
 30
0.0
 11
246.278
 21
207.309915
 31
0.0
  0
ARC
  8
0C
  5
608
 10
244.486
 20
177.409915
 30
0.0
 40
5.0
 50
270.0
 51
0.0
  0
ARC
  8
0D
  5
609
 10
247.286
 20
180.209915
 30
0.0
 40
0.5
 50
0.0
 51
90.0
  0
ARC
  8
0D
  5
60A
 10
247.286
 20
183.109915
 30
0.0
 40
0.5
 50
270.0
 51
0.0
  0
ARC
  8
0D
  5
60B
 10
247.286
 20
189.709915
 30
0.0
 40
0.5
 50
0.0
 51
90.0
  0
LINE
  8
0C
  5
60C
 10
240.086
 20
172.409915
 30
0.0
 11
240.086
 21
194.609915
 31
0.0
  0
LINE
  8
0C
  5
60D
 10
237.986
 20
162.909915
 30
0.0
 11
237.986
 21
194.609915
 31
0.0
  0
CIRCLE
  8
0D
  5
60E
 10
243.986
 20
186.409915
 30
0.0
 40
3.0
  0
LINE
  8
0D
  5
60F
 10
240.186
 20
189.709915
 30
0.0
 11
240.186
 21
183.109915
 31
0.0
  0
ARC
  8
0C
  5
610
 10
239.986
 20
170.409915
 30
0.0
 40
2.0
 50
90.0
 51
180.0
  0
ARC
  8
0D
  5
611
 10
245.486
 20
163.909915
 30
0.0
 40
0.5
 50
180.0
 51
270.0
  0
ARC
  8
0D
  5
612
 10
243.486
 20
163.909915
 30
0.0
 40
0.5
 50
270.0
 51
0.0
  0
LINE
  8
0D
  5
613
 10
243.486
 20
163.409915
 30
0.0
 11
240.518
 21
163.409915
 31
0.0
  0
LINE
  8
0D
  5
614
 10
243.486
 20
162.409915
 30
0.0
 11
240.518
 21
162.409915
 31
0.0
  0
ARC
  8
0D
  5
615
 10
245.486
 20
161.909915
 30
0.0
 40
0.5
 50
90.0
 51
180.0
  0
ARC
  8
0D
  5
616
 10
243.486
 20
161.909915
 30
0.0
 40
0.5
 50
0.0
 51
90.0
  0
LINE
  8
0D
  5
617
 10
243.986
 20
160.409915
 30
0.0
 11
244.986
 21
160.409915
 31
0.0
  0
LINE
  8
0D
  5
618
 10
244.986
 20
161.909915
 30
0.0
 11
244.986
 21
160.409915
 31
0.0
  0
LINE
  8
0D
  5
619
 10
243.986
 20
161.909915
 30
0.0
 11
243.986
 21
160.409915
 31
0.0
  0
LINE
  8
0D
  5
61A
 10
243.986
 20
165.409915
 30
0.0
 11
243.986
 21
163.909915
 31
0.0
  0
LINE
  8
0D
  5
61B
 10
244.986
 20
165.409915
 30
0.0
 11
244.986
 21
163.909915
 31
0.0
  0
LINE
  8
0D
  5
61C
 10
243.986
 20
165.409915
 30
0.0
 11
244.986
 21
165.409915
 31
0.0
  0
CIRCLE
  8
0D
  5
61D
 10
243.986
 20
176.909915
 30
0.0
 40
3.0
  0
LINE
  8
0D
  5
61E
 10
240.186
 20
180.209915
 30
0.0
 11
240.186
 21
173.609915
 31
0.0
  0
LINE
  8
0D
  5
61F
 10
245.246
 20
178.169915
 30
0.0
 11
242.726
 21
175.649915
 31
0.0
  0
LINE
  8
0D
  5
620
 10
245.246
 20
175.649915
 30
0.0
 11
242.726
 21
178.169915
 31
0.0
  0
LINE
  8
0C
  5
621
 10
239.986
 20
172.409915
 30
0.0
 11
244.486
 21
172.409915
 31
0.0
  0
LINE
  8
0D
  5
622
 10
247.038
 20
173.109915
 30
0.0
 11
240.686
 21
173.109915
 31
0.0
  0
ARC
  8
0D
  5
623
 10
240.686
 20
173.609915
 30
0.0
 40
0.5
 50
180.0
 51
270.0
  0
LINE
  8
0D
  5
624
 10
247.286
 20
180.709915
 30
0.0
 11
240.686
 21
180.709915
 31
0.0
  0
LINE
  8
0D
  5
625
 10
247.286
 20
182.609915
 30
0.0
 11
240.686
 21
182.609915
 31
0.0
  0
ARC
  8
0D
  5
626
 10
240.686
 20
180.209915
 30
0.0
 40
0.5
 50
90.0
 51
180.0
  0
ARC
  8
0D
  5
627
 10
240.686
 20
183.109915
 30
0.0
 40
0.5
 50
180.0
 51
270.0
  0
LINE
  8
FF
  5
628
 10
241.894
 20
188.561915
 30
0.0
 11
215.4828
 21
209.949915
 31
0.0
  0
LINE
  8
FF
  5
629
 10
241.894
 20
188.561915
 30
0.0
 11
234.749
 21
198.396315
 31
0.0
  0
CIRCLE
  8
0D
  5
62A
 10
242.986
 20
201.909915
 30
0.0
 40
4.0
  0
LINE
  8
FF
  5
62B
 10
230.789
 20
193.506315
 30
0.0
 11
241.894
 21
188.561915
 31
0.0
  0
LINE
  8
0D
  6
PHANTOM
  5
62C
 10
225.9852
 20
195.109915
 30
0.0
 11
237.986
 21
195.109915
 31
0.0
  0
LINE
  8
0D
  5
62D
 10
247.286
 20
190.209915
 30
0.0
 11
240.686
 21
190.209915
 31
0.0
  0
ARC
  8
0D
  5
62E
 10
240.686
 20
189.709915
 30
0.0
 40
0.5
 50
90.0
 51
180.0
  0
LINE
  8
0D
  5
62F
 10
245.246
 20
185.149915
 30
0.0
 11
242.726
 21
187.669915
 31
0.0
  0
LINE
  8
0D
  5
630
 10
245.246
 20
187.669915
 30
0.0
 11
242.726
 21
185.149915
 31
0.0
  0
LINE
  8
0C
  5
631
 10
240.086
 20
192.209915
 30
0.0
 11
243.986
 21
192.209915
 31
0.0
  0
ARC
  8
0C
  5
632
 10
238.486
 20
194.609915
 30
0.0
 40
0.5
 50
90.0
 51
180.0
  0
ARC
  8
0C
  5
633
 10
239.586
 20
194.609915
 30
0.0
 40
0.5
 50
0.0
 51
90.0
  0
LINE
  8
0C
  5
634
 10
238.486
 20
195.109915
 30
0.0
 11
239.586
 21
195.109915
 31
0.0
  0
CIRCLE
  8
0D
  5
635
 10
242.986
 20
201.909915
 30
0.0
 40
3.5
  0
LINE
  8
0D
  5
636
 10
244.454
 20
203.381915
 30
0.0
 11
241.514
 21
200.441915
 31
0.0
  0
LINE
  8
0D
  5
637
 10
241.514
 20
203.381915
 30
0.0
 11
244.454
 21
200.441915
 31
0.0
  0
LINE
  8
0C
  5
638
 10
247.886
 20
173.745915
 30
0.0
 11
247.886
 21
194.609915
 31
0.0
  0
LINE
  8
0C
  5
639
 10
249.486
 20
175.409915
 30
0.0
 11
249.486
 21
202.909915
 31
0.0
  0
LINE
  8
0C
  5
63A
 10
249.486
 20
202.909915
 30
0.0
 11
249.486
 21
177.409915
 31
0.0
  0
LINE
  8
0D
  5
63B
 10
247.786
 20
189.709915
 30
0.0
 11
247.786
 21
183.109915
 31
0.0
  0
LINE
  8
0D
  5
63C
 10
247.786
 20
180.209915
 30
0.0
 11
247.786
 21
173.653915
 31
0.0
  0
LINE
  8
0C
  5
63D
 10
290.986
 20
169.909915
 30
0.0
 11
272.986
 21
169.909915
 31
0.0
  0
ARC
  8
0C
  5
63E
 10
272.186
 20
209.109915
 30
0.0
 40
0.8
 50
359.646
 51
150.0
  0
LINE
  8
0C
  5
63F
 10
276.018
 20
209.909915
 30
0.0
 11
258.594
 21
209.909915
 31
0.0
  0
LINE
  8
0C
  5
640
 10
274.922
 20
211.809915
 30
0.0
 11
258.986
 21
211.809915
 31
0.0
  0
ARC
  8
0C
  5
641
 10
256.486
 20
202.409915
 30
0.0
 40
8.5
 50
199.75
 51
214.56
  0
ARC
  8
0C
  5
642
 10
248.386
 20
194.609915
 30
0.0
 40
0.5
 50
90.0
 51
180.0
  0
LINE
  8
0C
  5
643
 10
249.486
 20
195.109915
 30
0.0
 11
248.386
 21
195.109915
 31
0.0
  0
LINE
  8
0C
  5
644
 10
265.586
 20
204.909915
 30
0.0
 11
251.486
 21
204.909915
 31
0.0
  0
LINE
  8
0C
  5
645
 10
262.094
 20
204.909915
 30
0.0
 11
257.986
 21
210.777915
 31
0.0
  0
LINE
  8
0C
  5
646
 10
265.434
 20
204.909915
 30
0.0
 11
251.486
 21
204.909915
 31
0.0
  0
ARC
  8
0C
  5
647
 10
251.486
 20
202.909915
 30
0.0
 40
2.0
 50
90.0
 51
180.0
  0
ARC
  8
0C
  5
648
 10
251.486
 20
202.909915
 30
0.0
 40
2.0
 50
90.0
 51
180.0
  0
ARC
  8
0C
  5
649
 10
251.486
 20
202.909915
 30
0.0
 40
2.0
 50
90.0
 51
180.0
  0
LINE
  8
0C
  5
64A
 10
248.486
 20
199.537915
 30
0.0
 11
248.486
 21
205.281915
 31
0.0
  0
ARC
  8
0C
  5
64B
 10
265.586
 20
206.909915
 30
0.0
 40
2.0
 50
270.0
 51
0.0
  0
ARC
  8
0C
  5
64C
 10
270.286
 20
209.417915
 30
0.0
 40
1.0
 50
210.0
 51
330.0
  0
ARC
  8
0C
  5
64D
 10
268.386
 20
209.109915
 30
0.0
 40
0.8
 50
30.0
 51
180.0
  0
LINE
  8
0C
  5
64E
 10
269.078
 20
209.509915
 30
0.0
 11
269.418
 21
208.917915
 31
0.0
  0
LINE
  8
0C
  5
64F
 10
271.494
 20
209.509915
 30
0.0
 11
271.15
 21
208.917915
 31
0.0
  0
LINE
  8
0C
  5
650
 10
267.586
 20
209.109915
 30
0.0
 11
267.586
 21
206.909915
 31
0.0
  0
LINE
  8
0C
  5
651
 10
288.986
 20
204.909915
 30
0.0
 11
274.986
 21
204.909915
 31
0.0
  0
LINE
  8
0C
  5
652
 10
290.986
 20
204.909915
 30
0.0
 11
272.986
 21
204.909915
 31
0.0
  0
ARC
  8
0C
  5
653
 10
274.986
 20
206.909915
 30
0.0
 40
2.0
 50
180.0
 51
270.0
  0
LINE
  8
0C
  5
654
 10
276.886
 20
204.909915
 30
0.0
 11
276.886
 21
208.409915
 31
0.0
  0
LINE
  8
0C
  5
655
 10
272.986
 20
209.113915
 30
0.0
 11
272.986
 21
206.909915
 31
0.0
  0
ARC
  8
0C
  5
656
 10
288.986
 20
206.909915
 30
0.0
 40
2.0
 50
270.0
 51
0.0
  0
LINE
  8
0C
  5
657
 10
287.086
 20
208.409915
 30
0.0
 11
287.086
 21
204.909915
 31
0.0
  0
ARC
  8
0C
  5
658
 10
291.786
 20
209.109915
 30
0.0
 40
0.8
 50
30.0
 51
180.354
  0
ARC
  8
0C
  5
659
 10
293.686
 20
209.417915
 30
0.0
 40
1.0
 50
210.0
 51
330.0
  0
LINE
  8
0C
  5
65A
 10
292.478
 20
209.509915
 30
0.0
 11
292.818
 21
208.917915
 31
0.0
  0
LINE
  8
0C
  5
65B
 10
294.894
 20
209.509915
 30
0.0
 11
294.55
 21
208.917915
 31
0.0
  0
LINE
  8
0C
  5
65C
 10
296.386
 20
209.109915
 30
0.0
 11
296.386
 21
206.909915
 31
0.0
  0
LINE
  8
0C
  5
65D
 10
290.986
 20
209.113915
 30
0.0
 11
290.986
 21
206.909915
 31
0.0
  0
CIRCLE
  8
0D
  5
65E
 10
249.986
 20
218.409915
 30
0.0
 40
5.77352
  0
LINE
  8
0D
  5
65F
 10
249.986
 20
224.185915
 30
0.0
 11
244.986
 21
221.297915
 31
0.0
  0
LINE
  8
0D
  5
660
 10
244.986
 20
215.525915
 30
0.0
 11
249.986
 21
212.637915
 31
0.0
  0
LINE
  8
0B
  5
661
 10
242.986
 20
226.409915
 30
0.0
 11
256.986
 21
226.409915
 31
0.0
  0
LINE
  8
FF
  5
662
 10
246.758
 20
223.197915
 30
0.0
 11
214.9848
 21
257.061915
 31
0.0
  0
LINE
  8
FF
  5
663
 10
246.758
 20
223.197915
 30
0.0
 11
241.0184
 21
233.913515
 31
0.0
  0
LINE
  8
FF
  5
664
 10
236.4296
 20
229.607915
 30
0.0
 11
246.758
 21
223.197915
 31
0.0
  0
LINE
  8
0B
  5
665
 10
242.986
 20
226.409915
 30
0.0
 11
241.986
 21
225.409915
 31
0.0
  0
LINE
  8
0D
  5
666
 10
244.986
 20
221.297915
 30
0.0
 11
244.986
 21
215.525915
 31
0.0
  0
LINE
  8
0C
  5
667
 10
241.986
 20
225.409915
 30
0.0
 11
241.986
 21
213.441915
 31
0.0
  0
LINE
  8
0B
  5
668
 10
241.986
 20
225.409915
 30
0.0
 11
239.986
 21
225.409915
 31
0.0
  0
LINE
  8
0B
  5
669
 10
241.986
 20
225.409915
 30
0.0
 11
239.986
 21
225.409915
 31
0.0
  0
ARC
  8
0B
  5
66A
 10
239.986
 20
223.409915
 30
0.0
 40
2.0
 50
90.0
 51
180.0
  0
ARC
  8
0B
  5
66B
 10
239.986
 20
223.409915
 30
0.0
 40
2.0
 50
90.0
 51
180.0
  0
LINE
  8
0B
  5
66D
 10
273.986
 20
225.409915
 30
0.0
 11
257.986
 21
225.409915
 31
0.0
  0
LINE
  8
0B
  5
66E
 10
257.986
 20
225.409915
 30
0.0
 11
256.986
 21
226.409915
 31
0.0
  0
LINE
  8
0D
  5
66F
 10
254.986
 20
215.525915
 30
0.0
 11
254.986
 21
221.297915
 31
0.0
  0
LINE
  8
0D
  5
670
 10
249.986
 20
212.637915
 30
0.0
 11
254.986
 21
215.525915
 31
0.0
  0
LINE
  8
0D
  5
671
 10
254.986
 20
221.297915
 30
0.0
 11
249.986
 21
224.185915
 31
0.0
  0
LINE
  8
0C
  5
672
 10
258.986
 20
225.409915
 30
0.0
 11
257.986
 21
225.409915
 31
0.0
  0
LINE
  8
0C
  5
673
 10
261.586
 20
222.809915
 30
0.0
 11
261.586
 21
213.809915
 31
0.0
  0
LINE
  8
0C
  5
674
 10
270.386
 20
225.409915
 30
0.0
 11
270.386
 21
213.809915
 31
0.0
  0
CIRCLE
  8
0D
  5
675
 10
265.986
 20
219.109915
 30
0.0
 40
3.0
  0
LINE
  8
0D
  5
676
 10
264.726
 20
220.369915
 30
0.0
 11
267.246
 21
217.849915
 31
0.0
  0
LINE
  8
0D
  5
677
 10
264.726
 20
217.849915
 30
0.0
 11
267.246
 21
220.369915
 31
0.0
  0
LINE
  8
0D
  5
678
 10
262.186
 20
222.409915
 30
0.0
 11
262.186
 21
215.809915
 31
0.0
  0
LINE
  8
0D
  5
679
 10
269.786
 20
222.409915
 30
0.0
 11
269.786
 21
215.809915
 31
0.0
  0
LINE
  8
0C
  5
67A
 10
264.586
 20
213.809915
 30
0.0
 11
267.386
 21
213.809915
 31
0.0
  0
LINE
  8
0C
  5
67B
 10
270.386
 20
213.809915
 30
0.0
 11
264.586
 21
213.809915
 31
0.0
  0
LINE
  8
0D
  5
67C
 10
262.686
 20
215.309915
 30
0.0
 11
269.286
 21
215.309915
 31
0.0
  0
LINE
  8
0C
  5
67D
 10
262.586
 20
213.809915
 30
0.0
 11
261.586
 21
213.809915
 31
0.0
  0
ARC
  8
0D
  5
67E
 10
262.686
 20
215.809915
 30
0.0
 40
0.5
 50
180.0
 51
270.0
  0
ARC
  8
0C
  5
67F
 10
270.386
 20
214.809915
 30
0.0
 40
1.0
 50
270.0
 51
275.739
  0
ARC
  8
0D
  5
680
 10
269.286
 20
215.809915
 30
0.0
 40
0.5
 50
270.0
 51
0.0
  0
LINE
  8
0C
  5
681
 10
261.886
 20
223.109915
 30
0.0
 11
270.386
 21
223.109915
 31
0.0
  0
LINE
  8
0C
  5
682
 10
261.586
 20
225.409915
 30
0.0
 11
270.386
 21
225.409915
 31
0.0
  0
LINE
  8
0C
  5
683
 10
261.586
 20
224.909915
 30
0.0
 11
270.386
 21
224.909915
 31
0.0
  0
LINE
  8
0D
  5
684
 10
262.686
 20
222.909915
 30
0.0
 11
269.286
 21
222.909915
 31
0.0
  0
ARC
  8
0C
  5
685
 10
261.886
 20
222.809915
 30
0.0
 40
0.3
 50
90.0
 51
180.0
  0
LINE
  8
0C
  5
686
 10
261.586
 20
222.909915
 30
0.0
 11
261.586
 21
225.409915
 31
0.0
  0
LINE
  8
0C
  5
687
 10
261.586
 20
221.937915
 30
0.0
 11
261.586
 21
222.909915
 31
0.0
  0
ARC
  8
0D
  5
688
 10
262.686
 20
222.409915
 30
0.0
 40
0.5
 50
90.0
 51
180.0
  0
ARC
  8
0D
  5
689
 10
269.286
 20
222.409915
 30
0.0
 40
0.5
 50
0.0
 51
90.0
  0
LINE
  8
0B
  5
68A
 10
273.986
 20
225.409915
 30
0.0
 11
274.986
 21
226.409915
 31
0.0
  0
LINE
  8
0B
  5
68B
 10
288.986
 20
226.409915
 30
0.0
 11
289.986
 21
225.409915
 31
0.0
  0
CIRCLE
  8
0D
  5
68C
 10
281.986
 20
218.409915
 30
0.0
 40
5.77352
  0
LINE
  8
0D
  5
68D
 10
286.986
 20
221.297915
 30
0.0
 11
281.986
 21
224.185915
 31
0.0
  0
LINE
  8
0D
  5
68E
 10
281.986
 20
212.637915
 30
0.0
 11
286.986
 21
215.525915
 31
0.0
  0
LINE
  8
0D
  5
68F
 10
276.986
 20
221.297915
 30
0.0
 11
276.986
 21
215.525915
 31
0.0
  0
LINE
  8
0C
  5
690
 10
273.986
 20
213.433915
 30
0.0
 11
273.986
 21
225.409915
 31
0.0
  0
LINE
  8
0D
  5
691
 10
276.986
 20
215.525915
 30
0.0
 11
281.986
 21
212.637915
 31
0.0
  0
LINE
  8
0D
  5
692
 10
281.986
 20
224.185915
 30
0.0
 11
276.986
 21
221.297915
 31
0.0
  0
LINE
  8
0C
  5
693
 10
293.586
 20
225.409915
 30
0.0
 11
293.586
 21
213.809915
 31
0.0
  0
LINE
  8
0D
  5
694
 10
286.986
 20
215.525915
 30
0.0
 11
286.986
 21
221.297915
 31
0.0
  0
LINE
  8
0C
  5
695
 10
289.986
 20
225.409915
 30
0.0
 11
289.986
 21
213.433915
 31
0.0
  0
LINE
  8
0D
  5
696
 10
294.186
 20
222.409915
 30
0.0
 11
294.186
 21
215.809915
 31
0.0
  0
ARC
  8
0C
  5
697
 10
293.586
 20
214.809915
 30
0.0
 40
1.0
 50
264.261
 51
270.0
  0
ARC
  8
0D
  5
698
 10
294.686
 20
215.809915
 30
0.0
 40
0.5
 50
180.0
 51
270.0
  0
ARC
  8
0D
  5
699
 10
294.686
 20
222.409915
 30
0.0
 40
0.5
 50
90.0
 51
180.0
  0
LINE
  8
0B
  5
69A
 10
274.986
 20
226.409915
 30
0.0
 11
288.986
 21
226.409915
 31
0.0
  0
TEXT
  8
FF
  5
69B
 10
189.1912
 20
268.329915
 30
0.0
 40
8.0
  1
主端子
 41
0.833333
  0
LINE
  8
38
  6
CENTER
  5
69C
 10
512.742235
 20
95.673915
 30
0.0
 11
512.742235
 21
235.097915
 31
0.0
  0
DIMENSION
  8
FF
  5
69D
  2
*D12
 10
477.742235
 20
274.477915
 30
0.0
 11
512.742235
 21
283.811315
 31
0.0
 12
8.296235
 22
0.0
 32
0.0
  1
70
 13
547.742235
 23
206.309915
 33
0.0
 14
477.742235
 24
131.309915
 34
0.0
 50
180.0
  3
FSTD3
  0
DIMENSION
  8
FF
  5
69E
  2
*D13
 10
585.746235
 20
125.409915
 30
0.0
 11
576.412835
 21
162.909915
 31
0.0
 12
8.296235
 22
0.0
 32
0.0
  1
75
 13
553.642235
 23
200.409915
 33
0.0
 14
483.642235
 24
125.409915
 34
0.0
 50
270.0
  3
FSTD3
  0
DIMENSION
  8
FF
  5
69F
  2
*D7
 10
357.05
 20
107.409915
 30
0.0
 11
350.3833
 21
162.909915
 31
0.0
  1
111
 13
315.986
 23
218.409915
 33
0.0
 14
315.986
 24
107.409915
 34
0.0
 50
270.0
  3
FSTD1
  0
DIMENSION
  8
FF
  5
6A0
  2
*D8
 10
374.182
 20
226.409915
 30
0.0
 11
367.5153
 21
162.909915
 31
0.0
  1
127
 13
322.986
 23
99.409915
 33
0.0
 14
322.986
 24
226.409915
 34
0.0
 50
90.0
  3
FSTD1
  0
LINE
  8
0D
  6
PHANTOM
  5
6A1
 10
337.986
 20
195.109915
 30
0.0
 11
337.986
 21
130.709915
 31
0.0
  0
LINE
  8
0C
  5
6A2
 10
325.986
 20
162.909915
 30
0.0
 11
325.986
 21
131.209915
 31
0.0
  0
LINE
  8
0C
  5
6A3
 10
309.486
 20
194.909915
 30
0.0
 11
309.486
 21
130.909915
 31
0.0
  0
LINE
  8
0C
  5
6A4
 10
314.486
 20
122.909915
 30
0.0
 11
314.486
 21
202.909915
 31
0.0
  0
LINE
  8
0C
  5
6A5
 10
314.486
 20
150.409915
 30
0.0
 11
314.486
 21
175.409915
 31
0.0
  0
LINE
  8
0C
  5
6A6
 10
325.986
 20
155.409915
 30
0.0
 11
325.986
 21
170.409915
 31
0.0
  0
LINE
  8
0B
  5
6A7
 10
325.986
 20
223.409915
 30
0.0
 11
325.986
 21
102.409915
 31
0.0
  0
LINE
  8
34
  6
PHANTOM
  5
6A8
 10
556.742235
 20
223.409915
 30
0.0
 11
556.742235
 21
102.409915
 31
0.0
  0
LINE
  8
34
  6
PHANTOM
  5
6A9
 10
468.742235
 20
223.409915
 30
0.0
 11
468.742235
 21
102.409915
 31
0.0
  0
LINE
  8
0B
  5
6AA
 10
325.986
 20
223.409915
 30
0.0
 11
325.986
 21
102.409915
 31
0.0
  0
LINE
  8
34
  6
PHANTOM
  5
6AB
 10
504.742235
 20
100.409915
 30
0.0
 11
488.742235
 21
100.409915
 31
0.0
  0
LINE
  8
0C
  5
6AC
 10
321.986
 20
100.409915
 30
0.0
 11
321.986
 21
112.381915
 31
0.0
  0
LINE
  8
0C
  5
6AD
 10
305.986
 20
100.409915
 30
0.0
 11
305.986
 21
115.041915
 31
0.0
  0
ARC
  8
0C
  5
6AE
 10
303.386
 20
101.409915
 30
0.0
 40
1.0
 50
180.0
 51
270.0
  0
ARC
  8
0B
  5
6AF
 10
323.986
 20
102.409915
 30
0.0
 40
2.0
 50
270.0
 51
0.0
  0
ARC
  8
0B
  5
6B0
 10
323.986
 20
102.409915
 30
0.0
 40
2.0
 50
270.0
 51
0.0
  0
LINE
  8
0B
  5
6B1
 10
320.986
 20
99.409915
 30
0.0
 11
306.986
 21
99.409915
 31
0.0
  0
LINE
  8
0B
  5
6B2
 10
305.986
 20
100.409915
 30
0.0
 11
306.986
 21
99.409915
 31
0.0
  0
LINE
  8
0B
  5
6B3
 10
320.986
 20
99.409915
 30
0.0
 11
321.986
 21
100.409915
 31
0.0
  0
LINE
  8
0B
  5
6B4
 10
323.986
 20
100.409915
 30
0.0
 11
321.986
 21
100.409915
 31
0.0
  0
LINE
  8
0B
  5
6B5
 10
323.986
 20
100.409915
 30
0.0
 11
321.986
 21
100.409915
 31
0.0
  0
LINE
  8
0C
  5
6B6
 10
314.486
 20
122.909915
 30
0.0
 11
314.486
 21
150.409915
 31
0.0
  0
LINE
  8
0C
  5
6B7
 10
314.486
 20
148.409915
 30
0.0
 11
314.486
 21
122.909915
 31
0.0
  0
CIRCLE
  8
0D
  5
6B8
 10
320.986
 20
123.909915
 30
0.0
 40
4.0
  0
CIRCLE
  8
0D
  5
6B9
 10
320.986
 20
123.909915
 30
0.0
 40
3.5
  0
LINE
  8
0D
  5
6BA
 10
319.514
 20
122.441915
 30
0.0
 11
322.454
 21
125.381915
 31
0.0
  0
LINE
  8
0D
  5
6BB
 10
322.454
 20
122.441915
 30
0.0
 11
319.514
 21
125.381915
 31
0.0
  0
LINE
  8
0C
  5
6BC
 10
321.986
 20
112.381915
 30
0.0
 11
317.694
 21
118.509915
 31
0.0
  0
LINE
  8
0C
  5
6BD
 10
318.114
 20
117.909915
 30
0.0
 11
324.986
 21
117.909915
 31
0.0
  0
CIRCLE
  8
0D
  5
6BE
 10
313.986
 20
107.409915
 30
0.0
 40
5.77352
  0
LINE
  8
0C
  5
6BF
 10
302.386
 20
113.709915
 30
0.0
 11
302.386
 21
101.409915
 31
0.0
  0
ARC
  8
0C
  5
6C0
 10
301.886
 20
113.709915
 30
0.0
 40
0.5
 50
0.0
 51
90.0
  0
ARC
  8
0C
  5
6C1
 10
301.886
 20
111.409915
 30
0.0
 40
0.5
 50
270.0
 51
0.0
  0
LINE
  8
0D
  5
6C2
 10
318.986
 20
104.521915
 30
0.0
 11
318.986
 21
110.297915
 31
0.0
  0
LINE
  8
0D
  5
6C3
 10
308.986
 20
110.297915
 30
0.0
 11
308.986
 21
104.521915
 31
0.0
  0
LINE
  8
0D
  5
6C4
 10
313.986
 20
101.637915
 30
0.0
 11
318.986
 21
104.521915
 31
0.0
  0
LINE
  8
0D
  5
6C5
 10
308.986
 20
104.521915
 30
0.0
 11
313.986
 21
101.637915
 31
0.0
  0
LINE
  8
0D
  5
6C6
 10
318.986
 20
110.297915
 30
0.0
 11
313.986
 21
113.185915
 31
0.0
  0
LINE
  8
0D
  5
6C7
 10
313.986
 20
113.185915
 30
0.0
 11
308.986
 21
110.297915
 31
0.0
  0
LINE
  8
0C
  5
6C8
 10
312.486
 20
120.909915
 30
0.0
 11
298.386
 21
120.909915
 31
0.0
  0
LINE
  8
0C
  5
6C9
 10
312.486
 20
120.909915
 30
0.0
 11
298.538
 21
120.909915
 31
0.0
  0
LINE
  8
0C
  5
6CA
 10
301.878
 20
120.909915
 30
0.0
 11
305.986
 21
115.041915
 31
0.0
  0
ARC
  8
0C
  5
6CB
 10
312.486
 20
122.909915
 30
0.0
 40
2.0
 50
270.0
 51
0.0
  0
ARC
  8
0C
  5
6CC
 10
312.486
 20
122.909915
 30
0.0
 40
2.0
 50
270.0
 51
0.0
  0
ARC
  8
0C
  5
6CD
 10
312.486
 20
122.909915
 30
0.0
 40
2.0
 50
270.0
 51
0.0
  0
LINE
  8
0C
  5
6CE
 10
315.486
 20
126.281915
 30
0.0
 11
315.486
 21
120.429915
 31
0.0
  0
LINE
  8
0C
  5
6CF
 10
314.054
 20
121.673915
 30
0.0
 11
317.694
 21
118.509915
 31
0.0
  0
ARC
  8
0C
  5
6D0
 10
307.486
 20
123.409915
 30
0.0
 40
8.5
 50
19.7499
 51
34.5603
  0
ARC
  8
0C
  5
6D1
 10
324.986
 20
116.909915
 30
0.0
 40
1.0
 50
0.0
 51
90.0
  0
LINE
  8
0C
  5
6D2
 10
323.886
 20
133.609915
 30
0.0
 11
319.986
 21
133.609915
 31
0.0
  0
LINE
  8
0C
  5
6D3
 10
319.486
 20
153.409915
 30
0.0
 11
323.986
 21
153.409915
 31
0.0
  0
CIRCLE
  8
0D
  5
6D4
 10
319.986
 20
148.909915
 30
0.0
 40
3.0
  0
CIRCLE
  8
0D
  5
6D5
 10
319.986
 20
139.409915
 30
0.0
 40
3.0
  0
LINE
  8
0D
  5
6D6
 10
316.934
 20
152.709915
 30
0.0
 11
323.286
 21
152.709915
 31
0.0
  0
LINE
  8
0D
  5
6D7
 10
316.686
 20
145.109915
 30
0.0
 11
323.286
 21
145.109915
 31
0.0
  0
LINE
  8
0D
  5
6D8
 10
318.726
 20
147.649915
 30
0.0
 11
321.246
 21
150.169915
 31
0.0
  0
LINE
  8
0D
  5
6D9
 10
318.726
 20
150.169915
 30
0.0
 11
321.246
 21
147.649915
 31
0.0
  0
LINE
  8
0D
  5
6DA
 10
316.686
 20
143.209915
 30
0.0
 11
323.286
 21
143.209915
 31
0.0
  0
LINE
  8
0D
  5
6DB
 10
316.686
 20
135.609915
 30
0.0
 11
323.286
 21
135.609915
 31
0.0
  0
LINE
  8
0D
  5
6DC
 10
318.726
 20
140.669915
 30
0.0
 11
321.246
 21
138.149915
 31
0.0
  0
LINE
  8
0D
  5
6DD
 10
318.726
 20
138.149915
 30
0.0
 11
321.246
 21
140.669915
 31
0.0
  0
LINE
  8
0C
  5
6DE
 10
316.086
 20
152.077915
 30
0.0
 11
316.086
 21
131.209915
 31
0.0
  0
ARC
  8
0D
  5
6DF
 10
316.686
 20
142.709915
 30
0.0
 40
0.5
 50
90.0
 51
180.0
  0
ARC
  8
0D
  5
6E0
 10
316.686
 20
136.109915
 30
0.0
 40
0.5
 50
180.0
 51
270.0
  0
LINE
  8
0C
  5
6E1
 10
314.486
 20
130.709915
 30
0.0
 11
315.534
 21
130.709915
 31
0.0
  0
ARC
  8
0C
  5
6E2
 10
315.586
 20
131.209915
 30
0.0
 40
0.5
 50
270.0
 51
0.0
  0
LINE
  8
0C
  5
6E3
 10
316.086
 20
133.609915
 30
0.0
 11
319.986
 21
133.609915
 31
0.0
  0
LINE
  8
0D
  5
6E4
 10
316.186
 20
136.109915
 30
0.0
 11
316.186
 21
142.709915
 31
0.0
  0
ARC
  8
0C
  5
6E5
 10
319.486
 20
148.409915
 30
0.0
 40
5.0
 50
90.0
 51
180.0
  0
ARC
  8
0C
  5
6E6
 10
319.486
 20
148.409915
 30
0.0
 40
5.0
 50
90.0
 51
180.0
  0
LINE
  8
0D
  5
6E7
 10
316.186
 20
145.609915
 30
0.0
 11
316.186
 21
152.165915
 31
0.0
  0
ARC
  8
0D
  5
6E8
 10
316.686
 20
145.609915
 30
0.0
 40
0.5
 50
180.0
 51
270.0
  0
LINE
  8
0C
  5
6E9
 10
323.886
 20
153.413915
 30
0.0
 11
323.886
 21
131.209915
 31
0.0
  0
ARC
  8
0D
  5
6EA
 10
323.286
 20
142.709915
 30
0.0
 40
0.5
 50
0.0
 51
90.0
  0
LINE
  8
0D
  6
PHANTOM
  5
6EB
 10
337.986
 20
130.709915
 30
0.0
 11
325.986
 21
130.709915
 31
0.0
  0
ARC
  8
0D
  5
6EC
 10
323.286
 20
136.109915
 30
0.0
 40
0.5
 50
270.0
 51
0.0
  0
ARC
  8
0C
  5
6ED
 10
325.486
 20
131.209915
 30
0.0
 40
0.5
 50
270.0
 51
0.0
  0
ARC
  8
0C
  5
6EE
 10
324.386
 20
131.209915
 30
0.0
 40
0.5
 50
180.0
 51
270.0
  0
LINE
  8
0C
  5
6EF
 10
325.486
 20
130.709915
 30
0.0
 11
324.386
 21
130.709915
 31
0.0
  0
LINE
  8
0D
  5
6F0
 10
323.786
 20
136.109915
 30
0.0
 11
323.786
 21
142.709915
 31
0.0
  0
LINE
  8
0D
  5
6F1
 10
323.786
 20
145.609915
 30
0.0
 11
323.786
 21
152.209915
 31
0.0
  0
ARC
  8
0D
  5
6F2
 10
323.286
 20
145.609915
 30
0.0
 40
0.5
 50
270.0
 51
0.0
  0
ARC
  8
0C
  5
6F3
 10
323.986
 20
155.409915
 30
0.0
 40
2.0
 50
270.0
 51
0.0
  0
ARC
  8
0D
  5
6F4
 10
323.286
 20
152.209915
 30
0.0
 40
0.5
 50
0.0
 51
90.0
  0
LINE
  8
FF
  5
6F5
 10
476.458235
 20
123.381915
 30
0.0
 11
444.162235
 21
82.225915
 31
0.0
  0
TEXT
  8
FF
  5
6F6
 10
402.73514
 20
85.090459
 30
0.0
 40
8.0
  1
２－Ｍ４用
 41
0.833333
  0
ARC
  8
34
  6
PHANTOM
  5
6F7
 10
470.742235
 20
102.409915
 30
0.0
 40
2.0
 50
180.0
 51
270.0
  0
LINE
  8
FF
  5
6F8
 10
444.162235
 20
82.225915
 30
0.0
 11
402.373134
 21
82.225915
 31
0.0
  0
TEXT
  8
FF
  5
6F9
 10
418.316171
 20
95.72085
 30
0.0
 40
8.0
  1
取付穴
 41
0.833333
  0
LINE
  8
34
  6
PHANTOM
  5
6FA
 10
473.742235
 20
99.409915
 30
0.0
 11
487.742235
 21
99.409915
 31
0.0
  0
LINE
  8
34
  6
PHANTOM
  5
6FB
 10
473.742235
 20
99.409915
 30
0.0
 11
472.742235
 21
100.409915
 31
0.0
  0
LINE
  8
34
  6
PHANTOM
  5
6FC
 10
472.742235
 20
100.409915
 30
0.0
 11
470.742235
 21
100.409915
 31
0.0
  0
LINE
  8
34
  6
PHANTOM
  5
6FD
 10
488.742235
 20
100.409915
 30
0.0
 11
487.742235
 21
99.409915
 31
0.0
  0
LINE
  8
33
  5
6FE
 10
477.742235
 20
129.309915
 30
0.0
 11
477.742235
 21
128.585915
 31
0.0
  0
LINE
  8
FF
  5
6FF
 10
476.458235
 20
123.381915
 30
0.0
 11
466.734635
 21
116.087115
 31
0.0
  0
LINE
  8
FF
  5
700
 10
471.684635
 20
112.202315
 30
0.0
 11
476.458235
 21
123.381915
 31
0.0
  0
LINE
  8
33
  5
701
 10
474.566235
 20
125.409915
 30
0.0
 11
473.842235
 21
125.409915
 31
0.0
  0
LINE
  8
33
  5
702
 10
477.742235
 20
122.233915
 30
0.0
 11
477.742235
 21
121.509915
 31
0.0
  0
LINE
  8
33
  5
703
 10
481.642235
 20
125.409915
 30
0.0
 11
480.914235
 21
125.409915
 31
0.0
  0
LINE
  8
33
  5
704
 10
477.742235
 20
126.997915
 30
0.0
 11
477.742235
 21
123.821915
 31
0.0
  0
LINE
  8
33
  5
705
 10
479.326235
 20
125.409915
 30
0.0
 11
476.154235
 21
125.409915
 31
0.0
  0
CIRCLE
  8
33
  5
706
 10
477.742235
 20
125.409915
 30
0.0
 40
2.4
  0
ARC
  8
34
  6
PHANTOM
  5
707
 10
554.742235
 20
102.409915
 30
0.0
 40
2.0
 50
270.0
 51
0.0
  0
LINE
  8
34
  6
PHANTOM
  5
708
 10
551.742235
 20
99.409915
 30
0.0
 11
537.742235
 21
99.409915
 31
0.0
  0
LINE
  8
34
  6
PHANTOM
  5
709
 10
536.742235
 20
100.409915
 30
0.0
 11
520.742235
 21
100.409915
 31
0.0
  0
LINE
  8
34
  6
PHANTOM
  5
70A
 10
505.742235
 20
99.409915
 30
0.0
 11
519.742235
 21
99.409915
 31
0.0
  0
LINE
  8
34
  6
PHANTOM
  5
70B
 10
504.742235
 20
100.409915
 30
0.0
 11
505.742235
 21
99.409915
 31
0.0
  0
LINE
  8
34
  6
PHANTOM
  5
70C
 10
519.742235
 20
99.409915
 30
0.0
 11
520.742235
 21
100.409915
 31
0.0
  0
LINE
  8
34
  6
PHANTOM
  5
70D
 10
536.742235
 20
100.409915
 30
0.0
 11
537.742235
 21
99.409915
 31
0.0
  0
LINE
  8
34
  6
PHANTOM
  5
70E
 10
554.742235
 20
100.409915
 30
0.0
 11
552.742235
 21
100.409915
 31
0.0
  0
LINE
  8
34
  6
PHANTOM
  5
70F
 10
551.742235
 20
99.409915
 30
0.0
 11
552.742235
 21
100.409915
 31
0.0
  0
TEXT
  8
FF
  5
710
 10
474.634235
 20
299.273915
 30
0.0
 40
12.0
  1
取付穴寸法図
 41
0.833333
  0
LINE
  8
38
  6
CENTER
  5
711
 10
463.066235
 20
162.909915
 30
0.0
 11
561.234235
 21
162.909915
 31
0.0
  0
LINE
  8
34
  6
PHANTOM
  5
712
 10
504.742235
 20
225.409915
 30
0.0
 11
488.742235
 21
225.409915
 31
0.0
  0
TEXT
  8
FF
  5
713
 10
351.566
 20
266.261915
 30
0.0
 40
6.0
  1
M3.5
 41
1.078977
  0
DIMENSION
  8
FF
  5
714
  2
*D9
 10
357.05
 20
226.409915
 30
0.0
 11
350.3833
 21
247.743282
 31
0.0
  1
8
 13
315.986
 23
218.409915
 33
0.0
 14
322.986
 24
226.409915
 34
0.0
 50
90.0
  3
FSTD1
  0
LINE
  8
0C
  5
715
 10
299.386
 20
211.809915
 30
0.0
 11
299.386
 21
212.309915
 31
0.0
  0
LINE
  8
0C
  5
716
 10
301.386
 20
213.809915
 30
0.0
 11
301.386
 21
211.809915
 31
0.0
  0
LINE
  8
0C
  5
717
 10
296.586
 20
213.809915
 30
0.0
 11
296.586
 21
211.809915
 31
0.0
  0
LINE
  8
0C
  5
718
 10
301.386
 20
213.209915
 30
0.0
 11
301.386
 21
211.809915
 31
0.0
  0
LINE
  8
0C
  5
719
 10
299.386
 20
211.909915
 30
0.0
 11
299.386
 21
213.809915
 31
0.0
  0
LINE
  8
0C
  5
71A
 10
321.986
 20
213.441915
 30
0.0
 11
317.694
 21
207.309915
 31
0.0
  0
LINE
  8
0C
  5
71B
 10
305.986
 20
225.409915
 30
0.0
 11
305.986
 21
210.777915
 31
0.0
  0
LINE
  8
0C
  5
71C
 10
304.986
 20
225.409915
 30
0.0
 11
304.986
 21
211.809915
 31
0.0
  0
LINE
  8
0C
  5
71D
 10
325.986
 20
162.909915
 30
0.0
 11
325.986
 21
194.609915
 31
0.0
  0
LINE
  8
0C
  5
71E
 10
323.886
 20
172.409915
 30
0.0
 11
323.886
 21
194.609915
 31
0.0
  0
LINE
  8
0C
  5
71F
 10
316.086
 20
173.745915
 30
0.0
 11
316.086
 21
194.609915
 31
0.0
  0
LINE
  8
0C
  5
720
 10
314.486
 20
175.409915
 30
0.0
 11
314.486
 21
202.909915
 31
0.0
  0
LINE
  8
0C
  5
721
 10
314.486
 20
202.909915
 30
0.0
 11
314.486
 21
177.409915
 31
0.0
  0
CIRCLE
  8
0D
  5
722
 10
319.986
 20
186.409915
 30
0.0
 40
3.0
  0
LINE
  8
0D
  5
723
 10
316.186
 20
189.709915
 30
0.0
 11
316.186
 21
183.109915
 31
0.0
  0
LINE
  8
0D
  5
724
 10
323.786
 20
189.709915
 30
0.0
 11
323.786
 21
183.109915
 31
0.0
  0
LINE
  8
0C
  5
725
 10
319.486
 20
172.409915
 30
0.0
 11
323.986
 21
172.409915
 31
0.0
  0
CIRCLE
  8
0D
  5
726
 10
319.486
 20
162.909915
 30
0.0
 40
4.0
  0
LINE
  8
0D
  5
727
 10
323.454
 20
163.409915
 30
0.0
 11
320.486
 21
163.409915
 31
0.0
  0
LINE
  8
0D
  5
728
 10
323.454
 20
162.409915
 30
0.0
 11
320.486
 21
162.409915
 31
0.0
  0
CIRCLE
  8
0D
  5
729
 10
319.986
 20
176.909915
 30
0.0
 40
3.0
  0
LINE
  8
0D
  5
72A
 10
316.686
 20
182.609915
 30
0.0
 11
323.286
 21
182.609915
 31
0.0
  0
LINE
  8
0D
  5
72B
 10
318.726
 20
175.649915
 30
0.0
 11
321.246
 21
178.169915
 31
0.0
  0
LINE
  8
0D
  5
72C
 10
318.726
 20
178.169915
 30
0.0
 11
321.246
 21
175.649915
 31
0.0
  0
LINE
  8
0D
  5
72D
 10
316.686
 20
180.709915
 30
0.0
 11
323.286
 21
180.709915
 31
0.0
  0
LINE
  8
0D
  5
72E
 10
316.934
 20
173.109915
 30
0.0
 11
323.286
 21
173.109915
 31
0.0
  0
ARC
  8
0D
  5
72F
 10
320.486
 20
163.909915
 30
0.0
 40
0.5
 50
180.0
 51
270.0
  0
ARC
  8
0D
  5
730
 10
318.486
 20
163.909915
 30
0.0
 40
0.5
 50
270.0
 51
0.0
  0
ARC
  8
0D
  5
731
 10
320.486
 20
161.909915
 30
0.0
 40
0.5
 50
90.0
 51
180.0
  0
ARC
  8
0D
  5
732
 10
318.486
 20
161.909915
 30
0.0
 40
0.5
 50
0.0
 51
90.0
  0
LINE
  8
0D
  5
733
 10
318.986
 20
160.409915
 30
0.0
 11
319.986
 21
160.409915
 31
0.0
  0
LINE
  8
0D
  5
734
 10
319.986
 20
161.909915
 30
0.0
 11
319.986
 21
160.409915
 31
0.0
  0
LINE
  8
0D
  5
735
 10
318.986
 20
161.909915
 30
0.0
 11
318.986
 21
160.409915
 31
0.0
  0
LINE
  8
0D
  5
736
 10
318.486
 20
163.409915
 30
0.0
 11
315.518
 21
163.409915
 31
0.0
  0
LINE
  8
0D
  5
737
 10
318.486
 20
162.409915
 30
0.0
 11
315.518
 21
162.409915
 31
0.0
  0
LINE
  8
0D
  5
738
 10
318.986
 20
165.409915
 30
0.0
 11
318.986
 21
163.909915
 31
0.0
  0
LINE
  8
0D
  5
739
 10
319.986
 20
165.409915
 30
0.0
 11
319.986
 21
163.909915
 31
0.0
  0
LINE
  8
0D
  5
73A
 10
318.986
 20
165.409915
 30
0.0
 11
319.986
 21
165.409915
 31
0.0
  0
LINE
  8
0D
  5
73B
 10
316.186
 20
180.209915
 30
0.0
 11
316.186
 21
173.653915
 31
0.0
  0
ARC
  8
0C
  5
73C
 10
319.486
 20
177.409915
 30
0.0
 40
5.0
 50
180.0
 51
270.0
  0
ARC
  8
0C
  5
73D
 10
319.486
 20
177.409915
 30
0.0
 40
5.0
 50
180.0
 51
270.0
  0
ARC
  8
0D
  5
73E
 10
316.686
 20
183.109915
 30
0.0
 40
0.5
 50
180.0
 51
270.0
  0
ARC
  8
0D
  5
73F
 10
316.686
 20
180.209915
 30
0.0
 40
0.5
 50
90.0
 51
180.0
  0
ARC
  8
0C
  5
740
 10
323.986
 20
170.409915
 30
0.0
 40
2.0
 50
0.0
 51
90.0
  0
LINE
  8
0D
  5
741
 10
323.786
 20
180.209915
 30
0.0
 11
323.786
 21
173.609915
 31
0.0
  0
ARC
  8
0D
  5
742
 10
323.286
 20
173.609915
 30
0.0
 40
0.5
 50
270.0
 51
0.0
  0
ARC
  8
0D
  5
743
 10
323.286
 20
183.109915
 30
0.0
 40
0.5
 50
270.0
 51
0.0
  0
ARC
  8
0D
  5
744
 10
323.286
 20
180.209915
 30
0.0
 40
0.5
 50
0.0
 51
90.0
  0
LINE
  8
0D
  5
745
 10
320.886
 20
200.409915
 30
0.0
 11
320.162
 21
200.409915
 31
0.0
  0
LINE
  8
0C
  5
746
 10
323.886
 20
192.209915
 30
0.0
 11
319.986
 21
192.209915
 31
0.0
  0
LINE
  8
0D
  5
747
 10
318.726
 20
187.669915
 30
0.0
 11
321.246
 21
185.149915
 31
0.0
  0
LINE
  8
0D
  5
748
 10
318.726
 20
185.149915
 30
0.0
 11
321.246
 21
187.669915
 31
0.0
  0
LINE
  8
0D
  5
749
 10
316.686
 20
190.209915
 30
0.0
 11
323.286
 21
190.209915
 31
0.0
  0
CIRCLE
  8
0D
  5
74A
 10
316.986
 20
200.409915
 30
0.0
 40
2.4
  0
ARC
  8
0D
  5
74B
 10
316.686
 20
189.709915
 30
0.0
 40
0.5
 50
90.0
 51
180.0
  0
LINE
  8
0C
  5
74C
 10
314.486
 20
195.109915
 30
0.0
 11
315.586
 21
195.109915
 31
0.0
  0
LINE
  8
0D
  5
74D
 10
316.986
 20
197.233915
 30
0.0
 11
316.986
 21
196.509915
 31
0.0
  0
ARC
  8
0C
  5
74E
 10
315.586
 20
194.609915
 30
0.0
 40
0.5
 50
0.0
 51
90.0
  0
LINE
  8
0C
  5
74F
 10
316.086
 20
192.209915
 30
0.0
 11
319.986
 21
192.209915
 31
0.0
  0
LINE
  8
0C
  5
750
 10
312.486
 20
204.909915
 30
0.0
 11
298.386
 21
204.909915
 31
0.0
  0
LINE
  8
0C
  5
751
 10
312.486
 20
204.909915
 30
0.0
 11
298.538
 21
204.909915
 31
0.0
  0
LINE
  8
0C
  5
752
 10
301.878
 20
204.909915
 30
0.0
 11
305.986
 21
210.777915
 31
0.0
  0
ARC
  8
0C
  5
753
 10
312.486
 20
202.909915
 30
0.0
 40
2.0
 50
0.0
 51
90.0
  0
ARC
  8
0C
  5
754
 10
312.486
 20
202.909915
 30
0.0
 40
2.0
 50
0.0
 51
90.0
  0
LINE
  8
0C
  5
755
 10
314.054
 20
204.149915
 30
0.0
 11
317.694
 21
207.309915
 31
0.0
  0
ARC
  8
0C
  5
756
 10
312.486
 20
202.909915
 30
0.0
 40
2.0
 50
0.0
 51
90.0
  0
LINE
  8
0D
  5
757
 10
313.81
 20
200.409915
 30
0.0
 11
313.086
 21
200.409915
 31
0.0
  0
LINE
  8
0D
  5
758
 10
318.574
 20
200.409915
 30
0.0
 11
315.398
 21
200.409915
 31
0.0
  0
LINE
  8
0D
  5
759
 10
316.986
 20
201.997915
 30
0.0
 11
316.986
 21
198.821915
 31
0.0
  0
LINE
  8
0D
  5
75A
 10
316.986
 20
204.309915
 30
0.0
 11
316.986
 21
203.585915
 31
0.0
  0
LINE
  8
0D
  6
PHANTOM
  5
75B
 10
337.986
 20
195.109915
 30
0.0
 11
325.986
 21
195.109915
 31
0.0
  0
ARC
  8
0D
  5
75C
 10
323.286
 20
189.709915
 30
0.0
 40
0.5
 50
0.0
 51
90.0
  0
ARC
  8
0C
  5
75D
 10
324.386
 20
194.609915
 30
0.0
 40
0.5
 50
90.0
 51
180.0
  0
ARC
  8
0C
  5
75E
 10
325.486
 20
194.609915
 30
0.0
 40
0.5
 50
0.0
 51
90.0
  0
LINE
  8
0C
  5
75F
 10
325.486
 20
195.109915
 30
0.0
 11
324.386
 21
195.109915
 31
0.0
  0
LINE
  8
FF
  5
760
 10
299.246
 20
220.369915
 30
0.0
 11
347.814
 21
262.513915
 31
0.0
  0
LINE
  8
0B
  5
761
 10
320.986
 20
226.409915
 30
0.0
 11
306.986
 21
226.409915
 31
0.0
  0
LINE
  8
FF
  5
762
 10
306.0524
 20
230.441515
 30
0.0
 11
299.246
 21
220.369915
 31
0.0
  0
LINE
  8
0B
  5
763
 10
305.986
 20
225.409915
 30
0.0
 11
306.986
 21
226.409915
 31
0.0
  0
LINE
  8
FF
  5
764
 10
299.246
 20
220.369915
 30
0.0
 11
310.1764
 21
225.689115
 31
0.0
  0
CIRCLE
  8
0D
  5
765
 10
313.986
 20
218.409915
 30
0.0
 40
5.77352
  0
LINE
  8
0C
  5
766
 10
302.386
 20
222.809915
 30
0.0
 11
302.386
 21
213.809915
 31
0.0
  0
LINE
  8
0D
  5
767
 10
296.726
 20
220.369915
 30
0.0
 11
299.246
 21
217.849915
 31
0.0
  0
LINE
  8
0D
  5
768
 10
296.726
 20
217.849915
 30
0.0
 11
299.246
 21
220.369915
 31
0.0
  0
LINE
  8
0D
  5
769
 10
301.786
 20
222.409915
 30
0.0
 11
301.786
 21
215.809915
 31
0.0
  0
LINE
  8
0C
  5
76A
 10
299.386
 20
213.809915
 30
0.0
 11
296.586
 21
213.809915
 31
0.0
  0
LINE
  8
0C
  5
76B
 10
301.386
 20
213.809915
 30
0.0
 11
302.386
 21
213.809915
 31
0.0
  0
ARC
  8
0D
  5
76C
 10
301.286
 20
215.809915
 30
0.0
 40
0.5
 50
270.0
 51
0.0
  0
ARC
  8
0C
  5
76D
 10
302.086
 20
222.809915
 30
0.0
 40
0.3
 50
0.0
 51
90.0
  0
LINE
  8
0C
  5
76E
 10
302.386
 20
221.937915
 30
0.0
 11
302.386
 21
222.909915
 31
0.0
  0
LINE
  8
0C
  5
76F
 10
302.386
 20
222.909915
 30
0.0
 11
302.386
 21
225.409915
 31
0.0
  0
ARC
  8
0D
  5
770
 10
301.286
 20
222.409915
 30
0.0
 40
0.5
 50
0.0
 51
90.0
  0
LINE
  8
0C
  5
771
 10
305.986
 20
225.409915
 30
0.0
 11
304.986
 21
225.409915
 31
0.0
  0
LINE
  8
0D
  5
772
 10
318.986
 20
215.525915
 30
0.0
 11
318.986
 21
221.297915
 31
0.0
  0
LINE
  8
0D
  5
773
 10
308.986
 20
221.297915
 30
0.0
 11
308.986
 21
215.525915
 31
0.0
  0
LINE
  8
0D
  5
774
 10
313.986
 20
212.637915
 30
0.0
 11
318.986
 21
215.525915
 31
0.0
  0
LINE
  8
0D
  5
775
 10
308.986
 20
215.525915
 30
0.0
 11
313.986
 21
212.637915
 31
0.0
  0
LINE
  8
0D
  5
776
 10
318.986
 20
221.297915
 30
0.0
 11
313.986
 21
224.185915
 31
0.0
  0
LINE
  8
0D
  5
777
 10
313.986
 20
224.185915
 30
0.0
 11
308.986
 21
221.297915
 31
0.0
  0
LINE
  8
0B
  5
778
 10
320.986
 20
226.409915
 30
0.0
 11
321.986
 21
225.409915
 31
0.0
  0
LINE
  8
0C
  5
779
 10
321.986
 20
225.409915
 30
0.0
 11
321.986
 21
213.441915
 31
0.0
  0
ARC
  8
0B
  5
77A
 10
323.986
 20
223.409915
 30
0.0
 40
2.0
 50
0.0
 51
90.0
  0
LINE
  8
0B
  5
77B
 10
323.986
 20
225.409915
 30
0.0
 11
321.986
 21
225.409915
 31
0.0
  0
ARC
  8
0B
  5
77C
 10
323.986
 20
223.409915
 30
0.0
 40
2.0
 50
0.0
 51
90.0
  0
LINE
  8
0B
  5
77D
 10
323.986
 20
225.409915
 30
0.0
 11
321.986
 21
225.409915
 31
0.0
  0
LINE
  8
FF
  5
77E
 10
347.814
 20
262.513915
 30
0.0
 11
372.858
 21
262.513915
 31
0.0
  0
LINE
  8
34
  6
PHANTOM
  5
77F
 10
473.742235
 20
226.409915
 30
0.0
 11
487.742235
 21
226.409915
 31
0.0
  0
LINE
  8
34
  6
PHANTOM
  5
780
 10
473.742235
 20
226.409915
 30
0.0
 11
472.742235
 21
225.409915
 31
0.0
  0
ARC
  8
34
  6
PHANTOM
  5
781
 10
470.742235
 20
223.409915
 30
0.0
 40
2.0
 50
90.0
 51
180.0
  0
LINE
  8
34
  6
PHANTOM
  5
782
 10
472.742235
 20
225.409915
 30
0.0
 11
470.742235
 21
225.409915
 31
0.0
  0
LINE
  8
34
  6
PHANTOM
  5
783
 10
488.742235
 20
225.409915
 30
0.0
 11
487.742235
 21
226.409915
 31
0.0
  0
TEXT
  8
FF
  5
784
 10
297.07256
 20
281.221915
 30
0.0
 40
7.0
  1
※１
 41
0.833333
  0
TEXT
  8
FF
  5
785
 10
345.758
 20
275.309915
 30
0.0
 40
8.0
  1
コイル端子
 41
0.833333
  0
DIMENSION
  8
FF
  5
786
  2
*D10
 10
585.746235
 20
226.409915
 30
0.0
 11
579.079535
 21
213.409915
 31
0.0
 12
8.296235
 22
0.0
 32
0.0
  1
26
 13
549.742235
 23
200.409915
 33
0.0
 14
553.742235
 24
226.409915
 34
0.0
 50
90.0
  3
FSTD1
  0
LINE
  8
33
  5
787
 10
549.326235
 20
200.409915
 30
0.0
 11
546.154235
 21
200.409915
 31
0.0
  0
CIRCLE
  8
33
  5
788
 10
547.742235
 20
200.409915
 30
0.0
 40
2.4
  0
LINE
  8
33
  5
789
 10
547.742235
 20
197.233915
 30
0.0
 11
547.742235
 21
196.509915
 31
0.0
  0
LINE
  8
33
  5
78A
 10
547.742235
 20
201.997915
 30
0.0
 11
547.742235
 21
198.821915
 31
0.0
  0
LINE
  8
33
  5
78B
 10
547.742235
 20
204.309915
 30
0.0
 11
547.742235
 21
203.585915
 31
0.0
  0
LINE
  8
33
  5
78C
 10
544.566235
 20
200.409915
 30
0.0
 11
543.842235
 21
200.409915
 31
0.0
  0
LINE
  8
33
  5
78D
 10
551.642235
 20
200.409915
 30
0.0
 11
550.914235
 21
200.409915
 31
0.0
  0
LINE
  8
34
  6
PHANTOM
  5
78E
 10
551.742235
 20
226.409915
 30
0.0
 11
537.742235
 21
226.409915
 31
0.0
  0
LINE
  8
34
  6
PHANTOM
  5
78F
 10
536.742235
 20
225.409915
 30
0.0
 11
520.742235
 21
225.409915
 31
0.0
  0
LINE
  8
34
  6
PHANTOM
  5
790
 10
519.742235
 20
226.409915
 30
0.0
 11
520.742235
 21
225.409915
 31
0.0
  0
LINE
  8
34
  6
PHANTOM
  5
791
 10
504.742235
 20
225.409915
 30
0.0
 11
505.742235
 21
226.409915
 31
0.0
  0
LINE
  8
34
  6
PHANTOM
  5
792
 10
505.742235
 20
226.409915
 30
0.0
 11
519.742235
 21
226.409915
 31
0.0
  0
LINE
  8
34
  6
PHANTOM
  5
793
 10
536.742235
 20
225.409915
 30
0.0
 11
537.742235
 21
226.409915
 31
0.0
  0
LINE
  8
34
  6
PHANTOM
  5
794
 10
551.742235
 20
226.409915
 30
0.0
 11
552.742235
 21
225.409915
 31
0.0
  0
LINE
  8
34
  6
PHANTOM
  5
795
 10
554.742235
 20
225.409915
 30
0.0
 11
552.742235
 21
225.409915
 31
0.0
  0
ARC
  8
34
  6
PHANTOM
  5
796
 10
554.742235
 20
223.409915
 30
0.0
 40
2.0
 50
0.0
 51
90.0
  0
TEXT
  8
FF
  5
921
 10
187.2747
 20
131.928185
 30
0.0
 40
8.0
  1
※１
 41
0.8333
  0
LINE
  8
FF
  5
922
 10
203.582187
 20
136.282431
 30
0.0
 11
231.878825
 21
151.320328
 31
0.0
  0
TEXT
  8
FF
  5
E85
 10
54.743894
 20
-54.251707
 30
0.0
 40
14.0
  1
Type
  0
ARC
  8
FF
  5
E8B
 10
25.007462
 20
-41.571164
 30
0.0
 40
8.739426
 50
1.499529
 51
100.57959
1001
ACAD
1000
ASC_BOUNDS
1002
{
1070
    19
1002
}
  0
ARC
  8
FF
  5
E8C
 10
24.973519
 20
-41.658501
 30
0.0
 40
7.446965
 50
2.961866
 51
93.426847
  0
LINE
  8
FF
  5
E8D
 10
17.20194
 20
-41.273707
 30
0.0
 11
32.410536
 21
-41.273707
 31
0.0
  0
LINE
  8
FF
  5
E8E
 10
16.88125
 20
-42.785707
 30
0.0
 11
33.743894
 21
-42.785707
 31
0.0
  0
ARC
  8
FF
  5
E8F
 10
20.943526
 20
-42.021833
 30
0.0
 40
12.678652
 50
279.159834
 51
342.417868
1001
ACAD
1000
ASC_BOUNDS
1002
{
1070
    19
1002
}
  0
ARC
  8
FF
  5
E90
 10
20.57388
 20
-41.691497
 30
0.0
 40
11.787403
 50
280.279158
 51
339.332945
1001
ACAD
1000
ASC_BOUNDS
1002
{
1070
    19
1002
}
  0
POLYLINE
  8
FF
  5
E92
 66
     1
 10
0.0
 20
0.0
 30
0.0
 70
   128
  0
VERTEX
  8
FF
  5
1043
 10
14.434247
 20
-42.742463
 30
0.0
  0
VERTEX
  8
FF
  5
1044
 10
14.038783
 20
-44.541456
 30
0.0
  0
VERTEX
  8
FF
  5
1045
 10
13.954086
 20
-46.298325
 30
0.0
  0
SEQEND
  8
FF
  5
1046
  0
LINE
  8
FF
  5
E93
 10
-3.426106
 20
-54.251707
 30
0.0
 11
0.417782
 21
-36.162826
 31
0.0
  0
ARC
  8
FF
  5
E94
 10
21.436273
 20
-45.851745
 30
0.0
 40
8.82
 50
182.729155
 51
279.960292
1001
ACAD
1000
ASC_BOUNDS
1002
{
1070
    19
1002
}
  0
LINE
  8
FF
  5
E95
 10
4.602971
 20
-46.271707
 30
0.0
 11
12.626277
 21
-46.271707
 31
0.0
  0
LINE
  8
FF
  5
E96
 10
-3.426106
 20
-54.251707
 30
0.0
 11
2.907221
 21
-54.251707
 31
0.0
  0
LINE
  8
FF
  5
E97
 10
2.907221
 20
-54.251707
 30
0.0
 11
4.602971
 21
-46.271707
 31
0.0
  0
ARC
  8
FF
  5
E98
 10
21.796579
 20
-45.45332
 30
0.0
 40
7.885726
 50
186.002385
 51
276.412304
1001
ACAD
1000
ASC_BOUNDS
1002
{
1070
    19
1002
}
  0
LINE
  8
FF
  5
E99
 10
4.012515
 20
-33.251707
 30
0.0
 11
17.206394
 21
-33.251707
 31
0.0
  0
LINE
  8
FF
  5
E9A
 10
5.665046
 20
-41.273707
 30
0.0
 11
13.572815
 21
-41.273707
 31
0.0
  0
LINE
  8
FF
  5
E9B
 10
7.077641
 20
-38.627707
 30
0.0
 11
15.018842
 21
-38.627707
 31
0.0
  0
ARC
  8
FF
  5
E9C
 10
4.012515
 20
-36.926707
 30
0.0
 40
3.675
 50
90.0
 51
168.003101
  0
ARC
  8
FF
  5
E9D
 10
7.077641
 20
-39.677707
 30
0.0
 40
1.05
 50
90.0
 51
168.003101
  0
LINE
  8
FF
  5
E9E
 10
5.665046
 20
-41.273707
 30
0.0
 11
6.050574
 21
-39.459455
 31
0.0
  0
ARC
  8
FF
  5
E9F
 10
25.124105
 20
-44.564277
 30
0.0
 40
11.710882
 50
98.442625
 51
137.3304
1001
ACAD
1000
ASC_BOUNDS
1002
{
1070
    19
1002
}
  0
POLYLINE
  8
FF
  5
EA0
 66
     1
 10
0.0
 20
0.0
 30
0.0
 70
   128
  0
VERTEX
  8
FF
  5
1047
 10
24.528383
 20
-34.224851
 30
0.0
  0
VERTEX
  8
FF
  5
1048
 10
22.721069
 20
-34.485141
 30
0.0
  0
VERTEX
  8
FF
  5
1049
 10
20.946388
 20
-35.116036
 30
0.0
  0
VERTEX
  8
FF
  5
104A
 10
19.261759
 20
-36.097125
 30
0.0
  0
VERTEX
  8
FF
  5
104B
 10
17.721688
 20
-37.396664
 30
0.0
  0
VERTEX
  8
FF
  5
104C
 10
16.376003
 20
-38.972609
 30
0.0
  0
VERTEX
  8
FF
  5
104D
 10
15.268242
 20
-40.773969
 30
0.0
  0
VERTEX
  8
FF
  5
104E
 10
14.434247
 20
-42.742463
 30
0.0
  0
SEQEND
  8
FF
  5
104F
  0
LINE
  8
FF
  5
EA1
 10
17.206394
 20
-33.251707
 30
0.0
 11
16.513394
 21
-36.626996
 31
0.0
  0
LINE
  8
FF
  5
EA2
 10
17.20194
 20
-41.273707
 30
0.0
 11
16.88125
 21
-42.785707
 31
0.0
  0
ARC
  8
FF
  5
EA3
 10
25.374772
 20
-46.005301
 30
0.0
 40
12.715116
 50
144.533818
 51
158.153358
  0
LINE
  8
FF
  5
EA5
 10
33.029894
 20
-45.851707
 30
0.0
 11
31.60273
 21
-45.851707
 31
0.0
  0
LINE
  8
FF
  5
EA6
 10
33.743894
 20
-42.785707
 30
0.0
 11
33.743894
 21
-41.342464
 31
0.0
  0
TEXT
  8
FF
  5
EAA
 10
124.743894
 20
-54.251707
 30
0.0
 40
14.0
  1
SC-N4
  0
LINE
  8
FF
  5
EAC
 10
336.784777
 20
-96.251707
 30
0.0
 11
602.784777
 21
-96.251707
 31
0.0
  0
LINE
  8
FF
  5
EAD
 10
336.784777
 20
-82.251707
 30
0.0
 11
602.784777
 21
-82.251707
 31
0.0
  0
LINE
  8
FF
  5
EAE
 10
336.784777
 20
-68.251707
 30
0.0
 11
602.784777
 21
-68.251707
 31
0.0
  0
LINE
  8
FF
  5
EAF
 10
336.784777
 20
-54.251707
 30
0.0
 11
602.784777
 21
-54.251707
 31
0.0
  0
LINE
  8
FF
  5
EB2
 10
336.784777
 20
-40.251707
 30
0.0
 11
602.784777
 21
-40.251707
 31
0.0
  0
TEXT
  8
FF
  6
CONTINUOUS
  5
EB5
 10
343.601065
 20
-78.382294
 30
0.0
 40
7.0
  1
変更
  0
TEXT
  8
FF
  6
CONTINUOUS
  5
EB6
 10
343.601065
 20
-65.157546
 30
0.0
 40
7.0
  1
作成
  0
LINE
  8
FF
  5
EB9
 10
336.784777
 20
-40.251707
 30
0.0
 11
336.784777
 21
-96.251707
 31
0.0
  0
LINE
  8
FF
  5
EBA
 10
420.784777
 20
-40.251707
 30
0.0
 11
420.784777
 21
-96.251707
 31
0.0
  0
LINE
  8
FF
  5
EBB
 10
364.784777
 20
-40.251707
 30
0.0
 11
364.784777
 21
-96.251707
 31
0.0
  0
TEXT
  8
FF
  6
CONTINUOUS
  5
EBD
 10
373.261848
 20
-65.157546
 30
0.0
 40
7.0
  1
2004-3
  0
TEXT
  8
FF
  6
CONTINUOUS
  5
EBE
 10
384.286778
 20
-50.945106
 30
0.0
 40
7.0
  1
日付
  0
LINE
  8
FF
  5
EC3
 10
490.784777
 20
-40.251707
 30
0.0
 11
490.784777
 21
-96.251707
 31
0.0
  0
TEXT
  8
FF
  6
CONTINUOUS
  5
EC5
 10
444.897052
 20
-50.945106
 30
0.0
 40
7.0
  1
ﾌｧｲﾙ名
  0
TEXT
  8
FF
  6
CONTINUOUS
  5
EC6
 10
425.560856
 20
-65.157546
 30
0.0
 40
7.0
  1
SC-N4
  0
TEXT
  8
FF
  6
CONTINUOUS
  5
EC7
 10
515.065561
 20
-50.945106
 30
0.0
 40
7.0
  1
図面番号
  0
LINE
  8
FF
  5
EC8
 10
602.784777
 20
-40.251707
 30
0.0
 11
602.784777
 21
-96.251707
 31
0.0
  0
LINE
  8
FF
  5
EC9
 10
574.784777
 20
-40.251707
 30
0.0
 11
574.784777
 21
-96.251707
 31
0.0
  0
TEXT
  8
FF
  6
CONTINUOUS
  5
ECB
 10
582.089914
 20
-50.945106
 30
0.0
 40
7.0
  1
変更
  0
TEXT
  8
FF
  5
103B
 10
124.743894
 20
-73.521442
 30
0.0
 40
14.0
  1
SC-N4H , SC-N4/U
  0
TEXT
  8
FF
  6
CONTINUOUS
  5
103C
 10
373.261848
 20
-79.157546
 30
0.0
 40
7.0
  1
2005-12
  0
TEXT
  8
FF
  6
CONTINUOUS
  5
103D
 10
425.560856
 20
-79.157546
 30
0.0
 40
7.0
  1
SC-N4
  0
ENDSEC
  0
EOF
